osu file format v6

[General]
AudioFilename: The heave.mp3
AudioLeadIn: 0
PreviewTime: -1
Countdown: 1
SampleSet: Normal
StackLeniency: 0.7
Mode: 0
LetterboxInBreaks: 1

[Editor]
DistanceSpacing: 0.800000011920929
BeatDivisor: 8
GridSize: 8

[Metadata]
Title:? The heave
Artist:Hidamari Sketch
Creator:uasddd
Version:Easy
Source:
Tags:

[Difficulty]
HPDrainRate:4
CircleSize:4
OverallDifficulty:5
SliderMultiplier:1
SliderTickRate:2

[Events]
//Background and Video events
Video,6099,"20389414.avi"
0,0,"OHAYO.jpg"
//Break Periods
//Storyboard Layer 0 (Background)
//Storyboard Layer 1 (Fail)
//Storyboard Layer 2 (Pass)
//Storyboard Layer 3 (Foreground)
//Storyboard Sound Samples
//Background Colour Transformations
3,100,255,255,255

[TimingPoints]
800,600,4,1,0,100,1,0

[Colours]
Combo1 : 217,179,255
Combo2 : 255,172,255
Combo3 : 255,255,128
Combo4 : 172,255,172
Combo5 : 176,234,255

[HitObjects]
80,80,1302,1,2
128,136,1902,1,2
192,200,2602,1,2
216,232,2902,2,2,B|296:320,1,100
232,304,3902,5,2
280,248,4502,1,2
336,176,5202,1,2
360,144,5502,2,2,B|424:56,1,100
368,64,6502,5,0
304,64,7002,1,0
224,64,7602,1,0
144,64,8202,1,0
192,160,9002,2,0,B|192:224,1,50
192,256,9650,2,0,B|192:328,1,50
272,312,10325,1,0
272,272,10625,1,0
272,232,10925,1,0
312,192,11602,5,8
296,112,12202,1,8
336,112,12502,1,8
360,224,13402,5,0
200,224,14202,1,0
136,224,14502,1,0
136,160,14802,2,0,B|232:160,1,75
376,80,16002,5,0
216,80,16802,1,0
152,80,17102,1,0
152,136,17402,2,12,B|216:136,1,50
288,136,18002,2,0,B|384:136|384:136|392:136,1,100
392,240,19402,5,0
312,240,20002,1,0
272,240,20302,1,0
272,240,20502,1,0
200,248,21350,5,0
120,256,21950,2,0,B|120:192,2,50
208,256,23202,5,0
208,216,23502,1,0
256,192,23902,12,0,26102
248,64,26802,5,0
248,184,27402,1,0
320,88,28002,5,14
176,88,28702,1,14
192,136,29102,6,0,B|248:200|312:128,1,125
248,256,30802,1,0
176,104,31602,5,14
312,112,32202,1,14
368,112,32502,1,14
368,160,32900,6,0,B|392:256|288:232|216:232|120:256|152:136,1,325
136,72,35450,5,0
232,72,36125,1,0
320,72,36725,1,0
352,72,37100,2,0,B|456:72,1,100
432,120,38075,5,0
360,120,38750,1,0
280,120,39350,2,0,B|184:120,1,87.5
48,192,41000,5,0
80,192,41225,2,0,B|184:192,1,100
272,192,42425,1,0
368,240,43250,5,0
320,240,43550,5,14
280,240,43850,5,0
240,240,44150,5,14
200,240,44450,5,0
160,240,44825,5,14
120,240,45125,5,0
80,240,45425,5,14
88,168,45950,6,0,B|152:168|152:168|88:88|88:88|248:88|248:88|192:168|192:168|248:168,1,475
360,152,49700,1,4
400,152,50000,1,4
480,152,50600,1,4
480,72,50975,6,0,B|424:72,1,50
408,72,51425,2,0,B|352:72,1,50
304,72,52100,2,0,B|232:72,1,62.5
200,72,52775,1,0
184,184,53600,5,0
224,184,53900,1,0
280,184,54350,2,0,B|336:184,1,50
368,184,54950,2,0,B|432:184,1,62.5
368,80,56150,6,0,B|232:80,1,125
192,80,57350,2,0,B|56:80,1,125
64,128,58700,5,14
104,128,59000,1,14
144,128,59300,1,14
192,128,59675,1,14
192,128,59825,1,14
32,56,61100,5,0
104,56,61625,1,0
136,64,61925,1,0
160,80,62225,1,0
176,104,62525,1,0
192,168,63050,1,0
192,280,63725,5,0
264,280,64175,1,0
296,256,64475,1,0
312,224,64775,1,0
320,184,65075,1,0
328,112,65825,1,0
328,64,66350,1,0
280,64,67100,6,0,B|176:64,1,100
128,64,68150,1,0
128,144,69050,1,0
128,216,69725,1,0
176,216,70175,5,8
208,216,70475,1,8
240,216,70775,1,8
272,216,71075,1,8
280,136,71525,6,0,B|216:136,3,62.5
176,136,72950,1,0
96,136,73400,1,0
72,48,74150,5,0
128,48,74600,2,0,B|184:48,3,50
256,40,76100,2,0,B|320:40,1,62.5
256,120,77375,5,0
256,232,78125,1,0
256,280,78650,1,0
192,288,79325,5,0
192,248,79625,1,0
192,208,79925,1,0
192,168,80225,1,0
192,128,80525,1,0
256,192,81800,12,0,83450
112,72,84500,6,0,B|176:72,1,62.5
216,72,85175,2,0,B|274:72,1,50
312,72,85850,2,0,B|384:72|384:72|384:136|384:136|384:144,1,137.5
384,184,87050,6,0,B|320:184,1,62.5
288,184,87650,2,0,B|224:184,1,62.5
184,184,88325,2,0,B|112:184|112:184|112:264,1,150
176,240,89675,5,4
264,240,90350,1,4
264,136,90950,1,4
304,136,91250,1,4
352,136,91625,2,4,B|352:240,1,100
192,184,93500,5,4
272,184,94100,1,12
352,184,94700,2,12,B|384:184,3,25
