osu file format v5

[General]
AudioFilename: Hey - A ty_.mp3
AudioLeadIn: 0
PreviewTime: -1
Countdown: 0
SampleSet: Normal
StackLeniency: 0.7
Mode: 0
LetterboxInBreaks: 1

[Metadata]
Title:Hey - A Ty
Artist:
Creator:skovpion
Version:Easy
Source:
Tags:

[Difficulty]
HPDrainRate:3
CircleSize:3
OverallDifficulty:5
SliderMultiplier:1.5
SliderTickRate:1

[Events]
//Background and Video events
0,0,"wall14.jpg"
//Break Periods
//Storyboard Layer 0 (Background)
//Storyboard Layer 1 (Failing)
//Storyboard Layer 2 (Passing)
//Storyboard Layer 3 (Foreground)
//Storyboard Sound Samples
//Background Colour Transformations
3,100,163,162,255

[TimingPoints]
3920,444.438461538462,4,1,0,100,1

[HitObjects]
256,192,1549,12,0,5031
32,132,5475,6,0,B|448:132,1,400
432,132,7253,6,0,B|42:303,1,400
65,292,9031,6,0,B|481:292,1,400
219,192,11179,2,0,B|315:192,3,75
45,313,12586,2,0,B|461:313,1,400
444,313,14364,2,0,B|96:78,1,400
112,90,16142,2,0,B|528:90,1,400
332,195,18808,2,0,B|169:195,1,150
33,59,20142,5,0
32,191,21030,1,0
33,322,21919,1,0
134,194,22808,1,0
228,194,23697,1,0
323,195,24586,1,0
419,195,25475,1,0
420,62,26364,1,0
420,197,27253,1,0
419,323,28141,1,0
420,198,29030,1,0
316,196,29919,1,0
222,196,30808,1,0
127,194,31697,1,0
30,194,32586,1,0
257,93,33475,1,0
158,196,34364,1,0
258,291,35252,1,0
355,192,36141,1,0
259,96,37030,1,0
157,196,37919,1,0
257,292,38808,1,0
358,192,39697,1,0
258,94,40586,1,0
156,195,41475,1,0
256,295,42363,1,0
359,197,43252,1,0
256,94,44141,1,0
155,195,45030,1,0
256,292,45919,1,0
257,193,46808,1,0
96,64,47697,5,0
208,63,48363,2,0,B|496:63,1,275
307,162,50141,2,0,B|23:162,1,275
203,260,51919,2,0,B|491:260,1,275
310,354,53697,2,0,B|15:354,1,275
34,314,55474,2,0,B|34:30,1,275
256,46,57252,2,0,B|256:344,1,275
478,191,59030,2,0,B|197:191,1,275
40,192,60141,2,0,B|136:192,5,75
256,192,61697,12,0,63622
65,30,64141,6,0,B|449:30,1,375
439,127,65919,2,0,B|38:127,1,375
64,224,67696,2,0,B|448:224,1,375
293,321,69919,6,0,B|215:321,3,75
66,355,71252,6,0,B|267:10,1,375
254,30,73030,2,0,B|455:356,1,375
450,347,74807,2,0,B|71:346,1,375
158,297,77030,6,0,B|382:297,1,200
361,219,77919,5,0
276,219,78585,6,0,B|199:219,2,75
109,230,79474,1,0
107,158,79918,2,0,B|10:158,2,75
111,88,80807,2,0,B|207:88,2,75
112,158,81696,2,0,B|208:158,2,75
114,228,82585,2,0,B|210:228,2,75
33,224,83474,2,0,B|33:144,6,75
115,124,85252,2,0,B|211:124,2,75
189,254,86141,2,0,B|95:254,2,75
296,258,87029,2,0,B|392:258,2,75
368,130,87918,2,0,B|287:130,2,75
258,82,88807,2,0,B|258:165,2,75
256,301,89696,2,0,B|256:219,2,75
225,162,90585,2,0,B|281:220,5,75
33,162,92141,5,0
98,226,93029,1,0
159,157,93918,1,0
227,224,94807,1,0
291,160,95696,1,0
356,227,96585,1,0
418,163,97474,1,0
480,226,98363,1,0
420,288,99252,1,0
356,225,100140,1,0
290,163,101029,1,0
223,95,101918,1,0
158,34,102807,1,0
95,101,103696,1,0
32,160,104585,1,0
97,226,105474,1,0
35,291,106363,5,0
139,292,107029,2,0,B|459:292,1,300
436,226,108807,2,0,B|123:225,1,300
135,159,110585,2,0,B|455:159,1,300
433,92,112362,2,0,B|120:92,1,300
36,160,114140,2,0,B|356:160,1,300
335,227,115918,2,0,B|20:227,1,300
34,294,117696,2,0,B|354:294,1,300
405,293,118807,6,0,B|490:293,5,75
256,192,120733,12,0,121844
257,195,122436,5,0
320,257,123029,2,0,B|381:318,2,75
255,194,123918,1,0
192,129,124362,2,0,B|131:67,2,75
192,194,125251,2,0,B|107:194,2,75
319,193,126140,2,0,B|413:194,2,75
256,258,127029,2,0,B|256:340,2,75
256,51,127918,2,0,B|256:132,2,75
336,55,128584,1,0
338,112,128807,1,0
337,168,129029,1,0
336,223,129251,1,0
259,291,129696,6,0,B|171:292,2,75
181,222,130584,2,0,B|277:222,2,75
253,154,131473,2,0,B|173:153,2,75
178,85,132362,2,0,B|274:85,2,75
253,17,133251,2,0,B|166:18,2,75
177,84,134140,2,0,B|273:84,2,75
115,156,135029,2,0,B|211:156,6,75
35,146,136584,6,0,B|113:61|177:29|273:29|337:29|401:61|463:122|463:122,1,475
474,187,138140,2,0,B|433:261|307:316|206:310|84:264|31:188,1,500
0,64,139918,2,0,B|480:64|480:64|480:352|480:352|120:350|120:350|96:352,1,1150
37,261,143695,5,0
131,263,144584,1,0
229,263,145473,1,0
326,262,146362,1,0
324,158,147251,1,0
221,165,148140,1,0
122,163,149029,1,0
32,199,149918,1,0
20,115,150584,1,0
20,48,150732,6,0,B|502:48,1,475
493,118,152510,6,0,B|9:118,1,475
19,187,154362,2,0,B|479:186,1,450
468,252,156140,2,0,B|4:252,1,450
32,225,157917,2,0,B|124:296|210:314|326:315|390:280|457:217,1,450
465,188,159695,2,0,B|4:188,1,450
16,156,161473,2,0,B|120:74|236:66|380:93|455:173,1,450
149,35,163251,2,0,B|301:35|446:176|446:342,1,450
97,326,165028,2,0,B|96:180|268:45|410:33,1,450
418,130,166806,5,0
222,128,168140,1,0
125,128,168584,1,0
126,258,169917,1,0
224,258,170362,1,0
289,257,171695,1,0
387,258,172139,1,0
386,126,173473,1,0
289,127,173917,1,0
223,130,175251,1,0
127,130,175695,1,0
126,260,177028,1,0
223,258,177473,1,0
63,101,178806,5,0
161,98,179250,1,0
252,97,179917,2,0,B|332:98,1,75
355,97,180584,1,0
453,97,181028,1,0
456,196,181695,2,0,B|377:196,1,75
287,195,182362,1,0
192,194,182806,1,0
92,194,183473,2,0,B|13:194,1,75
31,291,184139,1,0
128,291,184584,1,0
223,291,185250,2,0,B|311:291,1,75
386,291,185917,1,0
479,290,186361,1,0
478,190,187028,2,0,B|478:113,1,75
480,29,187695,1,0
382,30,188139,1,0
386,128,188806,2,0,B|386:209,1,75
387,291,189473,1,0
288,291,189917,1,0
290,190,190584,2,0,B|290:107,1,75
291,34,191250,1,0
189,33,191695,1,0
193,134,192361,2,0,B|193:214,1,75
192,292,193028,1,0
256,192,193398,12,0,196732
