osu file format v14

[General]
AudioFilename: Gulong.mp3
AudioLeadIn: 0
PreviewTime: 60123
Countdown: 0
SampleSet: Soft
StackLeniency: 0.7
Mode: 0
LetterboxInBreaks: 0
WidescreenStoryboard: 1

[Editor]
DistanceSpacing: 1.3
BeatDivisor: 4
GridSize: 4
TimelineZoom: 1

[Metadata]
Title:Gu Long Qun Xia Zhuan
TitleUnicode:古龙群侠传
Artist:Hetu
ArtistUnicode:河图
Creator:Megurine Luka
Version:3370
Source:
Tags:墨明棋妙 Mo Ming Qi Miao 丢子 Diu zi
BeatmapID:686698
BeatmapSetID:303092

[Difficulty]
HPDrainRate:6
CircleSize:3
OverallDifficulty:6
ApproachRate:6
SliderMultiplier:1.4
SliderTickRate:1

[Events]
//Background and Video events
0,0,"BG.jpg",0,0
//Break Periods
//Storyboard Layer 0 (Background)
//Storyboard Layer 1 (Fail)
//Storyboard Layer 2 (Pass)
//Storyboard Layer 3 (Foreground)
//Storyboard Sound Samples
Sample,87815,2,"soft-hitclap.wav",30

[TimingPoints]
123,461.538461538462,4,2,1,40,1,0
16738,-133.333333333333,4,2,1,40,0,0
21353,-133.333333333333,4,2,1,20,0,0
21815,-133.333333333333,4,2,1,40,0,0
23199,-133.333333333333,4,2,1,20,0,0
23430,-133.333333333333,4,2,1,40,0,0
26661,-133.333333333333,4,2,1,20,0,0
27353,-133.333333333333,4,2,1,40,0,0
28507,-133.333333333333,4,2,1,20,0,0
29430,-133.333333333333,4,2,1,40,0,0
30815,-133.333333333333,4,2,2,20,0,0
31507,-133.333333333333,4,2,1,30,0,0
32892,-133.333333333333,4,2,1,40,0,0
37738,-133.333333333333,4,2,1,20,0,0
38430,-133.333333333333,4,2,1,40,0,0
41430,-133.333333333333,4,2,1,20,0,0
41892,-133.333333333333,4,2,1,40,0,0
43276,-133.333333333333,4,2,1,20,0,0
44199,-133.333333333333,4,2,1,40,0,0
45584,-133.333333333333,4,2,2,40,0,0
46276,-133.333333333333,4,2,1,40,0,0
49623,-133.333333333333,4,2,1,20,0,0
49738,-133.333333333333,4,2,1,40,0,0
51469,-133.333333333333,4,2,1,20,0,0
51584,-133.333333333333,4,2,1,40,0,0
61046,-100,4,2,0,50,0,1
61161,-100,4,2,1,50,0,1
67853,-100,4,2,1,20,0,1
67969,-100,4,2,1,50,0,1
68315,-100,4,2,1,20,0,1
68430,-100,4,2,1,50,0,1
74892,-133.333333333333,4,2,1,50,0,1
75815,-100,4,2,0,50,0,1
75930,-100,4,2,1,50,0,1
82623,-100,4,2,1,20,0,1
82738,-100,4,2,1,50,0,1
83084,-100,4,2,1,20,0,1
83199,-100,4,2,1,50,0,1
90584,-100,4,2,0,50,0,0

[Colours]
Combo1 : 192,192,192
Combo2 : 83,83,83

[HitObjects]
36,76,16738,6,0,B|192:12|171:205|344:108,1,315.000012016297
492,80,18584,2,0,P|475:99|468:124,1,52.5000020027161
480,208,19046,1,0,0:0:0:0:
504,288,19276,2,0,P|499:339|457:376,1,105.000004005432
376,364,19969,1,0,0:0:0:0:
308,316,20199,2,0,B|291:259|336:196|392:196,1,157.500006008148
240,104,21353,2,0,P|226:47|186:21,1,105.000004005432,4|0,0:0|0:0,0:0:0:0:
48,108,22276,6,0,P|62:165|102:191,1,105.000004005432
176,224,22969,1,0,0:0:0:0:
108,272,23199,2,0,P|109:297|124:319,1,52.5000020027161,8|0,3:0|0:0,0:0:0:0:
200,356,23661,1,0,0:0:0:0:
268,308,23892,2,0,B|308:280|384:300|402:349,1,157.500006008148
402,348,25046,1,2,0:0:0:0:
364,184,25507,2,0,P|369:158|386:139,1,52.5000020027161
312,100,25969,6,0,P|305:50|250:5,1,105.000004005432
184,20,26661,1,8,0:3:0:0:
184,20,26892,2,0,L|76:60,1,105.000004005432,8|0,0:3|0:0,0:0:0:0:
32,120,27584,1,0,0:0:0:0:
92,276,28046,2,0,P|128:239|180:232,1,105.000004005432,0|8,0:0|0:3,0:0:0:0:
248,280,28738,1,8,0:3:0:0:
488,364,29430,2,0,P|436:356|400:319,1,105.000004005432,0|0,0:0|3:0,0:0:0:0:
400,319,30123,1,0,3:0:0:0:
368,240,30353,2,0,L|400:176,1,52.5000020027161
464,152,30815,5,8,0:0:0:0:
480,128,31276,1,8,0:0:0:0:
456,48,31507,6,0,B|317:-1|316:146|154:89,1,315.000012016297,2|0,0:0|0:0,0:0:0:0:
44,216,33353,2,0,P|70:199|101:199,1,52.5000020027161
164,240,33815,1,0,0:0:0:0:
220,304,34046,2,0,P|262:334|319:330,1,105.000004005432
392,304,34738,1,0,0:0:0:0:
380,220,34969,2,0,L|420:64,2,157.500006008148
380,220,36815,1,0,0:0:0:0:
316,272,37046,6,0,P|258:262|225:211,1,105.000004005432
180,160,37738,1,8,0:3:0:0:
180,160,37969,2,0,L|200:48,1,105.000004005432,8|0,0:3|0:0,0:0:0:0:
128,12,38661,1,0,0:0:0:0:
44,16,38892,6,0,B|-4:41|-14:118|27:167,1,157.500006008148
132,380,40276,2,0,B|199:361|226:259|176:197,1,210.000008010865
236,140,41430,1,8,0:3:0:0:
236,140,41661,1,8,0:3:0:0:
296,200,41892,2,0,P|318:213|344:211,1,52.5000020027161
416,168,42353,2,0,B|368:193|358:270|399:319,1,157.500006008148
464,352,43276,1,8,0:3:0:0:
464,352,43507,1,8,0:3:0:0:
220,284,44199,5,0,0:0:0:0:
52,304,44661,1,0,3:0:0:0:
52,304,44892,1,0,3:0:0:0:
84,228,45123,1,4,0:0:0:0:
52,152,45353,1,8,0:0:0:0:
72,72,45584,1,8,0:0:0:0:
88,48,46046,1,8,0:0:0:0:
168,24,46276,6,0,P|199:30|224:52,1,52.5000020027161,4|2,0:0|0:0,0:0:0:0:
228,178,46738,2,0,P|218:154|220:128,1,52.5000020027161,0|2,0:0|0:0,0:0:0:0:
292,84,47199,1,0,0:0:0:0:
376,96,47430,1,2,0:0:0:0:
376,96,47546,1,0,0:0:0:0:
376,96,47661,1,2,0:0:0:0:
456,68,47892,2,0,P|482:106|478:169,1,105.000004005432,2|2,0:0|0:0,0:0:0:0:
424,224,48584,1,0,0:0:0:0:
340,208,48815,2,0,P|314:209|292:223,1,52.5000020027161,2|2,0:0|0:0,0:0:0:0:
244,292,49276,2,0,P|210:318|157:318,1,78.7500030040742,2|0,0:0|0:0,0:0:0:0:
136,304,49738,6,0,L|96:188,1,105.000004005432,2|2,0:0|0:0,0:0:0:0:
116,120,50430,1,0,0:0:0:0:
56,60,50661,2,0,P|25:69|4:90,1,52.5000020027161,2|0,0:0|0:0,0:0:0:0:
184,168,51123,2,0,P|224:156|253:124,1,78.7500030040742,2|0,0:0|0:0,0:0:0:0:
268,92,51584,2,0,P|303:59|374:57,1,105.000004005432,2|2,0:0|0:0,0:0:0:0:
436,76,52276,5,0,0:0:0:0:
476,148,52507,1,2,0:0:0:0:
472,232,52738,1,2,0:0:0:0:
420,300,52969,2,0,P|381:334|330:340,1,105.000004005432,2|0,0:0|0:0,0:0:0:0:
256,300,53661,6,0,L|216:180,1,105.000004005432,2|0,0:0|0:0,0:0:0:0:
164,140,54353,2,0,P|112:145|74:180,1,105.000004005432,2|2,0:0|0:0,0:0:0:0:
188,56,55276,1,0,0:0:0:0:
248,116,55507,6,0,P|299:110|337:75,1,105.000004005432,2|0,0:0|0:0,0:0:0:0:
416,44,56199,2,0,B|363:60|338:130|369:192,1,157.500006008148,2|2,0:0|0:0,0:0:0:0:
420,236,57123,1,2,0:0:0:0:
392,316,57353,6,0,B|370:356|285:337|281:291|281:291|157:314|119:139|232:104,1,420.000016021729,2|4,0:0|0:0,0:0:0:0:
372,72,59546,1,4,0:0:0:0:
272,192,59892,1,4,0:0:0:0:
128,148,60123,6,0,P|92:109|24:105,1,105.000004005432
160,292,61046,6,0,B|174:336|237:362|285:337,1,140,4|0,0:0|0:0,0:0:0:0:
348,284,61738,2,0,P|370:254|408:245,1,70,0|8,0:0|0:0,0:0:0:0:
384,156,62199,2,0,B|428:142|454:79|429:31,1,140
344,52,62892,6,0,P|306:43|285:11,1,70
155,35,63353,2,0,P|189:42|212:68,1,70
240,156,63815,2,0,B|261:195|235:258|191:272,1,140,8|0,0:0|0:0,0:0:0:0:
352,188,64738,6,0,P|380:165|421:163,1,70
440,248,65199,1,0,0:0:0:0:
496,320,65430,1,0,0:0:0:0:
424,376,65661,2,0,P|389:371|363:349,1,70,8|0,0:0|0:0,0:0:0:0:
308,276,66123,1,8,0:0:0:0:
308,276,66353,1,8,0:0:0:0:
220,248,66584,5,0,0:0:0:0:
132,276,66815,2,0,B|126:223|63:196|11:223,1,140,12|0,0:0|0:0,0:0:0:0:
108,184,67507,2,0,B|142:170|158:131|146:86,1,105,8|0,0:0|0:0,0:0:0:0:
136,52,67969,2,0,B|150:86|189:102|234:90,1,105
264,72,68430,5,4,0:0:0:0:
372,104,68661,2,0,B|400:143|390:211|333:238,1,140,4|0,0:0|0:0,0:0:0:0:
260,248,69353,2,0,B|232:287|242:355|299:382,1,140,8|8,0:0|0:0,0:0:0:0:
112,308,70276,1,4,0:0:0:0:
96,220,70507,2,0,B|124:181|114:113|57:86,1,140,4|0,0:0|0:0,0:0:0:0:
0,40,71199,1,8,0:0:0:0:
0,40,71892,1,0,0:0:0:0:
72,96,72123,6,0,P|104:92|135:61,1,70,4|0,0:0|0:0,0:0:0:0:
225,18,72584,2,0,P|212:50|220:84,1,70
160,152,73046,2,0,B|210:161|239:222|219:273,1,140,8|0,0:0|0:0,0:0:0:0:
222,260,73738,1,0,0:0:0:0:
196,348,73969,5,0,0:0:0:0:
196,348,74199,2,0,B|205:298|266:269|317:289,1,140
388,324,74892,6,0,P|430:351|493:342,1,105.000004005432
380,232,75815,6,0,P|387:181|359:128,2,105,4|0|0,0:0|0:0|0:0,0:0:0:0:
304,285,76738,1,0,0:0:0:0:
212,272,76969,2,0,B|170:260|113:288|105:340,1,140
92,248,77661,6,0,P|65:225|31:219,1,70
160,188,78123,2,0,P|186:165|220:159,1,70
88,132,78584,2,0,B|110:88|87:23|29:6,1,140,8|0,0:0|0:0,0:0:0:0:
132,44,79276,1,0,0:0:0:0:
204,100,79507,6,0,P|228:119|277:116,1,70
348,80,79969,1,0,0:0:0:0:
436,104,80199,1,0,0:0:0:0:
492,176,80430,2,0,P|491:210|471:238,1,70,8|0,0:0|0:0,0:0:0:0:
392,280,80892,1,8,0:0:0:0:
392,280,81123,1,8,0:0:0:0:
304,264,81353,5,0,0:0:0:0:
244,196,81584,2,0,B|217:155|235:87|290:74,1,140,12|0,0:0|0:0,0:0:0:0:
192,100,82276,2,0,B|155:112|109:92|95:50,1,105,8|0,0:0|0:0,0:0:0:0:
76,24,82738,2,0,B|88:61|68:107|26:121,1,105
0,136,83199,5,4,0:0:0:0:
40,240,83430,2,0,B|28:286|53:343|108:354,1,140,4|0,0:0|0:0,0:0:0:0:
172,296,84123,2,0,B|188:251|249:236|292:256,1,140,8|8,0:0|0:0,0:0:0:0:
452,348,85046,1,4,0:0:0:0:
376,300,85276,2,0,B|331:283|316:222|336:179,1,140,4|0,0:0|0:0,0:0:0:0:
416,136,85969,2,0,B|435:93|420:33|376:16,1,140,8|0,0:0|0:0,0:0:0:0:
284,16,86661,1,0,0:0:0:0:
248,100,86892,6,0,P|217:121|169:119,1,70,4|0,0:0|0:0,0:0:0:0:
112,68,87353,1,0,0:0:0:0:
24,140,87584,2,0,B|-6:173|4:247|60:268,1,140
136,276,88276,1,0,0:0:0:0:
180,196,88507,2,0,P|178:156|156:125,1,70,8|0,0:0|0:0,0:0:0:0:
128,48,88969,2,0,B|144:97|210:117|260:92,1,140
332,120,89661,2,0,B|348:71|414:51|464:76,2,140,8|0|4,0:0|0:0|0:0,0:0:0:0:
256,192,90699,12,0,92430,0:0:0:0:
