osu file format v13

[General]
AudioFilename: Fairy Tail Opening 12.mp3
AudioLeadIn: 0
PreviewTime: 65299
Countdown: 0
SampleSet: Normal
StackLeniency: 0.7
Mode: 0
LetterboxInBreaks: 0
WidescreenStoryboard: 0

[Editor]
DistanceSpacing: 1
BeatDivisor: 4
GridSize: 8
TimelineZoom: 1

[Metadata]
Title:TenoHira (TV Size)
TitleUnicode:TenoHira (TV Size)
Artist:Hero
ArtistUnicode:Hero
Creator:spaghetti2222
Version:Zeref Insane
Source:Fairy Tail
Tags:Fairy Tail Opening Anime
BeatmapID:211447
BeatmapSetID:72802

[Difficulty]
HPDrainRate:6
CircleSize:4
OverallDifficulty:8
ApproachRate:8
SliderMultiplier:2
SliderTickRate:1

[Events]
//Background and Video events
Video,0,"Fairy Tail Opening 12 [TV Subs]_xvid_002.avi"
0,0,"fairy_tail_anime_1920x1080_wallpaper_Wallpaper.jpg",0,0
//Break Periods
//Storyboard Layer 0 (Background)
//Storyboard Layer 1 (Fail)
//Storyboard Layer 2 (Pass)
//Storyboard Layer 3 (Foreground)
//Storyboard Sound Samples
//Background Colour Transformations
3,100,128,0,0

[TimingPoints]
1091.29693318778,289.855072463768,4,1,0,80,1,0
28337,-100,4,1,0,80,0,1
37613,-200,4,1,0,80,0,1
38192,-100,4,1,0,80,0,1
45149,-100,4,1,0,80,0,0
65439,-200,4,1,0,80,0,1
66018,-100,4,1,0,80,0,1
74714,-200,4,1,0,80,0,1
75294,-100,4,1,0,80,0,1
86888,-100,4,1,0,80,0,0

[Colours]
Combo1 : 0,0,160
Combo2 : 128,0,0
Combo3 : 170,110,0

[HitObjects]
256,192,1091,5,4,0:0:0:0:
336,88,1381,2,2,P|384:120|368:168,1,100
184,288,1671,2,2,P|136:256|152:208,1,100
256,192,1960,1,0,0:0:0:0:
352,192,2105,2,2,P|256:96|176:240,1,300
256,336,2685,5,0,0:0:0:0:
144,224,2830,2,2,P|112:192|160:160,1,100
368,224,3120,2,2,P|400:192|352:160,1,100
256,16,3555,5,0,0:0:0:0:
176,128,3699,2,2,P|160:192|192:192,1,100
336,288,3989,2,2,P|352:352|320:352,1,100
176,352,4279,1,0,0:0:0:0:
256,240,4424,2,2,L|384:64|384:64,1,200
288,80,4859,5,2,0:0:0:0:
240,144,5004,1,0,0:0:0:0:
288,208,5149,1,2,0:0:0:0:
240,272,5294,1,0,0:0:0:0:
288,336,5439,1,2,0:0:0:0:
336,272,5584,2,2,P|416:176|336:32,1,300
288,80,6163,5,0,0:0:0:0:
240,144,6308,1,2,0:0:0:0:
160,160,6453,1,0,0:0:0:0:
112,224,6598,1,2,0:0:0:0:
144,296,6743,2,2,P|256:360|416:280,1,300
272,240,7323,5,0,0:0:0:0:
400,176,7468,2,2,P|368:112|304:128,1,100
128,304,7757,2,2,P|160:368|224:352,1,100
256,192,8047,12,0,9207,0:0:0:0:
256,96,9786,5,0,0:0:0:0:
160,192,9931,1,0,0:0:0:0:
368,192,10076,1,8,0:0:0:0:
256,296,10221,1,8,0:0:0:0:
256,192,10366,1,8,0:0:0:0:
416,64,10656,6,0,L|336:128,1,100
256,192,10946,1,0,0:0:0:0:
112,320,11236,1,0,0:0:0:0:
112,320,11381,2,2,P|64:224|112:144,1,200
144,224,11815,1,0,0:0:0:0:
192,144,11960,1,0,0:0:0:0:
240,224,12105,1,0,0:0:0:0:
288,144,12250,1,0,0:0:0:0:
336,224,12395,1,0,0:0:0:0:
336,224,12540,2,2,P|400:288|320:336,1,200
256,344,12975,5,8,0:0:0:0:
256,32,13265,1,8,0:0:0:0:
256,344,13555,5,8,0:0:0:0:
256,344,13844,2,2,P|192:248|320:168,1,300
288,256,14424,2,2,P|409:229|328:80,1,300
312,40,15004,1,0,0:0:0:0:
240,80,15149,1,0,0:0:0:0:
280,152,15294,1,4,0:0:0:0:
464,192,16018,5,8,0:0:0:0:
400,272,16163,2,0,L|336:176,1,100,8|0,0:0|0:0,0:0:0:0:
272,272,16453,2,0,L|208:192,1,100,8|0,0:0|0:0,0:0:0:0:
144,272,16743,2,0,L|80:192,1,100,8|0,0:0|0:0,0:0:0:0:
160,128,17033,1,0,0:0:0:0:
256,64,17178,2,0,P|400:32|480:192,1,300,8|8,0:0|0:0,0:0:0:0:
256,192,17902,12,0,19062,0:0:0:0:
256,240,19352,5,0,0:0:0:0:
208,200,19424,1,0,0:0:0:0:
232,152,19497,1,0,0:0:0:0:
280,152,19569,1,0,0:0:0:0:
304,200,19642,1,4,0:0:0:0:
256,24,19931,5,0,0:0:0:0:
416,200,20221,2,2,P|432:280|368:320,1,100
376,360,20511,2,2,P|296:376|256:312,1,100
216,320,20801,1,0,0:0:0:0:
256,24,21091,5,0,0:0:0:0:
96,200,21381,2,2,P|80:280|144:320,1,100
136,360,21671,2,2,P|216:376|256:312,1,100
296,320,21960,1,0,0:0:0:0:
296,16,22250,1,8,0:0:0:0:
296,368,22540,1,8,0:0:0:0:
512,192,22830,5,8,0:0:0:0:
440,288,23120,2,2,P|344:264|344:160,1,200
408,104,23699,1,8,0:0:0:0:
408,208,23989,2,0,L|496:288,1,100,0|8,0:0|0:0,0:0:0:0:
400,304,24279,2,0,L|312:384,1,100,0|8,0:0|0:0,0:0:0:0:
256,320,24569,5,0,0:0:0:0:
256,64,24859,1,8,0:0:0:0:
256,320,25149,1,0,0:0:0:0:
360,64,25439,2,0,P|408:88|424:152,1,100,0|8,0:0|0:0,0:0:0:0:
152,320,25728,2,0,P|104:296|88:232,1,100,0|8,0:0|0:0,0:0:0:0:
152,64,26018,2,0,P|104:88|88:152,1,100,0|8,0:0|0:0,0:0:0:0:
360,320,26308,2,0,P|408:296|424:232,1,100,0|8,0:0|0:0,0:0:0:0:
360,64,26598,2,0,P|408:88|424:152,1,100,0|12,0:0|0:0,0:0:0:0:
80,64,27178,5,8,0:0:0:0:
432,64,27468,1,8,0:0:0:0:
256,336,27757,1,8,0:0:0:0:
256,336,28337,5,8,0:0:0:0:
256,40,28917,2,0,L|184:112,1,100,0|2,0:0|0:0,0:0:0:0:
256,160,29207,2,0,L|328:232,1,100,0|2,0:0|0:0,0:0:0:0:
272,296,29497,2,0,L|208:376,1,100,0|2,0:0|0:0,0:0:0:0:
256,40,29786,1,2,0:0:0:0:
256,344,30076,1,2,0:0:0:0:
104,192,30366,1,8,0:0:0:0:
416,192,30656,1,8,0:0:0:0:
256,192,30946,1,8,0:0:0:0:
256,336,31236,6,0,P|208:320|256:272,1,100,0|2,0:0|0:0,0:0:0:0:
288,272,31526,2,0,P|325:258|261:210,1,100,0|2,0:0|0:0,0:0:0:0:
248,208,31815,2,0,P|200:192|248:144,1,100,0|2,0:0|0:0,0:0:0:0:
280,144,32105,2,0,P|317:130|253:82,1,100,0|2,0:0|0:0,0:0:0:0:
72,48,32395,1,8,0:0:0:0:
440,48,32685,1,8,0:0:0:0:
256,352,32975,1,8,0:0:0:0:
256,136,33265,5,0,0:0:0:0:
256,208,33410,1,0,0:0:0:0:
256,280,33555,2,2,P|144:216|240:64,1,300
256,280,34134,2,2,P|368:216|272:64,1,300
256,32,34714,1,2,0:0:0:0:
256,144,35149,5,0,0:0:0:0:
304,192,35294,1,8,0:0:0:0:
256,240,35439,1,0,0:0:0:0:
208,192,35584,1,10,0:0:0:0:
48,40,35873,6,0,L|48:160,1,100
120,144,36163,2,0,L|120:264,1,100
192,248,36453,2,0,L|192:368,1,100
464,40,36743,6,0,L|464:160,1,100,8|0,0:0|0:0,0:0:0:0:
392,144,37033,2,0,L|392:264,1,100,8|0,0:0|0:0,0:0:0:0:
320,248,37323,2,0,L|320:368,1,100,8|0,0:0|0:0,0:0:0:0:
256,192,37613,6,0,L|256:-8,1,200
136,56,38482,6,0,L|40:176,1,100
376,328,38772,2,0,L|472:208,1,100
256,192,39062,1,0,0:0:0:0:
256,192,39352,1,0,0:0:0:0:
440,64,39642,1,8,0:0:0:0:
72,320,39931,1,8,0:0:0:0:
256,64,40221,6,0,L|352:144,1,100
384,192,40511,2,0,L|288:304,1,100
256,328,40801,2,0,L|160:240,1,100
128,192,41091,2,0,L|224:80,1,100
256,64,41381,2,0,L|360:168,1,100
384,192,41671,2,0,P|272:240|224:176,2,200,8|0|8,0:0|0:0|0:0,0:0:0:0:
256,32,42540,5,0,0:0:0:0:
256,104,42685,1,0,0:0:0:0:
256,184,42830,2,0,L|192:264,1,100,0|8,0:0|0:0,0:0:0:0:
256,304,43120,2,0,L|328:216,1,100,0|8,0:0|0:0,0:0:0:0:
192,144,43410,2,0,L|128:224,1,100,0|8,0:0|0:0,0:0:0:0:
312,352,43699,2,0,L|408:240,1,100,0|8,0:0|0:0,0:0:0:0:
432,216,43989,1,8,0:0:0:0:
256,72,44424,5,0,0:0:0:0:
256,120,44497,1,0,0:0:0:0:
256,168,44569,1,0,0:0:0:0:
192,256,44859,2,0,P|256:320|320:240,1,200,0|4,0:0|0:0,0:0:0:0:
56,216,45439,6,0,P|224:32|448:224,2,600,0|8|8,0:0|0:0|0:0,0:0:0:0:
256,216,47468,1,4,0:0:0:0:
256,24,47757,1,0,0:0:0:0:
160,336,48047,6,2,P|56:320|80:208,1,200
160,112,48482,2,2,P|264:128|240:240,1,200
360,264,48917,1,0,0:0:0:0:
400,184,49062,1,0,0:0:0:0:
256,248,49207,6,2,P|272:144|384:168,1,200
456,232,49642,2,2,P|440:336|328:312,1,200
256,248,50076,1,0,0:0:0:0:
256,192,50366,1,8,0:0:0:0:
256,136,50656,1,8,0:0:0:0:
256,48,50946,6,0,L|336:128,1,100
392,192,51236,2,0,L|320:288,1,100
256,320,51526,2,2,P|136:224|288:272,1,400
288,232,52250,1,2,0:0:0:0:
288,232,52395,1,2,0:0:0:0:
448,192,52685,1,8,0:0:0:0:
328,72,52975,1,8,0:0:0:0:
176,96,53120,5,0,0:0:0:0:
232,160,53265,2,0,L|336:160,1,100,0|8,0:0|0:0,0:0:0:0:
232,160,53555,2,0,L|312:240,1,100,0|8,0:0|0:0,0:0:0:0:
232,160,53844,2,0,L|232:288,1,100,0|8,0:0|0:0,0:0:0:0:
144,320,54134,1,0,0:0:0:0:
144,320,54279,2,0,P|56:232|144:96,1,300,0|8,0:0|0:0,0:0:0:0:
256,192,55004,12,0,56163,0:0:0:0:
256,320,56453,5,0,0:0:0:0:
256,272,56526,1,0,0:0:0:0:
256,224,56598,1,0,0:0:0:0:
256,176,56671,1,0,0:0:0:0:
256,128,56743,1,0,0:0:0:0:
392,304,57033,5,0,0:0:0:0:
448,48,57323,2,2,P|336:48|336:128,1,200
392,88,57757,1,2,0:0:0:0:
120,304,58192,1,0,0:0:0:0:
64,48,58482,2,2,P|128:16|176:128,1,200
122,85,58917,1,2,0:0:0:0:
256,360,59352,1,8,0:0:0:0:
256,8,59642,1,8,0:0:0:0:
0,192,59931,5,0,0:0:0:0:
104,128,60221,2,2,P|256:48|392:96,1,300
104,256,60801,2,0,P|256:336|392:288,1,300
424,256,61381,1,0,0:0:0:0:
256,224,61526,1,8,0:0:0:0:
360,104,61671,1,0,0:0:0:0:
40,192,61960,1,8,0:0:0:0:
256,352,62395,5,0,0:0:0:0:
256,192,62540,2,0,L|368:192,1,100,0|8,0:0|0:0,0:0:0:0:
256,104,62830,2,0,L|136:104,1,100,0|8,0:0|0:0,0:0:0:0:
256,288,63120,2,0,L|368:288,1,100,0|8,0:0|0:0,0:0:0:0:
256,360,63410,1,0,0:0:0:0:
256,360,63555,1,4,0:0:0:0:
48,24,64279,5,8,0:0:0:0:
464,24,64569,1,8,0:0:0:0:
256,352,64859,1,8,0:0:0:0:
256,24,65439,6,0,L|256:224,1,200,0|8,0:0|0:0,0:0:0:0:
168,304,66308,2,0,L|168:168,1,100,0|8,0:0|0:0,0:0:0:0:
336,304,66598,2,0,L|336:192,1,100,0|8,0:0|0:0,0:0:0:0:
256,32,66888,1,0,0:0:0:0:
256,32,67178,1,8,0:0:0:0:
256,336,67468,1,8,0:0:0:0:
256,32,67757,1,8,0:0:0:0:
256,336,68047,5,8,0:0:0:0:
256,336,68337,2,0,P|208:288|272:240,1,100,2|2,0:0|0:0,0:0:0:0:
280,216,68627,2,0,P|232:168|296:120,1,100,2|2,0:0|0:0,0:0:0:0:
256,32,68917,2,0,P|304:80|256:112,1,100,2|2,0:0|0:0,0:0:0:0:
240,144,69207,2,0,P|288:192|240:224,1,100,2|2,0:0|0:0,0:0:0:0:
256,336,69497,1,8,0:0:0:0:
256,32,69786,1,8,0:0:0:0:
256,336,70076,1,8,0:0:0:0:
256,336,70366,5,0,0:0:0:0:
256,208,70511,1,0,0:0:0:0:
256,72,70656,2,2,P|368:72|400:144,1,200
352,240,71091,1,0,0:0:0:0:
288,320,71236,2,2,P|256:320|168:192,1,200
216,112,71671,1,0,0:0:0:0:
304,64,71815,1,2,0:0:0:0:
72,128,72250,6,0,P|80:48|128:48,1,100,0|2,0:0|0:0,0:0:0:0:
440,256,72540,2,0,P|432:336|384:336,1,100,0|6,0:0|0:0,0:0:0:0:
192,240,72975,6,0,P|192:128|304:120,1,200
320,144,73555,2,0,P|320:256|208:264,1,200,0|0,0:0|0:0,0:0:0:0:
256,280,74134,1,8,0:0:0:0:
256,8,74424,1,8,0:0:0:0:
256,344,74714,6,0,L|256:128,1,200
112,40,75584,1,0,0:0:0:0:
384,40,75873,1,0,0:0:0:0:
32,40,76163,1,0,0:0:0:0:
464,40,76453,1,0,0:0:0:0:
256,40,76743,1,8,0:0:0:0:
256,336,77033,1,8,0:0:0:0:
256,176,77323,5,0,0:0:0:0:
192,240,77613,2,8,P|144:320|96:288,1,100,2|8,0:0|0:0,0:0:0:0:
88,288,77902,2,8,P|120:208|184:224,1,100,2|8,0:0|0:0,0:0:0:0:
320,112,78192,2,8,P|352:32|416:48,1,100,2|8,0:0|0:0,0:0:0:0:
424,64,78482,2,8,P|376:144|328:112,1,100,2|8,0:0|0:0,0:0:0:0:
448,192,78772,1,8,0:0:0:0:
64,192,79062,1,8,0:0:0:0:
256,48,79642,5,0,0:0:0:0:
176,104,79931,2,2,P|288:144|336:96,1,200
176,280,80511,2,2,P|288:240|336:288,1,200
256,320,81091,1,0,0:0:0:0:
168,192,81526,5,0,0:0:0:0:
168,120,81671,1,8,0:0:0:0:
344,192,81815,1,0,0:0:0:0:
344,264,81960,1,4,0:0:0:0:
256,192,82830,12,0,85728,0:0:0:0:
112,160,86018,6,0,P|112:104|168:96,1,100,0|8,0:0|0:0,0:0:0:0:
400,224,86308,2,0,P|400:280|344:288,1,100,0|8,0:0|0:0,0:0:0:0:
256,192,86598,1,4,0:0:0:0:
256,192,86888,12,0,89207,0:0:0:0:
