osu file format v8

[General]
AudioFilename: Petit-ours-brun.mp3
AudioLeadIn: 2007
PreviewTime: 16794
Countdown: 0
SampleSet: Soft
StackLeniency: 0.7
Mode: 0
LetterboxInBreaks: 1

[Editor]
DistanceSpacing: 1.1
BeatDivisor: 4
GridSize: 8

[Metadata]
Title:Petit Ours Brun
Artist:Henri Des
Creator:Mustaash
Version:Hard
Source:
Tags:Fight69 Dagonpater

[Difficulty]
HPDrainRate:7
CircleSize:5
OverallDifficulty:8
ApproachRate:8
SliderMultiplier:2
SliderTickRate:1

[Events]
//Background and Video events
0,0,"pobosu.jpg"
//Break Periods
//Storyboard Layer 0 (Background)
//Storyboard Layer 1 (Fail)
//Storyboard Layer 2 (Pass)
//Storyboard Layer 3 (Foreground)
//Storyboard Sound Samples
//Background Colour Transformations
3,100,163,162,255

[TimingPoints]
416,511.50895140665,4,2,1,60,1,0
8600,-142.857142857143,4,2,1,48,0,0
16784,-100,4,2,1,60,0,1
24473,-100,4,1,0,31,0,1
24601,-100,4,2,1,60,0,0
25018,511.50895140665,4,2,1,60,1,0
25098,-100,4,2,1,48,0,0
33189,-142.857142857143,4,2,1,48,0,0
41380,-100,4,2,1,62,0,0
49059,-100,4,1,0,39,0,0

[HitObjects]
24,192,416,1,0
136,192,671,1,0
104,296,927,1,8
216,296,1183,1,0
312,248,1439,2,0,B|312:112,1,100,0|0
400,176,1950,2,0,B|400:288,1,100,8|0
480,144,2462,6,0,B|488:72|384:64,1,100,0|0
328,112,2973,1,8
216,112,3229,1,0
104,112,3485,1,2
96,224,3740,1,0
208,224,3996,2,2,B|328:176|328:328|176:256,1,200,8|0
112,304,4763,5,0
216,336,5019,1,8
328,336,5275,1,0
400,256,5531,2,2,B|432:152,1,100,0|0
320,176,6042,2,0,B|208:192,1,100,8|0
216,80,6554,2,2,B|312:32,1,100,0|0
400,88,7065,1,8
488,24,7321,1,0
488,136,7577,2,2,B|488:264,1,100,0|0
488,344,8088,1,4
344,192,8600,6,0,B|184:192,1,139.99999666214,0|8
128,192,9367,1,8
48,192,9623,2,0,B|48:344,1,139.99999666214,0|8
200,328,10646,6,0,B|296:328,1,69.99999833107,0|0
240,256,11157,2,0,B|160:256,1,69.99999833107,8|8
160,176,11669,2,0,B|232:176,1,69.99999833107,0|0
304,176,12180,1,4
416,72,12692,6,0,B|416:216,1,139.99999666214,0|8
328,336,13715,2,0,B|160:336,1,139.99999666214,0|8
104,208,14738,1,0
128,136,14994,1,0
160,208,15249,1,8
192,136,15505,1,8
264,136,15761,1,0
344,136,16017,2,0,B|440:136,1,69.99999833107,0|4
296,320,16784,6,0,B|152:320,1,100,0|0
120,240,17295,2,0,B|120:104,1,100,8|0
208,72,17807,2,0,B|344:72,1,100,0|0
400,128,18318,2,0,B|440:264|328:320,1,200,8|0
296,208,19086,2,0,B|184:208,1,100,0|8
88,176,19597,2,0,B|216:176,1,100,0|0
240,80,20109,1,0
336,128,20364,1,2
472,248,20876,5,2
384,232,21132,1,0
296,216,21387,1,8
208,200,21643,1,0
120,176,21899,1,2
32,144,22155,1,0
120,120,22410,1,8
208,120,22666,1,0
224,32,22922,6,0,B|104:40,1,100,0|0
56,128,23433,2,0,B|40:248,1,100,8|0
72,336,23945,2,2,B|208:336,1,100,0|0
280,344,24456,1,6
112,192,25018,6,0,B|64:104,1,100,0|0
168,160,25529,2,0,B|280:160,1,100,8|0
168,224,26041,2,0,B|224:320,1,100,0|0
112,256,26552,2,0,B|32:304|88:384|128:376|160:352|192:368,1,200,8|0
296,336,27319,1,0
400,272,27575,1,8
312,208,27831,1,0
408,160,28087,1,0
312,104,28342,1,0
200,120,28598,2,0,B|-8:120,1,200,8|0
8,160,29237,5,0
24,200,29365,1,0
104,232,29621,2,0,B|160:232,2,50,8|0|0
24,264,30133,1,0
0,304,30260,1,0
24,344,30388,1,0
112,336,30644,2,0,B|184:304,1,50,8|0
184,280,30900,1,0
248,216,31156,6,0,B|264:128|392:144|384:232,1,200,0|8
456,272,31923,2,0,B|456:168,1,100,0|0
304,80,32690,1,4
256,192,33202,6,0,B|112:192,1,139.99999666214,0|8
96,256,33969,1,8
88,320,34225,2,0,B|240:320,1,139.99999666214,0|8
344,264,35248,5,0
368,208,35503,1,0
352,144,35759,1,8
288,144,36015,2,0,B|192:144,1,69.99999833107,8|0
168,176,36526,2,0,B|80:176,1,69.99999833107,0|12
72,24,37294,6,0,B|136:-32|200:24,1,139.99999666214,0|8
168,96,38061,1,8
248,96,38317,2,0,B|336:96,1,69.99999833107,0|0
392,96,38828,1,8
328,240,39340,2,0,B|248:240,1,69.99999833107,0|0
296,304,39851,2,0,B|272:376,1,69.99999833107,8|8
216,320,40363,2,0,B|136:320,1,69.99999833107,0|0
80,280,40874,1,4
96,96,41386,6,0,B|200:64,1,100,0|0
168,152,41897,1,8
200,232,42153,1,0
280,192,42409,2,0,B|360:168,2,50,0|0|0
264,104,42920,2,0,B|368:56|488:112,1,200,8|0
376,144,43688,2,0,B|432:152|472:192,2,100,0|8|0
320,216,44455,2,0,B|216:216,1,100,0|0
144,168,44966,1,8
48,320,45478,6,0,B|176:304,1,100,0|0
232,344,45989,2,0,B|352:344,1,100,8|0
416,304,46501,2,0,B|480:200,1,100,0|0
416,144,47012,1,8
416,56,47268,1,0
328,80,47524,2,0,B|208:80,1,100,0|0
192,168,48035,2,0,B|304:168,1,100,8|0
264,256,48547,2,0,B|152:256,1,100,0|0
216,352,49058,1,12
