osu file format v5

[General]
AudioFilename: 01 - World Without Logos.mp3
AudioLeadIn: 0
PreviewTime: -1
Countdown: 1
SampleSet: None
StackLeniency: 0.7
Mode: 0
LetterboxInBreaks: 1

[Metadata]
Title:Logos naki World (world without logos)
Artist:Hellsing OST
Creator:yashiro1
Version:
Source:
Tags:

[Difficulty]
HPDrainRate:5
CircleSize:5
OverallDifficulty:5
SliderMultiplier:1.4
SliderTickRate:1

[Events]
//Background and Video events
0,0,"Alucard2.jpg"
//Break Periods
2,76279,85454
//Storyboard Layer 0 (Background)
//Storyboard Layer 1 (Failing)
//Storyboard Layer 2 (Passing)
//Storyboard Layer 3 (Foreground)
//Storyboard Sound Samples
//Background Colour Transformations
3,100,163,162,255

[TimingPoints]
11827.0092502906,689.655172413793,4,0,0,100,1

[HitObjects]
128,160,1941,1,0
224,128,4470,1,0
224,224,7114,1,0
288,160,9758,1,0
320,96,12401,1,0
320,160,13206,1,0
320,224,14470,1,0
384,192,15849,1,0
384,128,17114,1,0
320,96,18493,1,0
288,128,19872,1,0
288,64,20447,1,0
288,160,21137,1,0
288,64,21827,1,0
288,128,22401,1,0
160,160,23206,1,0
192,224,24470,1,0
320,192,25849,1,0
224,128,27229,1,0
320,128,28493,1,0
320,224,29872,1,0
384,160,31137,1,0
384,96,31827,1,0
224,128,32516,1,0
224,128,32861,1,0
224,128,33206,1,0
224,128,33551,1,0
224,128,33895,1,0
160,128,34470,1,0
128,160,35160,1,0
128,224,35849,1,0
192,256,36539,1,0
224,256,37114,1,0
288,192,37804,1,0
288,192,38148,1,0
288,192,38493,1,0
288,192,38838,1,0
288,128,39183,1,0
192,96,39872,1,0
128,128,40562,1,0
128,224,41137,1,0
224,224,41827,1,0
256,128,42516,1,0
320,64,43091,1,0
320,64,43551,1,0
320,64,43895,1,0
320,64,44240,1,0
320,64,44470,1,0
320,160,45160,1,0
224,128,45849,1,0
192,192,46539,1,0
288,160,47114,1,0
192,64,47804,1,0
320,128,48493,1,0
320,128,48838,1,0
320,128,49183,1,0
320,128,49528,1,0
320,128,49872,1,0
320,128,50102,1,0
320,128,50562,1,0
320,128,50792,1,0
320,128,51137,1,0
320,128,51482,1,0
320,128,51827,1,0
320,128,52171,1,0
320,128,52516,1,0
320,128,52861,1,0
320,128,53206,1,0
320,128,53551,1,0
256,192,54125,12,0,65275
96,96,65849,6,0,B,1,163.333333333333
32,352,67114,2,0,B|480:352|32:32|512:32,1,653.333333333333
448,128,71482,2,0,B,1,210
480,352,72976,2,0,B|32:352|480:32|32:32,1,630
256,224,86654,5,0
160,192,87804,1,0
320,96,89298,1,0
256,224,90562,1,0
192,128,91941,1,0
160,256,93321,1,0
320,224,94585,1,0
256,160,95275,1,0
256,160,95620,1,0
256,160,95849,1,0
256,160,96194,1,0
256,160,96539,1,0
256,160,96884,1,0
256,160,97114,1,0
160,160,97804,1,0
160,96,98493,1,0
320,96,99183,1,0
352,224,99872,1,0
288,192,100562,1,0
288,192,100907,1,0
288,192,101252,1,0
192,160,101827,1,0
128,256,102516,1,0
96,160,103206,1,0
256,96,103895,1,0
320,192,104585,1,0
256,224,105160,1,0
192,160,105849,1,0
192,160,106194,1,0
192,160,106539,1,0
192,160,106884,1,0
192,160,107229,1,0
352,160,107918,1,0
320,256,108493,1,0
224,256,109183,1,0
64,96,110562,5,0
160,96,111252,1,0
256,96,111597,1,0
352,128,111941,1,0
448,160,112286,1,0
416,256,112631,1,0
288,288,112976,1,0
192,288,113321,1,0
128,224,113666,1,0
128,128,114010,1,0
256,96,114240,1,0
384,128,114585,1,0
352,224,114930,1,0
256,224,115160,1,0
224,192,115505,1,0
288,160,115849,1,0
320,160,116079,1,0
288,192,116424,1,0
256,192,116884,12,0,127114
32,32,127459,6,0,B|64:352|448:32|448:320,4,583.333333333333
192,128,147229,1,0
256,224,147804,1,0
320,96,148493,1,0
160,192,149183,1,0
256,256,149872,1,0
288,160,150562,1,0
192,160,151252,1,0
128,96,151827,1,0
96,224,152516,1,0
224,256,153206,1,0
256,128,153781,1,0
352,224,154585,1,0
160,256,155275,1,0
192,128,155849,1,0
320,256,156539,1,0
320,128,157114,1,0
160,192,157804,1,0
128,96,158493,1,0
288,192,159183,1,0
128,256,159872,1,0
192,96,160562,1,0
288,192,161252,1,0
352,96,161827,1,0
160,96,162516,1,0
128,256,163206,1,0
256,224,163781,1,0
160,128,164470,1,0
320,128,165160,1,0
256,160,165849,1,0
224,160,166539,1,0
192,160,167229,1,0
160,160,167918,1,0
128,192,168493,1,0
128,224,169183,1,0
160,256,169872,1,0
224,256,170562,1,0
256,192,171137,1,0
224,160,171941,1,0
128,160,172516,1,0
128,96,173206,1,0
224,96,173781,1,0
256,160,174585,1,0
224,224,175275,1,0
256,288,175849,1,0
352,224,176539,1,0
352,160,177229,1,0
288,96,177804,1,0
192,128,178493,1,0
160,192,179068,1,0
96,224,179758,1,0
224,256,180447,1,0
256,160,181252,1,0
256,160,181827,1,0
256,160,182171,1,0
256,160,182631,1,0
256,160,182861,1,0
256,160,183206,1,0
256,160,183551,1,0
256,160,183895,1,0
256,160,184240,1,0
256,160,184585,1,0
256,160,184930,1,0
256,160,185275,1,0
256,160,185505,1,0
256,160,185849,1,0
256,160,186194,1,0
256,160,186424,1,0
256,160,186769,1,0
256,160,187114,1,0
256,192,187804,12,0,195505
64,160,197344,6,0,B|128:160,3,46.6666666666667
128,288,198608,2,0,B|192:256,1,70
320,288,199528,2,0,B|320:256,2,23.3333333333333
256,160,200447,2,0,B|224:96,1,70
352,192,201597,2,0,B|384:160,7,23.3333333333333
224,160,203091,2,0,B|224:128,5,23.3333333333333
352,192,204470,2,0,B|352:128,3,46.6666666666667
224,224,205735,2,0,B|160:224,2,46.6666666666667
192,128,206884,2,0,B|192:96,5,23.3333333333333
320,224,208263,2,0,B|320:192,3,23.3333333333333
192,256,209183,2,0,B|128:288,2,70
128,192,210562,2,0,B|96:160,5,23.3333333333333
288,192,211827,2,0,B|320:128,2,70
160,192,213091,2,0,B|128:128,1,70
224,320,214585,2,0,B|160:320,2,46.6666666666667
288,320,215849,2,0,B|352:224,1,93.3333333333333
