osu file format v5

[General]
AudioFilename: 01 Shimmy Shimmy Quarter Turn (Take.mp3
AudioLeadIn: 0
PreviewTime: -1
Countdown: 0
SampleSet: Normal
StackLeniency: 0.7
Mode: 0
LetterboxInBreaks: 1
EditorBookmarks: 17079,186468

[Metadata]
Title:Shimmy Shimmy Quarter Turn
Artist:Hellogoodbye
Creator:Seibei4211
Version:Normal
Source:
Tags:

[Difficulty]
HPDrainRate:4
CircleSize:4
OverallDifficulty:4
SliderMultiplier:1.4
SliderTickRate:0.5

[Events]
//Background and Video events
0,0,"Shimmy Shimmy Quarter Turn - Hellogoodbye.jpg"
//Break Periods
2,53749,59383
2,91593,93304
2,109132,115458
2,138668,141422
//Storyboard Layer 0 (Background)
//Storyboard Layer 1 (Failing)
//Storyboard Layer 2 (Passing)
//Storyboard Layer 3 (Foreground)
//Storyboard Sound Samples
//Background Colour Transformations
3,100,163,162,255

[TimingPoints]
2320,461.538461538462,4,1,0,80,1
31627,461.538461538462,4,2,0,100,0
44780,461.538461538462,4,1,0,70,0
46627,461.538461538462,4,1,0,80,0
61395,461.538461538462,4,2,0,80,0
74318,461.538461538462,4,1,0,80,0
76394,461.538461538462,4,2,0,75,0
94625,461.538461538462,4,1,0,100,0
116778,461.538461538462,4,1,0,60,0
118624,461.538461538462,4,2,0,100,0
124162,461.538461538462,4,1,0,55,0
131661,461.538461538462,4,2,0,65,0
131891,461.538461538462,4,1,0,65,0
132122,461.538461538462,4,2,0,66,0
132352,461.538461538462,4,1,0,66,0
132583,461.538461538462,4,2,0,66,0
132813,461.538461538462,4,1,0,66,0
133044,461.538461538462,4,2,0,65,0
133392,461.538461538462,4,1,0,76,0
133507,461.538461538462,4,2,0,76,0
133737,461.538461538462,4,1,0,76,0
133967,461.538461538462,4,2,0,76,0
134197,461.538461538462,4,1,0,76,0
134427,461.538461538462,4,2,0,75,0
134657,461.538461538462,4,1,0,75,0
134887,461.538461538462,4,2,0,76,0
135238,461.538461538462,4,1,0,86,0
135353,461.538461538462,4,2,0,85,0
135583,461.538461538462,4,1,0,86,0
135813,461.538461538462,4,2,0,85,0
136043,461.538461538462,4,1,0,85,0
136273,461.538461538462,4,2,0,86,0
136503,461.538461538462,4,1,0,85,0
136733,461.538461538462,4,2,0,86,0
137084,461.538461538462,4,1,0,100,0
137199,461.538461538462,4,2,0,100,0
137429,461.538461538462,4,1,0,100,0
137659,461.538461538462,4,2,0,100,0
137889,461.538461538462,4,1,0,100,0
138119,461.538461538462,4,2,0,100,0
138349,461.538461538462,4,1,0,100,0
142622,461.538461538462,4,1,0,80,0
153698,461.538461538462,4,2,0,100,0
155429,461.538461538462,4,1,0,100,0
155659,461.538461538462,4,2,0,100,0
157391,461.538461538462,4,1,0,70,0
161083,461.538461538462,4,1,0,80,0
164775,461.538461538462,4,1,0,90,0
168468,461.538461538462,4,1,0,100,0

[Colours]
Combo1 : 255,0,128
Combo2 : 128,255,255
Combo3 : 240,240,0
Combo4 : 200,4,4

[HitObjects]
96,96,17089,2,0,B|192:96,1,70,4|0
131,157,17550,2,0,B|219:157,1,70
232,93,18012,2,0,B|274:127|260:196|232:225,1,140
100,254,18935,2,0,B|139:293|239:312|309:240,1,210,4|0
350,213,19858,2,0,B|377:191|410:148|405:71,1,140
265,93,20781,6,0,B|184:93,1,70,4|0
124,97,21243,2,0,B|124:187,1,70
127,236,21704,2,0,B|284:236,2,140,0|0|4
197,237,22858,2,0,B|197:148,1,70
196,96,23320,1,0
258,64,23550,2,0,B|313:82|364:183,2,140,0|0|4
187,62,24704,6,0,B|105:62,1,70
56,97,25166,1,0
118,128,25396,2,0,B|271:128,1,140
382,63,26320,2,0,B|460:92|460:202|365:234,1,210,4|0
313,227,27243,2,0,B|155:227,1,140
124,95,28166,6,0,B|211:95,1,70,4|0
160,33,28627,2,0,B|160:113,1,70
230,104,29089,2,0,B|86:104,2,140,0|0|4
300,103,30243,1,0
344,156,30473,1,0
304,213,30704,1,0
233,215,30935,2,0,B|187:214|141:174|144:120,1,140,4|0
178,63,31627,5,0
247,63,31858,2,0,B|333:63,1,70,2|0
387,63,32320,2,0,B|461:108,1,70,2|0
481,160,32781,2,2,B|403:160,1,70
340,161,33243,1,4
200,160,33704,6,0,B|121:160,1,70,2|0
59,161,34166,2,0,B|59:249,1,70,2|4
98,289,34627,1,2
126,225,34858,2,0,B|212:225,1,70,2|4
297,128,35550,5,2
297,128,35781,1,0
367,128,36012,1,2
367,128,36243,1,0
437,128,36473,2,0,B|437:209,1,70,8|0
395,254,36935,1,4
324,255,37166,5,4
260,224,37396,1,8
260,224,37627,1,0
190,223,37858,1,8
190,223,38089,1,4
126,193,38320,2,2,B|126:110,1,70
190,96,38781,1,4
330,96,39243,6,0,B|428:96,1,70,2|0
430,159,39704,1,2
430,159,39935,1,0
400,222,40166,2,0,B|315:222,1,70,8|2
296,159,40627,1,8
191,65,41089,6,0,B|104:65,1,70,2|0
58,97,41550,1,4
88,159,41781,2,0,B|44:159,2,35,4|0|0
158,159,42243,1,2
228,159,42473,1,4
331,64,42935,6,2,B|401:106,1,70
328,132,43396,2,8,B|287:192,1,70
358,193,43858,2,2,B|428:230,1,70
361,264,44320,1,4
290,263,44550,1,2
220,263,44781,6,4,B|159:218,1,70,4|0
108,178,45243,2,0,B|71:151,2,35,0|0|0
157,127,45704,1,4
219,95,45935,1,0
289,95,46166,1,4
344,223,46627,6,0,B|267:223,1,70,4|0
211,191,47089,2,0,B|122:191,1,70
77,159,47550,2,0,B|100:115|152:86|203:96,1,140
328,128,48473,2,0,B|370:132|402:245|232:220,1,210,4|0
168,210,49396,2,0,B|116:198|111:155|132:118|181:121,1,140
301,65,50320,6,0,B|380:108,1,70,4|0
425,129,50781,2,0,B|341:129,1,70
284,128,51243,2,0,B|231:129|168:149|138:170,2,140,0|0|4
345,161,52396,1,0
311,222,52627,1,0
380,224,52858,1,0
344,284,53089,2,0,B|248:284|199:246,1,140,4|0
417,96,60704,5,4
354,127,60935,1,4
326,191,61166,1,4
351,255,61396,2,0,B|260:255,1,70,4|2
210,255,61858,2,0,B|138:216,1,70,8|2
89,183,62320,1,8
146,143,62550,2,8,B|214:90,1,70
255,55,63012,5,2
310,98,63243,2,0,B|377:152,1,70,4|2
421,182,63704,1,0
350,182,63935,1,4
279,183,64166,2,2,B|192:183,2,70
311,121,64858,5,8
240,121,65089,2,0,B|156:121,1,70,4|2
99,122,65550,1,4
40,160,65781,1,2
99,197,66012,2,4,B|184:196,1,70
239,196,66473,1,4
286,64,66935,5,4
356,65,67166,1,8
418,96,67396,1,4
416,165,67627,1,8
351,192,67858,2,8,B|276:192,1,70
218,224,68320,1,8
116,127,68781,6,0,B|174:105|200:145,1,70,2|0
253,125,69243,2,0,B|303:140|330:117,1,70,2|0
385,95,69704,2,2,B|385:56|385:56|352:56,2,70,2|2|4
333,225,70627,6,0,B|239:225,1,70,2|0
192,225,71089,2,0,B|100:225,1,70,2|4
93,161,71550,2,2,B|179:161,1,70
193,97,72012,1,4
329,64,72473,6,0,B|405:104,1,70,4|0
453,128,72935,1,4
426,192,73166,1,4
355,192,73396,2,0,B|274:192,2,70,4|0|4
352,121,74089,1,4
311,64,74320,5,4
249,96,74550,1,4
186,127,74781,2,4,B|109:127,1,70
117,197,75243,2,4,B|198:197,1,70,0|0
256,193,75704,2,0,B|312:193,4,35,0|0|0|0|4
311,64,76627,5,4
412,160,77089,2,2,B|339:200,1,70
287,224,77550,1,4
224,193,77781,2,2,B|155:151,1,70
66,256,78473,1,4
202,289,78935,2,0,B|270:312|352:288,1,140,0|4
463,224,79858,5,2
361,127,80319,1,4
221,127,80781,2,0,B|137:127,2,70,2|2|4
291,127,81473,2,2,B|387:127,1,70,2|2
308,257,82166,1,4
168,258,82627,2,0,B|99:234|71:153,1,140,0|4
175,64,83550,5,2
311,95,84012,1,4
434,160,84473,1,8
434,160,84704,1,8
434,160,84935,1,4
434,160,85166,2,8,B|352:160,1,70
223,160,85858,1,4
98,223,86319,1,4
198,320,86781,1,4
300,224,87243,5,2
402,128,87704,1,4
277,63,88166,2,0,B|210:101,1,70,2|2
154,63,88627,2,0,B|89:102,1,70,4|2
128,160,89089,6,0,B|194:202,1,70,4|2
246,160,89550,2,0,B|311:198,1,70,4|2
271,256,90012,6,0,B|204:294,1,70,4|2
148,256,90473,2,0,B|81:293,1,70,4|4
34,242,90935,2,0,B|34:91,1,140,4|0
416,96,94627,5,4
416,96,94858,1,0
345,96,95089,1,0
345,96,95319,1,0
274,95,95550,2,0,B|213:95|117:140,1,140,4|0
76,161,96243,1,0
137,193,96473,5,4
137,193,96704,1,0
207,193,96935,1,0
207,193,97166,1,0
277,193,97396,2,4,B|350:209|405:264,1,140
454,129,98319,5,4
383,128,98550,1,0
383,128,98781,1,0
383,128,99012,1,0
383,128,99243,1,4
258,64,99704,6,0,B|172:60|138:137,1,140,0|4
114,191,100396,1,0
141,255,100627,1,4
210,256,100858,1,0
272,223,101089,2,0,B|301:184|304:120|285:84,1,140,4|0
147,96,102012,6,0,B|77:128,1,70,4|0
143,160,102473,2,0,B|217:160,1,70
283,160,102935,1,4
384,256,103396,1,0
446,224,103627,2,0,B|488:160,1,70,0|4
483,95,104089,2,0,B|438:27,1,70
379,64,104550,1,0
317,97,104781,2,4,B|243:119|218:208,1,140
120,288,105704,5,4
120,288,105935,2,0,B|194:288,1,70
190,288,106396,2,0,B|276:288,1,70,0|4
384,224,107089,6,0,B|384:76,1,140,0|4
313,84,107781,1,0
242,82,108012,1,4
243,152,108243,1,0
245,222,108473,2,0,B|387:222,1,140,4|0
96,64,116781,6,0,B|172:64,1,70,4|0
166,64,117243,2,0,B|247:107,1,70
227,96,117704,2,0,B|303:96,1,70,4|0
359,128,118166,1,4
460,224,118627,5,4
390,223,118858,1,0
326,193,119089,2,0,B|253:193,1,70,8|8
193,224,119550,1,2
131,257,119781,1,8
68,224,120012,1,8
125,96,120473,6,2,B|201:96,1,70
257,64,120935,2,8,B|348:64,1,70
388,97,121396,1,2
450,128,121627,2,0,B|411:194,1,70,0|2
344,192,122089,1,2
281,223,122319,2,8,B|203:223,1,70
149,256,122781,1,2
85,225,123012,1,2
115,161,123243,2,8,B|115:86,1,70
152,31,123704,1,8
287,64,124166,6,0,B|356:104,1,70,4|0
408,64,124627,2,0,B|481:104,1,70
437,160,125089,2,0,B|398:176|338:176|298:158,1,140,4|0
181,127,126012,6,0,B|101:127,1,70,4|0
50,161,126474,1,0
81,223,126705,1,0
144,192,126935,2,0,B|188:207|244:210|302:183,1,140,4|0
256,192,127858,12,0,130973
135,97,131550,5,4
197,127,131781,1,2
259,96,132012,1,4
320,129,132243,1,2
382,159,132473,2,0,B|459:206,1,70,4|2
480,254,132935,2,0,B|397:254,1,70,4|2
345,224,133396,5,4
283,256,133627,1,8
220,225,133858,2,0,B|147:180,1,70,4|8
97,158,134319,2,0,B|60:220,1,70,4|2
123,249,134781,2,0,B|168:176,1,70,4|2
195,128,135243,5,4
258,95,135473,1,4
319,128,135704,2,0,B|405:128,1,70,4|4
450,160,136166,1,4
422,224,136396,1,2
359,193,136627,2,0,B|271:193,1,70,4|2
224,160,137089,5,4
224,160,137319,1,10
161,128,137550,1,4
161,128,137781,1,10
189,64,138012,1,4
250,96,138243,1,14
312,65,138473,1,4
418,97,142627,5,0
293,160,143089,1,4
167,96,143550,2,0,B|89:140,1,70
106,130,144012,1,4
106,130,144243,2,0,B|168:170,1,70
272,257,144935,1,4
135,223,145396,2,0,B|168:163|208:148|254:140,1,140,0|4
359,64,146319,5,0
460,160,146781,1,4
360,258,147243,2,0,B|278:258,1,70
228,224,147704,2,0,B|151:224,1,70,4|0
96,190,148166,1,0
199,95,148627,1,4
322,161,149089,1,4
446,97,149550,1,4
323,30,150012,5,0
199,95,150473,1,4
74,158,150935,2,0,B|143:202,1,70
133,195,151396,2,0,B|202:151,1,70,4|0
262,158,151858,6,0,B|332:205,1,70,4|0
314,126,152319,2,0,B|384:84,1,70,4|0
370,159,152781,2,0,B|436:200,1,70,4|0
421,126,153243,2,0,B|491:83,1,70,4|4
415,62,153704,6,4,B|330:62,1,70,4|0
275,65,154166,1,8
275,65,154396,1,8
212,95,154627,1,0
113,193,155089,2,2,B|186:193,1,70
253,191,155550,1,4
314,224,155781,1,4
376,193,156012,2,8,B|450:144,1,70
393,97,156473,2,0,B|348:74|290:74|251:103,1,140,2|4
132,160,157396,6,0,B|220:160,1,70,4|0
264,192,157858,2,0,B|184:192,1,70
131,224,158319,1,4
254,288,158781,6,0,B|296:303|370:257|370:218,1,140,0|4
390,160,159473,1,0
361,96,159704,2,0,B|264:96,1,70,4|0
220,95,160166,2,0,B|161:116|111:160|101:182,1,140,4|0
185,288,161089,6,0,B|264:288,1,70,4|0
223,225,161550,2,0,B|313:225,1,70
321,160,162012,1,4
218,64,162473,2,0,B|124:64,1,70
86,97,162935,2,0,B|86:187,1,70,4|0
156,167,163396,2,0,B|244:167,1,70
284,129,163858,2,0,B|335:128|388:196|378:231,1,140,4|0
258,289,164781,5,4
195,256,165012,1,0
133,289,165243,1,0
71,255,165473,1,0
133,224,165704,1,4
192,97,166166,6,0,B|245:64|339:60,1,140,0|4
386,95,166858,2,0,B|484:95,2,70,0|4|0
323,127,167550,2,0,B|242:132|185:180,1,140,4|0
80,256,168473,6,0,B|162:257,1,70,4|0
212,224,168935,1,0
273,256,169166,1,0
335,224,169396,2,0,B|392:181|392:181|329:142,1,140,4|0
263,145,170089,2,0,B|183:145,1,70,0|4
141,96,170550,1,0
202,63,170781,1,0
264,95,171012,1,0
326,63,171243,2,0,B|390:68|458:144,1,140,4|0
341,224,172166,6,0,B|271:257,1,70,4|0
216,288,172627,1,0
153,255,172858,2,0,B|75:216,1,70,0|4
256,192,173550,12,0,175396
416,95,175858,6,0,B|416:174,1,70,4|0
354,130,176320,2,0,B|354:217,1,70
415,165,176781,1,4
308,256,177243,2,0,B|227:256,2,70,0|0|4
370,223,177935,2,0,B|302:187,1,70
245,158,178396,1,0
182,126,178627,2,0,B|200:80|247:50|307:68,1,140,4|0
419,129,179550,5,4
357,161,179781,1,0
293,191,180012,1,0
230,159,180243,1,0
167,127,180473,1,4
222,255,180935,6,4,B|366:255,1,140
363,184,181627,1,0
363,113,181858,1,4
292,112,182089,1,0
221,110,182320,2,0,B|221:261,1,140,4|0
256,192,183243,12,4,186473
