osu file format v5

[General]
AudioFilename: 01 Shimmy Shimmy Quarter Turn (Take.mp3
AudioLeadIn: 0
PreviewTime: -1
Countdown: 0
SampleSet: Normal
StackLeniency: 0.7
Mode: 0
LetterboxInBreaks: 1
EditorBookmarks: 17079,123931,157392,186468

[Metadata]
Title:Shimmy Shimmy Quarter Turn
Artist:Hellogoodbye
Creator:Seibei4211
Version:Hard
Source:
Tags:

[Difficulty]
HPDrainRate:5
CircleSize:6
OverallDifficulty:6
SliderMultiplier:1.7
SliderTickRate:0.5

[Events]
//Background and Video events
0,0,"Shimmy Shimmy Quarter Turn - Hellogoodbye.jpg"
//Break Periods
2,53739,59493
2,91584,93415
2,109134,115565
2,138668,141422
//Storyboard Layer 0 (Background)
//Storyboard Layer 1 (Failing)
//Storyboard Layer 2 (Passing)
//Storyboard Layer 3 (Foreground)
//Storyboard Sound Samples
//Background Colour Transformations
3,100,163,162,255

[TimingPoints]
2320,461.538461538462,4,1,0,80,1
31627,461.538461538462,4,2,0,100,0
44780,461.538461538462,4,1,0,70,0
46627,461.538461538462,4,1,0,80,0
61395,461.538461538462,4,2,0,80,0
74318,461.538461538462,4,1,0,80,0
76394,461.538461538462,4,2,0,75,0
94625,461.538461538462,4,1,0,100,0
116778,461.538461538462,4,1,0,60,0
118624,461.538461538462,4,2,0,100,0
124162,461.538461538462,4,1,0,55,0
131661,461.538461538462,4,2,0,65,0
131891,461.538461538462,4,1,0,65,0
132122,461.538461538462,4,2,0,66,0
132352,461.538461538462,4,1,0,66,0
132583,461.538461538462,4,2,0,66,0
132813,461.538461538462,4,1,0,66,0
133044,461.538461538462,4,2,0,65,0
133392,461.538461538462,4,1,0,76,0
133507,461.538461538462,4,2,0,76,0
133737,461.538461538462,4,1,0,76,0
133967,461.538461538462,4,2,0,76,0
134197,461.538461538462,4,1,0,76,0
134427,461.538461538462,4,2,0,75,0
134657,461.538461538462,4,1,0,75,0
134887,461.538461538462,4,2,0,76,0
135238,461.538461538462,4,1,0,86,0
135353,461.538461538462,4,2,0,85,0
135583,461.538461538462,4,1,0,86,0
135813,461.538461538462,4,2,0,85,0
136043,461.538461538462,4,1,0,85,0
136273,461.538461538462,4,2,0,86,0
136503,461.538461538462,4,1,0,85,0
136733,461.538461538462,4,2,0,86,0
137084,461.538461538462,4,1,0,100,0
137199,461.538461538462,4,2,0,100,0
137429,461.538461538462,4,1,0,100,0
137659,461.538461538462,4,2,0,100,0
137889,461.538461538462,4,1,0,100,0
138119,461.538461538462,4,2,0,100,0
138349,461.538461538462,4,1,0,100,0
153698,461.538461538462,4,2,0,100,0
155429,461.538461538462,4,1,0,100,0
155659,461.538461538462,4,2,0,100,0
157391,461.538461538462,4,1,0,70,0
161083,461.538461538462,4,1,0,80,0
164775,461.538461538462,4,1,0,90,0
168468,461.538461538462,4,1,0,100,0

[Colours]
Combo1 : 255,0,128
Combo2 : 128,255,255
Combo3 : 240,240,0
Combo4 : 200,4,4

[HitObjects]
286,97,17089,2,0,B|384:97,1,85,4|0
452,122,17550,2,0,B|362:122,1,85,0|0
287,153,18012,2,0,B|245:89|135:79,1,170
86,240,18935,2,0,B|139:279|206:293|258:280|335:230,1,255,4|0
240,217,19858,2,0,B|191:248|105:212|89:160,1,170,0|0
243,90,20781,5,4
321,122,21012,1,0
375,186,21243,1,0
454,156,21473,1,0
455,241,21704,2,0,B|398:266|333:260|278:221,2,170,0|0|4
388,188,22858,1,0
309,219,23089,1,0
229,187,23320,1,0
150,217,23550,2,0,B|220:280|316:295,2,170,0|0|4
91,155,24704,5,0
147,91,24935,2,0,B|240:91,1,85,0|0
284,157,25396,2,4,B|332:144|344:83|398:59|441:64,1,170,0|0
354,220,26320,2,0,B|331:272|288:290|235:286|214:248|191:202|240:152,1,255,4|0
181,91,27243,1,0
460,284,28166,5,4
406,218,28396,1,0
320,219,28627,1,0
262,156,28858,1,0
176,156,29089,2,0,B|138:183|90:159|74:110|98:61,2,170,0|0|4
232,92,30243,1,0
310,122,30473,1,0
389,91,30704,1,0
445,154,30935,2,0,B|441:220|392:263|316:252,1,170,4|0
253,220,31627,5,0
174,187,31858,2,0,B|84:148,1,85,2|0
155,92,32320,2,0,B|249:51,1,85,2|0
317,59,32781,2,2,B|415:98,1,85,2|2
451,155,33243,1,6
339,283,33704,5,2
259,251,33935,1,0
180,284,34166,1,2
101,251,34396,2,4,B|162:177,1,85,4|0
215,124,34858,2,0,B|308:124,1,85,2|4
413,250,35550,6,0,B|330:304,1,85,2|0
256,295,36012,2,0,B|177:242,1,85,2|0
186,162,36473,2,0,B|279:110,1,85,10|0
345,123,36935,1,4
402,60,37166,5,4
316,60,37396,2,0,B|216:60,1,85,10|0
151,91,37858,2,0,B|90:152,1,85,10|4
141,220,38320,1,2
197,283,38550,2,0,B|296:283,1,85,2|4
395,155,39243,6,0,B|328:88,1,85,2|0
257,59,39704,2,0,B|153:59,1,85,2|2
93,92,40166,1,8
151,154,40396,1,2
92,215,40627,1,8
247,284,41089,6,0,B|313:218,1,85,2|0
370,166,41550,1,4
330,91,41781,2,0,B|330:44,2,42.5,4|0|0
250,123,42243,1,2
171,91,42473,1,4
61,220,42935,6,2,B|153:220,1,85
91,154,43396,2,8,B|189:154,1,85
123,87,43858,2,2,B|220:87,1,85
293,86,44320,1,4
369,122,44550,1,2
446,156,44781,2,4,B|446:247,1,85,4|0
372,283,45243,2,0,B|372:332,2,42.5,0|0|0
314,220,45704,1,4
235,186,45935,1,0
156,219,46166,1,4
94,60,46627,6,0,B|183:60,1,85,4|0
264,59,47089,2,0,B|173:59,1,85,0|0
179,144,47550,2,0,B|185:200|209:223|256:234|316:229,1,170,0|0
320,60,48473,2,4,B|393:75|428:119|435:202|301:216,1,255,4|0
242,172,49396,2,4,B|302:166|336:143|335:111|232:102,1,170,0|0
79,59,50320,6,0,B|79:148,1,85,4|0
153,103,50781,2,0,B|242:103,1,85,0|0
304,49,51243,2,0,B|384:70|384:142|286:159,2,170,0|0|4
230,92,52396,1,0
151,124,52627,1,0
95,187,52858,1,0
149,252,53089,2,0,B|322:252,1,170,4|0
319,65,60704,5,4
255,122,60935,1,4
202,188,61166,2,0,B|170:224|156:278,2,85,4|4|2
147,123,61858,1,8
203,59,62089,1,2
258,123,62320,1,8
342,124,62550,2,8,B|384:92|427:128,1,85
364,187,63012,5,2
286,151,63243,2,0,B|221:86,1,85,4|2
146,60,63704,1,0
67,93,63935,1,4
123,156,64166,2,2,B|132:202|183:218,2,85
201,123,64858,5,8
286,123,65089,2,0,B|380:123,1,85,4|2
315,187,65550,1,4
243,218,65781,1,0
163,187,66012,2,4,B|100:250,2,85
276,60,66935,6,0,B|383:60,1,85,4|10
440,91,67396,2,0,B|372:159,1,85,4|10
294,156,67858,2,10,B|203:156,1,85
129,186,68320,1,10
283,256,68781,6,2,B|315:276|330:234|373:263,1,85,2|0
365,172,69243,2,2,B|333:152|318:194|275:165,1,85,2|0
198,169,69704,2,2,B|150:169|150:169|150:120,2,85,2|2|6
328,60,70627,6,0,B|433:60,1,85,2|0
355,122,71089,2,0,B|254:122,1,85,2|4
327,184,71550,2,2,B|419:184,1,85
358,250,72012,1,6
243,124,72473,6,0,B|148:124,1,85,4|0
78,155,72935,1,4
133,219,73166,1,4
218,219,73396,2,0,B|324:219,1,85,4|0
382,188,73858,1,4
326,123,74089,5,4
269,59,74320,1,4
214,123,74550,1,4
269,187,74781,2,4,B|333:251,1,85
243,250,75243,1,0
163,220,75473,1,0
107,155,75704,5,0
107,155,75820,1,0
107,155,75935,1,0
107,155,76050,1,0
107,155,76166,1,4
248,60,76627,5,4
387,157,77089,1,2
308,124,77320,1,2
229,155,77550,1,4
149,124,77781,1,2
70,155,78012,1,2
209,251,78473,1,4
376,219,78935,2,0,B|416:179|441:140|424:92|404:62,1,170,0|4
237,60,79858,5,2
70,93,80319,1,4
210,188,80781,1,2
289,156,81012,1,2
367,188,81243,1,4
423,124,81473,1,2
366,60,81704,1,2
198,91,82166,1,4
58,187,82627,2,0,B|120:244|152:247|216:250,1,170,0|4
377,284,83550,5,2
434,123,84012,1,4
276,59,84473,1,8
276,59,84704,1,8
197,92,84935,1,4
197,92,85166,1,8
140,155,85396,1,8
251,282,85858,1,4
392,188,86319,1,4
252,91,86781,1,4
85,124,87243,5,2
196,252,87704,1,4
336,156,88166,1,2
279,92,88396,1,2
200,123,88627,1,4
121,90,88858,1,2
68,156,89089,5,4
123,220,89319,1,2
201,187,89550,1,4
279,220,89781,1,2
357,188,90012,5,4
413,124,90243,1,2
357,59,90473,1,4
278,92,90704,1,4
198,60,90935,2,0,B|141:56|103:88|89:136|96:183,1,170,4|0
77,102,94627,6,0,B|172:88,1,85,4|0
246,90,95089,2,0,B|343:103,1,85,0|0
408,134,95550,1,4
286,252,96012,1,0
200,250,96243,1,0
142,187,96473,6,0,B|240:187,1,85,4|0
310,168,96935,2,0,B|402:124,1,85,0|0
339,60,97396,2,0,B|303:38|254:32|204:40|165:69,1,170,4|4
63,188,98319,5,4
141,219,98550,2,0,B|232:177,1,85,0|0
303,187,99012,2,0,B|393:222,1,85,0|4
323,58,99704,6,4,B|147:58,1,170,0|4
153,143,100396,1,0
153,228,100627,1,4
237,228,100858,1,0
322,229,101089,2,4,B|322:53,1,170,4|0
154,90,102012,6,0,B|72:140,1,85,4|0
148,187,102473,2,0,B|225:232,1,85,0|0
295,187,102935,1,4
434,90,103396,2,0,B|332:90,1,85,0|0
263,91,103858,6,0,B|184:140,1,85,4|0
122,186,104319,2,0,B|223:186,1,85,0|0
284,220,104781,2,4,B|344:219|405:206|445:177|459:166,1,170
321,59,105704,5,4
242,92,105935,2,0,B|149:48,1,85,0|0
88,92,106396,2,0,B|88:188,1,85,0|4
240,251,107089,6,4,B|416:251,1,170,0|4
411,165,107781,1,0
325,167,108012,1,4
239,169,108243,1,0
241,84,108473,2,4,B|428:84,1,170,4|0
157,59,116781,5,4
102,124,117012,1,0
157,188,117243,2,0,B|213:121,1,85,0|0
269,60,117704,2,0,B|337:131,1,85,4|0
271,184,118166,1,4
127,284,118627,5,4
211,283,118858,1,0
289,251,119089,2,8,B|360:180,1,85
402,124,119550,1,2
324,89,119781,1,8
244,60,120012,1,8
76,92,120473,5,2
132,155,120704,1,2
187,91,120935,1,8
239,157,121166,1,8
180,218,121396,1,2
258,251,121627,1,0
336,219,121858,1,2
391,154,122089,5,2
311,123,122319,2,0,B|243:44,2,85,8|8|2
389,90,123012,1,2
467,123,123243,2,10,B|467:222,1,85
393,252,123704,1,8
280,124,124166,6,0,B|215:189,1,85,4|0
134,187,124627,2,0,B|61:114,1,85,0|0
126,59,125089,2,0,B|180:38|236:34|302:62,1,170,4|0
402,187,126012,6,0,B|336:253,1,85,4|0
264,282,126473,1,0
184,250,126704,1,0
104,220,126935,2,4,B|105:152|150:114|228:175,1,170,4|0
256,192,127858,12,0,130973
69,125,131550,5,4
147,157,131781,1,2
225,123,132012,1,4
303,155,132243,1,2
382,123,132473,2,0,B|465:174,1,85,4|2
387,220,132935,2,0,B|303:268,1,85
238,220,133396,5,4
183,155,133627,1,8
109,198,133858,1,4
66,124,134089,1,8
121,59,134319,2,0,B|213:59,1,85,4|2
284,91,134781,2,0,B|370:144,1,85,4|2
423,188,135243,5,4
367,251,135473,1,4
287,220,135704,1,4
231,284,135935,1,4
152,251,136166,2,0,B|91:179,1,85,4|2
155,124,136627,2,0,B|221:45,1,85,4|2
266,121,137089,5,4
319,186,137319,1,10
376,123,137550,1,4
319,59,137781,1,10
266,121,138012,1,4
210,185,138243,1,14
153,121,138473,1,4
352,64,142622,5,0
209,156,143083,1,4
366,220,143545,1,0
288,186,143775,1,0
209,219,144006,1,4
129,188,144237,1,0
50,154,144468,1,0
190,59,144929,1,4
329,156,145391,2,4,B|308:223|253:263|213:284,1,170,0|4
52,315,146314,5,0
112,156,146775,1,4
252,60,147237,2,0,B|350:96,1,85,0|0
409,124,147698,2,0,B|487:171,1,85,4|0
415,221,148160,1,0
257,156,148622,1,4
116,252,149083,1,4
283,284,149545,1,4
423,188,150006,5,0
313,57,150468,1,4
146,90,150929,1,0
90,154,151160,1,0
143,219,151391,1,4
221,251,151622,1,0
300,220,151852,5,4
379,249,152083,1,0
458,219,152314,1,4
401,155,152545,1,0
458,92,152775,5,4
379,59,153006,1,0
299,89,153237,1,4
219,60,153468,1,4
140,91,153698,6,4,B|70:162,1,85
131,219,154160,2,8,B|197:284,1,85
276,282,154622,1,0
433,218,155083,2,2,B|374:152,1,85
290,155,155545,2,4,B|200:155,1,85
126,123,156006,2,8,B|67:54,1,85
150,27,156468,2,0,B|216:36|256:71|294:115,1,170,2|4
424,219,157391,5,4
368,283,157622,2,0,B|282:245,1,85,0|0
352,190,158083,2,0,B|272:154,1,85,0|4
134,58,158775,2,4,B|84:88|84:167|86:217|87:223,1,170,0|4
162,251,159468,1,0
218,188,159698,1,4
292,229,159929,1,0
371,199,160160,2,4,B|432:170|424:84|389:65|366:55,1,170,4|0
204,60,161083,6,0,B|117:108,1,85,4|0
64,156,161545,2,0,B|130:224,1,85,0|0
208,219,162006,1,4
320,91,162468,2,0,B|400:138,1,85,0|0
402,218,162929,6,4,B|308:218,1,85,4|0
257,156,163391,2,0,B|174:204,1,85,4|0
98,197,163852,2,4,B|62:161|59:78|141:53,1,170
299,57,164775,5,4
376,91,165006,2,0,B|423:129|417:176,1,85,0|0
410,247,165468,2,0,B|368:286|312:290,1,85,0|4
168,318,166160,6,4,B|116:291|76:253|72:176,1,170,0|4
92,104,166852,1,0
165,60,167083,1,4
249,69,167314,1,0
333,60,167545,2,0,B|397:98|416:149|421:216,1,170,4|0
272,283,168468,6,0,B|172:283,1,85,4|0
126,222,168929,2,0,B|213:221,1,85,0|0
289,187,169391,1,4
148,91,169852,2,0,B|244:91,1,85,0|0
312,58,170314,6,0,B|388:108,1,85
451,155,170775,2,0,B|388:224,1,85,4|0
338,282,171237,2,4,B|284:289|218:283|170:241,1,170,4|0
100,93,172160,5,4
179,123,172391,1,0
258,92,172622,1,0
336,58,172852,1,0
414,91,173083,1,4
358,251,173545,6,0,B|302:251|279:237|259:211|184:218,1,170,0|4
132,156,174237,1,0
210,122,174468,1,4
292,101,174698,1,0
375,87,174929,2,0,B|428:116|453:178|446:226|444:248,1,170,4|0
283,283,175852,6,0,B|191:283,1,85,4|0
118,251,176314,2,0,B|93:168,1,85,0|0
128,92,176775,1,4
296,69,177237,2,0,B|389:69,1,85,0|0
445,124,177698,2,0,B|362:176,1,85,4|0
303,219,178160,2,0,B|212:219,1,85,0|0
140,253,178622,2,4,B|95:229|72:190|90:136|132:104,1,170,4|0
283,59,179545,6,0,B|376:59,1,85,4|0
440,103,180006,2,0,B|440:191,2,85,0|0|4
347,245,180929,2,0,B|262:272|167:245,1,170,0|4
118,188,181622,1,0
173,123,181852,1,4
227,187,182083,1,0
305,154,182314,6,0,B|346:188|422:120|330:53|296:112,1,170,4|4
256,192,183237,12,4,186468
