osu file format v5

[General]
AudioFilename: 02 Hellogoodbye - Here [In Your Arms].mp3
AudioLeadIn: 0
PreviewTime: -1
Countdown: 0
SampleSet: Normal
StackLeniency: 0.7
Mode: 0
LetterboxInBreaks: 1
SkinPreference:Minimalv1.8
EditorDistanceSpacing: 1

[Metadata]
Title:Here (In Your Arms)
Artist:Hellogoodbye
Creator:v0xtrot
Version:Hard
Source:
Tags:hellogoodbye v0xtrot pop here in your arms

[Difficulty]
HPDrainRate:8
CircleSize:4
OverallDifficulty:7
SliderMultiplier:1.9
SliderTickRate:2

[Events]
//Background and Video events
//Break Periods
2,66085,71652
2,93704,94985
2,126086,128945
2,144895,149271
//Storyboard Layer 0 (Background)
//Storyboard Layer 1 (Failing)
//Storyboard Layer 2 (Passing)
//Storyboard Layer 3 (Foreground)
//Storyboard Sound Samples
//Background Colour Transformations
3,100,255,255,255

[TimingPoints]
3981,476.190476190476,4,2,0,55,1,0
4457,-200,4,2,0,56,0,0
9814,-200,4,2,0,0,0,0
10154,-200,4,2,0,55,0,0
41957,-200,4,2,0,0,0,0
42195,-200,4,2,0,55,0,0
48742,-100,4,1,0,100,0,1
63742,-200,4,2,0,55,0,0
65766,-200,4,2,0,0,0,0
66004,-200,4,2,0,57,0,0
83861,-200,4,2,0,0,0,0
84100,-200,4,2,0,56,0,0
85766,-200,4,2,0,0,0,0
86004,-200,4,2,0,55,0,0
109695,-100,4,1,0,100,0,1
126004,-200,4,2,0,56,0,0
139100,-100,4,1,0,100,0,0
142076,-200,4,2,0,58,0,0
186838,-100,4,2,0,100,0,0
193980,-100,4,1,0,80,0,1
201957,-100,4,1,0,100,0,1

[Colours]
Combo1 : 214,204,16
Combo2 : 213,19,213
Combo3 : 44,149,171

[HitObjects]
48,48,5409,1,0
72,88,5647,1,2
184,176,6361,1,2
448,320,7076,1,2
464,272,7314,1,0
448,224,7552,1,2
344,128,8266,1,2
96,344,8980,5,2
72,304,9219,1,0
56,256,9457,2,2,B|32:208|56:152,1,95
72,120,10171,1,2
464,40,10885,1,2
480,80,11123,1,0
464,128,11361,1,2
328,168,12076,1,2
112,48,13028,5,0
88,88,13266,1,2
120,224,13980,1,2
256,192,14695,1,2
256,192,14933,1,0
256,192,15171,1,2
256,336,15885,1,2
256,240,16361,1,8
256,144,16838,1,2
256,48,17314,1,4
256,240,18266,1,4
208,344,19219,5,0
160,328,19457,1,0
120,296,19695,1,0
96,256,19933,2,2,B|56:176|80:104,1,142.5
304,344,21123,1,0
352,328,21361,1,0
392,296,21599,1,0
416,256,21837,2,2,B|456:176|432:104,1,142.5
208,40,23028,5,0
160,56,23266,1,0
120,88,23504,1,0
96,128,23742,2,2,B|56:208|80:280,1,142.5
304,40,24933,1,0
352,56,25171,1,0
392,88,25409,1,0
416,128,25647,2,2,B|456:208|432:280,1,142.5
256,192,26838,5,4
256,144,27076,1,0
256,96,27314,2,2,B|256:40,2,47.5
256,144,28028,1,0
256,192,28266,1,2
256,192,28742,1,4
256,240,28980,1,0
256,288,29218,2,2,B|256:344,2,47.5
256,240,29932,1,0
256,192,30170,1,2
256,192,30647,5,4
304,192,30885,1,0
352,192,31123,2,2,B|408:192,2,47.5
304,192,31837,1,0
256,192,32075,1,2
256,192,32552,1,4
208,192,32790,1,0
160,192,33028,2,2,B|104:192,2,47.5
208,192,33742,1,0
256,192,33980,1,8
256,96,34457,1,4
256,336,35647,5,0
256,288,35885,1,2
256,240,36123,1,2
256,96,36838,1,2
256,8,37790,1,0
256,56,38028,2,2,B|256:200,1,142.5
216,336,39457,5,2
256,360,39695,1,0
296,336,39933,1,2
256,200,40647,1,2
80,80,41600,1,2
120,104,41838,2,0,B|128:144|168:136,1,47.5,2|0
232,184,42552,1,2
432,192,43504,5,0
384,192,43742,1,2
256,120,44457,1,2
48,192,45409,1,0
96,192,45647,1,2
200,288,46361,1,2
256,368,46838,1,8
312,288,47314,1,2
256,192,47790,1,4
256,192,48266,12,4,49695
120,192,49933,5,0
168,8,50409,1,0
248,56,50647,1,2
440,272,51123,1,0
352,304,51361,1,2
88,192,51838,1,0
128,104,52076,1,2
160,192,52314,1,0
200,104,52552,1,2
232,192,52790,1,0
280,104,53028,1,2
448,192,53504,6,2,B|400:272|376:272,1,95
208,320,54219,1,0
136,256,54457,1,4
136,64,54933,2,0,B|176:24|240:48,1,95
400,112,55647,1,0
320,168,55885,1,0
344,208,56004,1,0
320,248,56123,1,2
352,280,56242,1,2
320,312,56361,1,0
224,328,56600,1,2
144,272,56838,1,2
392,48,57314,5,4
304,88,57552,1,0
120,152,58028,1,0
208,184,58266,1,4
384,256,58742,1,0
296,288,58980,1,4
104,320,59457,1,8
64,232,59695,2,0,B|40:168|48:120,1,95
56,40,60171,1,8
144,64,60409,2,2,B|208:88|232:136,1,95
448,320,61123,5,4
448,224,61361,1,0
448,32,61838,1,0
448,128,62076,1,4
256,120,62552,1,0
256,216,62790,1,4
144,56,63266,2,4,B|120:120|144:168,1,95
376,320,63980,5,2
408,256,64338,1,2
336,256,64695,2,2,B|296:208|280:120|312:16,1,237.5
120,120,72552,5,0
120,264,73266,1,2
192,320,73742,1,0
240,320,73980,1,2
256,224,74457,1,2
256,128,74933,1,0
256,272,75647,1,0
256,224,75885,1,2
392,120,76361,5,2
392,264,77075,1,0
320,320,77552,1,2
272,320,77789,1,0
256,224,78266,1,4
256,80,78980,1,4
256,176,79457,1,0
256,224,79695,1,4
256,272,79933,1,0
256,320,80171,1,4
48,328,81600,5,0
40,280,81838,1,2
72,144,82552,1,2
400,40,83266,1,2
440,72,83504,1,0
416,112,83742,2,0,B|408:136|360:152,1,47.5,2|0
288,152,84457,1,2
112,40,85171,5,2
72,72,85409,1,0
96,112,85647,2,0,B|104:136|152:152,1,47.5,2|0
200,208,86361,1,2
408,336,87076,1,2
432,296,87314,1,2
408,248,87552,1,2
320,136,88266,1,2
256,192,89219,5,0
256,192,89457,1,2
256,336,90171,1,2
256,192,90885,1,0
256,144,91123,1,0
256,96,91361,1,2
256,240,92076,1,2
256,336,92552,1,8
256,240,93028,1,2
256,144,93504,5,4
368,192,95885,5,8
336,232,96123,1,8
192,224,96838,1,8
192,32,97790,1,8
232,8,98028,1,8
360,56,98742,1,8
408,240,99695,1,8
368,264,99933,1,8
224,264,100648,1,8
96,120,101600,1,8
136,88,101838,1,8
256,16,102553,1,8
256,112,103028,1,4
256,208,103504,6,2,B|200:200|176:144,1,95
181,154,104457,2,0,B|208:112|264:112,1,95
256,208,105409,6,2,B|312:200|336:144,1,95
331,154,106362,2,0,B|304:112|248:112,1,95
256,208,107314,5,2
256,304,107790,1,8
352,304,108267,1,2
256,192,108742,12,0,110647
256,80,110885,5,0
256,336,111361,2,2,B|216:288|248:232,1,95
328,280,111838,1,0
400,336,112076,2,2,B|440:288|408:232,1,95
160,80,112790,1,0
120,168,113028,1,8
160,248,113266,1,0
120,336,113504,1,2
168,320,113623,1,0
192,280,113742,1,2
216,192,113980,1,2
456,56,114457,6,0,B|464:104|408:144,1,95,4|0
376,216,114933,1,2
336,312,115171,2,0,B|280:264|272:216,1,95
136,112,115885,1,0
216,56,116123,1,0
408,64,116600,2,0,B|440:112|448:152,1,95
504,64,117076,1,0
448,152,117314,1,2
416,184,117433,1,0
376,216,117552,1,2
304,280,117790,1,2
56,320,118266,5,4
88,232,118504,1,0
120,48,118980,2,0,B|160:48|216:112,1,95,0|4
384,56,119695,2,0,B|440:104|424:144,1,95,0|4
384,320,120409,1,8
288,320,120647,2,0,B|216:312|184:272,1,95
208,192,121123,1,8
208,96,121361,2,2,B|168:24|120:24,1,95
32,184,122076,5,0
80,264,122314,1,4
272,264,122790,1,0
336,192,123028,1,4
144,176,123504,2,4,B|160:80|280:56,1,190
144,176,124457,1,4
360,296,124933,5,2
392,152,125290,1,2
360,296,125647,2,4,B|432:280|456:232|432:232,1,95,6|6
128,328,129695,5,0
104,288,129933,2,2,B|72:256|96:184,1,95
128,160,130647,1,2
224,144,131123,1,0
272,144,131361,1,4
360,168,131838,1,2
392,200,132076,2,2,B|424:216|416:256,1,47.5
416,288,132552,2,0,B|416:328|448:336,2,47.5,0|2|2
192,288,133504,6,0,B|144:200|192:80,1,190,4|0
256,40,134933,1,2
320,104,135409,2,0,B|368:192|320:312,1,190,4|0
280,304,136600,5,0
256,264,136838,1,2
224,304,137076,1,0
192,288,137314,2,0,B|144:200|192:80,1,190,4|0
232,80,138504,1,0
256,120,138742,1,2
288,80,138980,1,2
384,80,139219,5,4
384,272,139695,1,4
240,272,140052,1,0
192,272,140171,1,0
144,272,140290,1,0
144,176,140528,1,0
288,176,140885,1,0
256,88,141123,1,4
160,336,142552,6,0,B|128:336|112:304,1,47.5
352,48,144457,2,0,B|384:48|400:80,1,47.5
256,72,150171,5,0
256,128,150409,1,2
256,344,152076,1,0
256,288,152314,1,2
256,192,154457,1,4
248,48,155885,6,0,B|216:40|184:72,1,47.5
160,96,156361,2,2,B|120:128|96:216|104:264|112:288,1,190
144,320,157552,2,0,B|176:336,1,23.75
224,328,157909,2,0,B|264:320,1,23.75
304,304,158266,2,2,B|288:232|416:184|408:128,1,190
328,56,159695,1,0
272,64,159933,2,2,B|216:88|184:88|128:168|136:208|136:208|136:248|144:256,1,237.5
352,304,162076,2,2,B|312:240|384:200|320:144|352:112,1,190
256,184,163504,1,0
256,296,163980,1,4
48,192,164933,5,4
104,192,165171,2,2,B|136:192,1,23.75
184,192,165528,2,0,B|224:192,1,23.75
264,192,165885,2,2,B|288:104|392:80|424:120,1,190,6|4
368,216,167314,1,0
480,240,167790,2,2,B|456:328|352:352|320:312,1,190,6|4
104,320,169695,2,2,B|56:240|56:240|128:184|128:184|72:112|96:72,1,285,6|2
256,56,171600,5,4
256,224,172314,1,0
144,192,172790,1,0
168,192,172909,1,2
192,192,173028,1,0
248,192,173266,1,0
304,192,173504,2,2,B|408:192,2,95,4|0|0
248,192,174695,1,0
216,192,174814,1,2
184,192,174933,1,0
128,192,175171,1,0
72,192,175409,2,2,B|80:96|240:112,1,190,4|0
256,160,176600,2,2,B|256:224,2,47.5
288,112,177314,2,2,B|296:208|456:192,1,190,4|0
440,248,178504,5,0
440,272,178623,1,2
440,304,178742,1,0
384,304,178980,1,0
336,264,179219,2,4,B|248:72,1,190
256,91,181123,6,4,B|152:272,1,190
256,192,182552,1,0
256,48,183028,2,4,B|256:96,1,47.5
256,152,183742,2,0,B|256:184|256:200,1,47.5,0|4
256,312,184457,1,0
256,256,184695,1,4
256,144,185171,1,0
256,88,185409,1,4
256,32,185647,1,0
312,32,185885,1,4
336,32,186004,1,0
360,32,186123,1,0
416,32,186361,1,4
416,256,186838,5,0
304,256,187076,1,0
128,104,187552,2,2,B|88:128|80:184,1,95
224,8,188266,2,2,B|272:40|280:88,1,95
432,248,188980,1,0
344,320,189219,1,2
328,208,189457,1,0
256,120,189695,1,2
216,80,189814,1,0
176,40,189933,1,2
160,96,190052,1,0
144,152,190171,1,2
136,376,190647,2,0,B|216:288,1,95
344,128,191361,2,2,B|416:200,1,95
256,192,192076,12,4,194457
328,88,194695,5,0
184,264,195171,1,0
272,336,195409,1,0
456,200,195885,2,2,B|448:128|408:96,1,95
192,136,196600,1,0
192,248,196838,1,0
304,248,197076,1,0
304,136,197314,1,2
360,136,197433,1,0
416,136,197552,1,2
416,192,197671,1,0
416,248,197790,1,2
416,136,198028,1,0
416,24,198266,6,4,B|328:0|272:0|216:40,1,190
232,144,198980,1,0
232,256,199219,1,4
344,256,199457,1,0
400,256,199576,1,0
456,256,199695,1,4
456,144,199933,2,4,B|376:56|280:48,1,190
192,96,200647,1,0
192,208,200885,1,0
80,208,201123,1,0
136,368,201480,1,0
136,192,201838,1,0
136,80,202076,5,4
240,40,202314,1,0
464,40,202790,2,0,B|392:104,1,95
464,184,203504,2,2,B|384:272,1,95
168,272,204219,2,0,B|88:248|88:208,1,95
88,104,204695,1,0
184,48,204933,1,2
232,24,205052,1,0
280,48,205171,1,2
232,152,205409,1,2
456,152,205885,2,4,B|456:48,1,95
456,288,206600,2,6,B|360:288,1,95
256,192,207314,12,4,209695
152,104,209933,5,0
384,88,210409,1,2
384,200,210647,1,2
176,304,211123,1,0
112,208,211361,1,0
240,16,211838,1,2
352,16,212076,1,2
296,112,212314,1,0
296,224,212552,1,2
296,168,212671,1,0
296,112,212790,1,2
216,192,213028,1,2
480,32,213504,5,4
368,32,213742,1,0
432,248,214219,2,4,B|432:144,1,95
200,136,214933,2,4,B|224:40,1,95
336,40,215409,1,4
336,152,215647,1,0
336,264,215885,1,4
104,264,216361,1,4
104,88,216719,1,4
248,184,217076,1,4
136,184,217314,6,2,B|168:120|240:88|296:88,1,190
408,88,218028,1,0
408,312,218504,1,0
408,200,218742,1,0
176,192,219219,2,2,B|232:48|328:144|336:200|336:200|296:280|208:264,1,380
88,72,220647,1,0
80,296,221123,2,2,B|144:216|248:184,1,190
256,80,221838,1,0
480,136,222314,2,2,B|488:216|448:240,1,95
256,192,223028,12,2,224933
96,56,225409,5,0
96,168,225647,1,2
336,168,226123,1,2
424,240,226361,1,0
256,80,226838,2,2,B|208:112|184:176|192:248|240:328|280:312|336:264|408:336,1,380
392,208,228028,1,0
392,96,228266,1,4
160,88,228742,2,2,B|96:16|32:112|136:216|40:256|24:288|24:288|200:360,1,475,4|0
280,288,230171,1,0
352,200,230409,1,0
256,112,230647,5,4
256,304,231123,1,4
424,304,231480,1,0
368,304,231599,1,0
312,304,231718,1,0
200,304,231957,1,4
256,144,232313,1,0
256,32,232551,1,4
