osu file format v5

[General]
AudioFilename: 02 Hellogoodbye - Here [In Your Arms].mp3
AudioLeadIn: 0
PreviewTime: -1
Countdown: 0
SampleSet: Normal
StackLeniency: 0.7
Mode: 0
LetterboxInBreaks: 1
SkinPreference:Minimalv1.8
EditorDistanceSpacing: 1

[Metadata]
Title:Here (In Your Arms)
Artist:Hellogoodbye
Creator:v0xtrot
Version:Easy
Source:
Tags:hellogoodbye v0xtrot pop here in your arms

[Difficulty]
HPDrainRate:0
CircleSize:3
OverallDifficulty:0
SliderMultiplier:1.6
SliderTickRate:2

[Events]
//Background and Video events
//Break Periods
//Storyboard Layer 0 (Background)
//Storyboard Layer 1 (Failing)
//Storyboard Layer 2 (Passing)
//Storyboard Layer 3 (Foreground)
//Storyboard Sound Samples
//Background Colour Transformations
3,100,255,255,255

[TimingPoints]
3981,476.190476190476,4,2,0,55,1,0
4457,-200,4,2,0,56,0,0
9814,-200,4,2,0,0,0,0
10154,-200,4,2,0,55,0,0
41957,-200,4,2,0,0,0,0
42195,-200,4,2,0,55,0,0
48742,-100,4,1,0,100,0,1
63742,-200,4,2,0,55,0,0
65766,-200,4,2,0,0,0,0
66004,-200,4,2,0,55,0,0
85766,-200,4,2,0,0,0,0
86004,-200,4,2,0,55,0,0
109695,-100,4,1,0,100,0,1
126004,-200,4,2,0,56,0,0
139100,-100,4,1,0,100,0,0

[Colours]
Combo1 : 215,225,19
Combo2 : 210,15,152
Combo3 : 41,141,163

[HitObjects]
256,80,5409,1,0
256,128,5647,1,2
256,304,7076,1,2
256,256,7314,1,0
256,208,7552,1,2
368,192,8981,5,2
320,192,9219,1,0
280,216,9457,2,2,B|232:240|184:216,1,80
104,48,10885,1,0
152,64,11123,1,0
184,96,11361,1,2
448,296,13028,5,0
408,272,13266,1,2
256,192,14695,1,2
256,192,14933,1,0
256,192,15171,1,2
256,192,16361,5,8
256,192,17314,1,4
256,32,18266,1,8
208,192,19219,5,0
120,304,19933,2,2,B|80:224|88:184,1,120
304,192,21123,5,0
392,304,21837,2,2,B|432:224|424:176,1,120
208,192,23028,5,0
120,80,23742,2,2,B|80:160|104:208,1,120
304,192,24933,5,0
392,80,25647,2,2,B|432:160|416:208,1,120
384,304,26838,5,0
336,312,27076,2,2,B|272:328|256:296,1,80
192,256,28028,1,0
168,224,28266,2,2,B|136:192|136:184,1,40
136,152,28742,1,0
152,112,28980,1,0
216,56,29457,2,2,B|272:64|288:104,1,80
304,128,30171,1,0
256,192,30647,5,4
256,96,31123,2,2,B|256:8,2,80,2|2|2
256,192,32552,1,4
256,288,33028,2,2,B|256:336,4,40,2|2|2|0|2
256,192,34457,5,4
88,24,35647,5,0
96,72,35885,2,2,B|96:104|112:112,1,40
440,72,37790,1,0
416,112,38028,1,2
136,152,39457,5,2
152,192,39695,1,0
184,224,39933,1,2
376,160,41123,1,8
440,240,41600,1,2
440,288,41838,2,0,B|432:328|400:320,1,40,2|0
256,304,43028,1,8
184,264,43504,5,0
168,224,43742,1,2
464,104,44933,1,8
464,192,45409,1,0
416,192,45647,1,0
256,192,46838,1,8
256,192,47790,1,4
256,192,48504,12,4,49695
104,264,50409,6,0,B|64:232|80:176,1,80
152,208,51123,2,2,B|192:240|176:296,1,80
256,304,51838,1,8
296,304,52076,2,0,B|352:304|384:256|368:272,1,80
392,240,52552,1,8
408,200,52790,2,0,B|440:152|432:112,1,80
384,56,53504,6,0,B|328:48|304:64,1,80,4|0
352,128,54219,2,2,B|360:168|304:200,1,80
248,240,54933,6,0,B|232:272|256:328,1,80
328,320,55647,1,0
344,280,55885,1,0
328,240,56123,1,2
360,216,56361,2,0,B|376:168|352:136,1,80
336,104,56838,1,2
256,112,57314,5,4
216,128,57552,1,0
216,208,58028,1,8
248,224,58266,1,4
248,304,58742,1,8
208,320,58980,1,4
128,320,59457,1,2
104,288,59695,2,0,B|80:224|80:200,1,80
88,168,60171,1,2
128,176,60409,2,2,B|192:200|208:232,1,80
448,320,61123,5,4
448,280,61361,1,0
448,200,61838,1,0
448,160,62076,1,4
368,160,62552,1,0
328,160,62790,1,4
256,192,63266,2,4,B|232:256|248:288,1,80
296,328,63980,5,2
344,296,64338,1,2
376,240,64695,2,2,B|400:200|432:88|360:48,1,200
