osu file format v5

[General]
AudioFilename: 01 All Of Your Love.mp3
AudioLeadIn: 1004
PreviewTime: -1
Countdown: 0
SampleSet: Normal
StackLeniency: 0.5
Mode: 0
LetterboxInBreaks: 1
EditorBookmarks: 130811

[Metadata]
Title:All of Your Love
Artist:Hellogoodbye
Creator:Seibei4211
Version:Normal
Source:
Tags:

[Difficulty]
HPDrainRate:4
CircleSize:5
OverallDifficulty:5
SliderMultiplier:1.4
SliderTickRate:1

[Events]
//Background and Video events
0,0,"All of Your Love - Hellogoodbye.jpg"
//Break Periods
2,7631,13676
2,46653,49765
2,53871,56983
2,90420,93081
2,97178,100290
//Storyboard Layer 0 (Background)
//Storyboard Layer 1 (Failing)
//Storyboard Layer 2 (Passing)
//Storyboard Layer 3 (Foreground)
//Storyboard Sound Samples
//Background Colour Transformations
3,100,163,162,255

[TimingPoints]
448,451.127819548872,4,2,0,80,1
29320,451.219420483858,4,1,0,100,0
41951,451.219420483858,4,2,0,100,0
43304,451.219420483858,4,1,0,100,0
57740,451.219420483858,4,2,0,100,0
72627,451.219420483858,4,1,0,100,0
85258,451.219420483858,4,2,0,100,0
87062,451.219420483858,4,1,0,100,0
101498,451.219420483858,4,2,0,100,0
108716,451.219420483858,4,1,0,80,0
115934,451.219420483858,4,1,0,100,0
122475,451.219420483858,4,2,0,100,0
123151,451.219420483858,4,1,0,100,0
128564,451.219420483858,4,2,0,0,0

[Colours]
Combo1 : 240,0,120
Combo2 : 28,255,255
Combo3 : 240,240,0
Combo4 : 204,0,0

[HitObjects]
108,64,448,2,0,B|200:64,1,70,2|0
230,95,899,1,4
284,129,1124,2,0,B|336:77,2,70,0|2|0
231,175,1801,2,0,B|173:233,1,70,4|0
213,287,2252,6,0,B|271:230,1,70,2|0
311,187,2703,1,4
356,133,2929,2,0,B|356:56,2,70,0|2|4
396,189,3605,2,4,B|396:280,1,70
360,319,4057,6,0,B|268:319,1,70,2|0
291,248,4508,1,4
289,178,4733,2,0,B|194:178,2,70,0|2|0
359,178,5410,2,0,B|445:178,1,70,4|0
429,107,5861,6,0,B|367:45,1,70,2|0
309,63,6312,1,4
247,96,6538,2,0,B|191:40,2,70,0|2|4
300,140,7214,2,4,B|242:197,1,70
189,128,14884,6,0,B|222:110|256:94|298:112|336:139,1,140
48,63,16237,6,0,B|48:143,1,70
153,224,16914,1,4
448,64,18267,5,0
377,64,18493,2,0,B|297:64,1,70
245,97,18944,1,4
348,190,19395,2,0,B|292:246,2,70,4|0|4
412,162,20072,1,0
412,231,20297,1,4
357,275,20523,2,4,B|276:275,1,70
233,229,20974,1,4
183,97,21425,6,0,B|100:97,1,70
50,128,21876,1,4
305,319,23455,6,0,B|385:319,1,70
478,224,24132,1,4
62,287,25485,5,0
124,255,25711,2,0,B|212:255,1,70,4|0
256,224,26162,1,4
318,192,26387,2,0,B|400:192,2,70,0|4|0
256,158,27064,2,0,B|165:158,1,70,4|0
147,99,27515,6,2,B|242:99,2,70
87,61,28192,6,0,B|60:92|40:114|40:149|41:200,1,140,2|4
100,224,28869,1,4
169,224,29094,1,4
231,192,29320,6,0,B|296:127,1,70,4|0
333,96,29771,1,0
384,143,29996,2,0,B|452:211,2,70,0|4|0
333,192,30673,2,0,B|333:279,2,70,4|0|4
262,191,31350,1,4
192,189,31576,2,0,B|153:188|153:188|153:143,1,70,0|4
47,64,32252,5,0
116,65,32478,2,0,B|204:65,1,70
249,94,32929,2,0,B|249:131|249:131|292:131,1,70,4|0
341,94,33380,2,0,B|374:94|374:94|374:136,1,70,4|0
337,190,33832,2,4,B|252:190,1,70
203,160,34283,6,0,B|148:105,1,70,4|0
84,97,34734,1,4
54,160,34960,1,4
85,222,35185,2,0,B|143:280,1,70,0|4
247,94,36088,6,0,B|312:104|336:127|350:165|356:192,1,140,0|4
372,240,36765,1,0
342,303,36990,1,4
273,287,37216,2,0,B|214:228,1,70,0|4
153,239,37667,2,0,B|99:293,2,70,0|4|0
187,178,38344,6,0,B|187:91,1,70,4|0
223,48,38795,1,4
152,48,39021,2,0,B|97:80|86:114|77:148|78:172,1,140,4|4
106,224,39698,5,0
168,192,39923,1,0
229,225,40149,2,0,B|307:225,1,70,4|0
360,190,40600,1,4
419,225,40826,2,0,B|477:168,1,70,0|4
420,125,41277,2,0,B|368:73,1,70,0|4
300,76,41728,1,4
233,97,41951,6,0,B|140:97,1,70
162,167,42402,2,0,B|244:167,1,70
365,126,43079,1,2
256,192,43755,12,0,46462
256,192,50974,12,0,53682
255,65,58191,2,0,B|216:113|265:134|288:148|248:210,1,140
57,258,59319,5,0
117,222,59544,2,0,B|176:163,1,70,2|0
236,171,59996,2,0,B|302:238,1,70,4|0
344,257,60447,1,4
263,63,61124,5,0
201,95,61349,2,0,B|172:132|198:164,1,70,2|0
259,133,61800,2,0,B|292:171|240:216,1,70,4|0
195,227,62252,1,4
396,285,62929,6,0,B|452:341,2,70,0|2|0
345,236,63605,1,4
292,189,63831,2,0,B|231:250,1,70,0|4
88,95,64733,5,4
150,62,64959,1,4
210,97,65185,2,0,B|185:128|132:130,1,70,4|0
461,287,66538,5,0
398,255,66764,1,2
336,288,66989,1,0
273,256,67215,2,0,B|216:200,1,70,4|0
171,159,67666,1,4
358,64,68343,5,0
419,97,68569,1,2
452,158,68794,1,0
385,181,69020,2,0,B|364:144|322:131,1,70,4|0
311,201,69471,1,4
150,65,70148,5,0
88,97,70374,1,2
56,159,70599,2,0,B|123:226,1,70,0|4
129,142,71050,2,0,B|190:203,1,70,0|4
344,319,71953,5,4
391,267,72179,1,4
418,202,72404,1,4
419,131,72627,6,0,B|362:74,1,70,4|0
301,63,73078,1,4
233,81,73303,2,0,B|184:88|169:143,2,70,0|4|4
284,128,73980,2,0,B|273:166|222:180,1,70,4|0
166,182,74431,1,4
109,223,74657,1,4
78,286,74883,2,0,B|170:286,1,70,0|4
273,224,75559,5,4
334,190,75785,1,4
366,127,76011,1,0
427,94,76236,2,0,B|427:189,1,70,4|0
489,132,76687,2,0,B|489:212,1,70,4|0
445,256,77139,1,4
382,224,77364,1,0
320,256,77590,6,0,B|234:256,1,70,0|4
187,223,78041,1,4
251,194,78267,1,0
188,161,78492,2,0,B|101:161,1,70,0|4
304,64,79395,6,0,B|352:88|364:117|376:144|377:184,1,140,0|4
384,245,80072,1,0
328,287,80297,1,4
257,288,80523,2,0,B|197:228,1,70,0|4
139,223,80974,6,0,B|86:276,2,70,0|0|4
191,176,81651,2,0,B|247:120,1,70,4|0
207,64,82102,1,4
277,64,82328,2,4,B|328:58|355:75|369:111|363:154,1,140
313,192,83005,6,0,B|259:245,1,70
330,259,83456,2,0,B|272:317,1,70,4|0
211,320,83907,1,4
148,288,84133,2,0,B|214:222,1,70,0|4
191,168,84584,2,0,B|128:105,1,70,0|4
208,98,85035,1,4
270,127,85258,6,0,B|358:127,1,70
340,197,85709,2,0,B|246:198,1,70
134,160,86386,1,2
256,192,87062,12,0,90220
256,192,94281,12,0,96988
223,193,101498,2,0,B|187:156|183:121|215:73|263:76|289:87|312:119|324:165|264:196,1,280
256,160,103979,5,2
227,96,104205,2,0,B|180:137|176:178|226:224,1,140
277,253,104882,1,2
384,97,107363,6,2,B|317:164,1,70
307,81,107815,2,2,B|252:125|232:208,1,140
170,224,108491,2,0,B|113:167,2,70,4|0|0
160,224,111197,5,0
222,193,111423,2,0,B|229:148|244:113|260:89|287:65,1,140
352,69,112100,2,0,B|379:92|402:132|411:182|411:219,1,140
95,128,114581,5,0
157,96,114807,1,0
218,129,115033,1,0
88,182,115484,1,0
227,182,115934,1,4
355,127,116385,5,4
455,224,116836,2,0,B|455:312,2,70,0|0|4
315,224,117738,5,4
256,96,118190,1,0
200,224,118641,2,0,B|121:224,2,70,0|0|4
324,160,119543,5,4
184,160,119994,2,0,B|208:116|238:88|271:78|307:76,1,140
360,77,120671,1,0
409,126,120897,1,0
383,191,121123,1,0
321,224,121348,2,0,B|338:264|340:301|304:342|231:348|200:332|168:262|174:226|205:192|259:176|303:200,1,350,4|0
335,156,122700,5,0
299,95,122926,1,0
237,127,123151,5,4
100,96,123602,2,0,B|75:137|75:188|97:243,1,140
157,257,124279,2,0,B|216:198,1,70,0|4
321,127,124955,5,4
446,64,125407,2,0,B|452:118|448:163|435:193|419:212,1,140
361,224,126083,2,0,B|272:223,1,70,0|4
166,159,126760,5,4
292,100,127211,2,0,B|362:161|284:232,1,140
257,161,127888,2,4,B|177:161,2,70,0|4|4
256,192,128564,12,0,130820
