osu file format v12

[General]
AudioFilename: Hello%20Sleepwalkers%20%20-%20%E5%8D%88%E5%A4%9C%E3%81%AE%E5%BE%85%E3%81%A1%E5%90%88%E3%82%8F%E3%81%9B.mp3
AudioLeadIn: 2000
PreviewTime: 40811
Countdown: 0
SampleSet: Normal
StackLeniency: 0.7
Mode: 0
LetterboxInBreaks: 0
WidescreenStoryboard: 0

[Editor]
Bookmarks: 52795
DistanceSpacing: 1.2
BeatDivisor: 4
GridSize: 4

[Metadata]
Title:Goya no Machiawase (TV Size)
TitleUnicode:午夜の待ち合わせ (TV Size)
Artist:Hello Sleepwalkers
ArtistUnicode:Hello Sleepwalkers
Creator:tutuhaha
Version:Easy
Source:ノラガミ
Tags:opening anime HabiHolic Noragami
BeatmapID:354118
BeatmapSetID:141329

[Difficulty]
HPDrainRate:2
CircleSize:3
OverallDifficulty:2
ApproachRate:3
SliderMultiplier:0.7
SliderTickRate:1

[Events]
//Background and Video events
0,0,"e61c267b02087bf47872e8a4f3d3572c10dfcf6f.jpg",0,0
Video,-200,"Noragami Opening 1 HD.avi"
//Break Periods
//Storyboard Layer 0 (Background)
//Storyboard Layer 1 (Fail)
//Storyboard Layer 2 (Pass)
//Storyboard Layer 3 (Foreground)
//Storyboard Sound Samples
//Background Colour Transformations
3,100,163,162,255

[TimingPoints]
335,317.460317460317,4,1,2,60,1,0
1525,-100,4,1,1,60,0,0
1684,-100,4,1,2,60,0,0
4065,-100,4,1,1,60,0,0
5414,-100,4,1,2,60,0,0
6604,-100,4,1,1,60,0,0
6763,-100,4,1,2,60,0,0
9144,-100,4,1,1,60,0,0
9303,-100,4,1,2,60,0,0
11684,-100,4,1,1,60,0,0
11842,-100,4,1,2,60,0,0
14223,-100,4,1,1,60,0,0
14382,-100,4,1,2,60,0,0
16763,-100,4,1,1,60,0,0
16922,-100,4,1,2,60,0,0
20652,-100,4,1,2,50,0,0
21842,-100,4,1,1,50,0,0
22001,-100,4,1,2,50,0,0
23747,-100,4,1,1,50,0,0
24620,-100,4,1,2,50,0,0
25017,-100,4,1,1,50,0,0
25731,-100,4,1,2,50,0,0
26922,-100,4,1,1,50,0,0
27081,-100,4,1,2,50,0,0
28827,-100,4,1,1,50,0,0
29779,-100,4,1,2,50,0,0
29938,-100,4,1,1,50,0,0
35890,-100,4,1,2,50,0,0
39700,-100,4,1,2,10,0,0
40652,-100,4,1,2,50,0,0
40969,-100,4,1,2,60,0,1
42160,-100,4,1,1,60,0,1
43509,-100,4,1,2,60,0,1
44700,-100,4,1,1,60,0,1
45731,-100,4,1,2,60,0,1
47239,-100,4,1,1,60,0,1
47398,-100,4,1,2,60,0,1
49779,-100,4,1,1,60,0,1
49938,-100,4,1,2,60,0,1
52319,-100,4,1,1,60,0,1
52477,-100,4,1,2,60,0,1
54858,-100,4,1,1,60,0,1
55017,-100,4,1,2,60,0,1
57398,-100,4,1,1,60,0,1
57557,-100,4,1,2,60,0,1
59938,-100,4,1,1,60,0,1
60096,-100,4,1,2,60,0,1
65017,-100,4,1,1,60,0,1
65176,-100,4,1,2,60,0,1
67557,-100,4,1,1,60,0,1
67715,-100,4,1,2,60,0,1
68827,-100,4,1,1,60,0,1
69065,-100,4,1,2,60,0,1
75176,-100,4,1,1,60,0,1
75334,-100,4,1,2,60,0,1
79065,-100,4,1,2,60,0,0
80255,-100,4,1,1,60,0,0
80414,-100,4,1,2,60,0,0
82795,-100,4,1,1,60,0,0
84461,-100,4,1,2,50,0,0
85334,-100,4,1,1,50,0,0
85493,-100,4,1,2,50,0,0

[Colours]
Combo1 : 255,192,0
Combo2 : 128,128,128
Combo3 : 18,124,255
Combo4 : 242,24,57

[HitObjects]
108,280,335,2,0,P|84:216|104:144,1,140
160,88,1287,2,0,P|252:92|296:64,1,140,8|8,0:0|0:0,0:0:0:0:
368,100,2239,2,0,L|444:100,1,70,0|8,0:0|0:0,0:0:0:0:
476,176,2874,6,0,P|436:208|416:296,1,140
336,320,3827,2,0,P|292:348|196:348,2,140,8|8|8,0:0|0:0|0:0,0:0:0:0:
284,252,5414,6,0,P|236:212|152:200,1,140
84,164,6366,2,0,P|88:240|148:280,1,140,8|8,0:0|0:0,0:0:0:0:
200,332,7319,2,0,P|252:336|280:344,1,70,0|8,0:0|0:0,0:0:0:0:
348,308,7954,6,0,P|416:308|476:252,1,140
440,184,8906,2,0,P|396:144|308:140,1,140,8|8,0:0|0:0,0:0:0:0:
236,152,9858,1,0,0:0:0:0:
200,228,10176,1,8,0:0:0:0:
164,304,10493,6,0,P|116:328|20:324,1,140
24,244,11446,2,0,P|36:172|88:120,1,140,8|8,0:0|0:0,0:0:0:0:
144,68,12398,2,0,P|196:56|224:60,1,70,0|8,0:0|0:0,0:0:0:0:
296,56,13033,6,0,P|360:72|420:128,1,140
388,200,13985,2,0,P|308:224|240:220,1,140,8|8,0:0|0:0,0:0:0:0:
180,180,14938,2,0,P|132:184|100:192,1,70,0|8,0:0|0:0,0:0:0:0:
92,272,15573,6,0,P|128:308|216:328,1,140
292,352,16525,2,0,P|308:288|292:204,1,140,8|8,0:0|0:0,0:0:0:0:
216,240,17477,2,0,P|172:208|148:196,1,70,0|8,0:0|0:0,0:0:0:0:
84,160,18112,6,0,P|136:104|192:76,1,140
276,56,19065,1,8,0:0:0:0:
480,348,20652,6,0,P|444:344|352:284,1,140
284,332,21604,2,0,P|228:312|144:312,1,140,8|8,0:0|0:0,0:0:0:0:
64,296,22557,2,0,P|40:264|24:228,1,70,0|8,0:0|0:0,0:0:0:0:
64,160,23192,6,0,P|88:104|96:52,2,105,0|0|8,0:0|0:0|0:0,0:0:0:0:
144,184,24461,2,0,P|149:243|173:298,2,105,0|0|8,0:0|0:0|0:0,0:0:0:0:
224,164,25731,6,0,P|244:128|336:76,1,140
368,152,26684,2,0,P|392:216|380:296,1,140,8|8,0:0|0:0,0:0:0:0:
300,276,27636,2,0,P|256:264|224:244,1,70,0|8,0:0|0:0,0:0:0:0:
176,192,28271,6,0,P|152:152|104:108,2,105,0|0|8,0:0|0:0|0:0,0:0:0:0:
176,276,29541,2,0,P|152:316|104:360,2,105,0|0|8,0:0|0:0|0:0,0:0:0:0:
200,196,30811,6,0,P|212:136|288:88,2,140
252,260,32398,1,0,0:0:0:0:
312,320,32715,2,0,P|376:324|392:320,1,70
436,260,33350,6,0,P|376:220|296:200,1,140
244,152,34303,2,0,P|192:100|40:192,1,280
84,260,35890,6,0,P|120:288|152:296,1,70,0|8,0:0|0:0,0:0:0:0:
228,296,36525,2,0,P|308:288|372:320,2,140
192,220,38112,2,0,P|176:184|164:148,1,70,8|0,0:0|0:0,0:0:0:0:
256,192,38509,12,0,39700,0:0:0:0:
256,180,40652,5,8,0:0:0:0:
220,104,40969,2,0,P|184:64|88:52,1,140
72,128,41922,2,0,P|84:192|140:236,1,140,8|8,0:0|0:0,0:0:0:0:
208,188,42874,2,0,P|252:204|288:200,1,70,0|8,0:0|0:0,0:0:0:0:
320,132,43509,6,0,P|388:120|464:144,1,140
436,220,44461,2,0,P|416:272|336:320,1,140,8|8,0:0|0:0,0:0:0:0:
264,308,45414,2,0,P|228:292|184:288,1,70,0|8,0:0|0:0,0:0:0:0:
144,352,46049,6,0,P|84:332|32:276,1,140
96,224,47001,2,0,P|68:168|0:128,1,140,8|8,0:0|0:0,0:0:0:0:
28,48,47954,2,0,P|68:32|108:28,1,70,0|8,0:0|0:0,0:0:0:0:
172,64,48588,6,0,P|236:80|300:132,1,140
320,204,49541,2,0,P|352:276|412:320,1,140,8|8,0:0|0:0,0:0:0:0:
484,312,50493,2,0,P|476:276|444:240,1,70,0|8,0:0|0:0,0:0:0:0:
428,172,51128,6,0,P|396:128|312:76,1,140
260,28,52081,2,0,P|188:40|132:76,1,140,8|8,0:0|0:0,0:0:0:0:
184,144,53033,2,0,P|216:188|236:204,1,70,0|8,0:0|0:0,0:0:0:0:
224,280,53668,6,0,P|164:252|116:188,1,140
36,200,54620,2,0,P|56:284|92:336,1,140,8|8,0:0|0:0,0:0:0:0:
160,364,55573,1,0,0:0:0:0:
244,368,55890,1,8,0:0:0:0:
324,340,56208,6,0,P|284:288|220:248,1,140
268,180,57160,2,0,P|328:184|412:164,1,140,8|8,0:0|0:0,0:0:0:0:
468,112,58112,2,0,P|436:92|404:84,1,70,0|8,0:0|0:0,0:0:0:0:
320,68,58747,6,0,P|256:76|180:52,1,140
108,88,59700,2,0,P|84:152|88:236,1,140,8|8,0:0|0:0,0:0:0:0:
100,304,60652,1,0,0:0:0:0:
172,264,60969,1,8,0:0:0:0:
228,200,61287,6,0,P|272:176|360:180,2,140
272,272,62874,1,8,0:0:0:0:
224,340,63192,2,0,P|184:352|76:324,1,140
32,272,64144,6,0,P|8:228|8:196,1,70,8|0,0:0|0:0,0:0:0:0:
84,176,64779,2,0,P|124:116|196:92,1,140,8|8,0:0|0:0,0:0:0:0:
240,28,65731,2,0,P|272:24|324:36,1,70,0|8,0:0|0:0,0:0:0:0:
358,98,66366,6,0,P|310:142|230:166,1,140
164,204,67319,2,0,P|192:264|256:312,1,140,8|8,0:0|0:0,0:0:0:0:
328,280,68271,6,0,P|392:272|432:280,2,105,0|0|8,0:0|0:0|0:0,0:0:0:0:
320,196,69541,2,0,B|280:128|208:108,1,140
164,180,70493,2,0,B|128:204|92:220,2,70,8|0|8,0:0|0:0|0:0,0:0:0:0:
160,96,71446,6,0,P|216:64|300:60,2,140
80,124,73033,1,8,0:0:0:0:
48,200,73350,2,0,P|48:284|72:336,1,140
152,348,74303,5,8,0:0:0:0:
236,336,74620,2,0,P|272:292|296:236,2,105,0|0|8,0:0|0:0|0:0,0:0:0:0:
188,268,75890,2,0,P|180:224|168:192,1,70,0|8,0:0|0:0,0:0:0:0:
168,116,76525,6,0,P|237:120|300:149,1,140
372,192,77477,1,8,0:0:0:0:
428,256,77795,1,4,0:0:0:0:
108,104,79065,6,0,P|84:168|104:240,1,140
160,296,80017,2,0,P|252:292|296:320,1,140,8|8,0:0|0:0,0:0:0:0:
368,284,80969,2,0,L|444:284,1,70,0|8,0:0|0:0,0:0:0:0:
476,208,81604,6,0,P|436:176|416:88,1,140
336,64,82557,2,0,P|292:36|196:36,2,140,8|8|8,0:0|0:0|0:0,0:0:0:0:
328,148,84144,6,0,P|344:212|396:272,1,140
448,204,85096,2,0,P|440:152|388:72,1,140,8|8,0:0|0:0,0:0:0:0:
320,44,86049,1,0,0:0:0:0:
236,56,86366,1,0,0:0:0:0:
256,192,86684,12,12,87795,0:0:0:0:
