osu file format v14

[General]
AudioFilename: Hello%20Sleepwalkers%20%20-%20%E5%8D%88%E5%A4%9C%E3%81%AE%E5%BE%85%E3%81%A1%E5%90%88%E3%82%8F%E3%81%9B.mp3
AudioLeadIn: 0
PreviewTime: 61073
Countdown: 0
SampleSet: Soft
StackLeniency: 0.7
Mode: 0
LetterboxInBreaks: 0
WidescreenStoryboard: 0

[Editor]
Bookmarks: 10121,35835,38375,40914,42978,46311,48057,51391,53137,56470,58216,60597,63137,89168
DistanceSpacing: 2
BeatDivisor: 4
GridSize: 4
TimelineZoom: 2.1

[Metadata]
Title:Goya no Machiawase
TitleUnicode:午夜の待ち合わせ
Artist:Hello Sleepwalkers
ArtistUnicode:Hello Sleepwalkers
Creator:[ Shimakaze ]
Version:Insane
Source:ノラガミ
Tags:noragami opening m1223961117 Losertic Karia Lena
BeatmapID:381726
BeatmapSetID:143244

[Difficulty]
HPDrainRate:6
CircleSize:4
OverallDifficulty:8
ApproachRate:9
SliderMultiplier:2.1
SliderTickRate:1

[Events]
//Background and Video events
0,0,"bg.png",0,0
//Break Periods
//Storyboard Layer 0 (Background)
//Storyboard Layer 1 (Fail)
//Storyboard Layer 2 (Pass)
//Storyboard Layer 3 (Foreground)
//Storyboard Sound Samples

[TimingPoints]
280,317.460317460317,4,2,1,70,1,0
597,-90.9090909090909,4,2,1,70,0,0
756,-100,4,2,1,70,0,0
1708,-111.111111111111,4,2,1,70,0,0
1867,-100,4,2,1,70,0,0
3137,-90.9090909090909,4,2,1,70,0,0
3295,-100,4,2,1,70,0,0
5676,-90.9090909090909,4,2,1,70,0,0
5835,-100,4,2,1,70,0,0
6787,-111.111111111111,4,2,1,70,0,0
6946,-100,4,2,1,70,0,0
11867,-90.9090909090909,4,2,1,70,0,0
12026,-100,4,2,1,70,0,0
12184,-83.3333333333333,4,2,1,70,0,0
12343,-100,4,2,1,70,0,0
19962,-200,4,2,1,70,0,0
20438,-100,4,2,1,70,0,0
20597,-90.9090909090909,4,2,1,70,0,0
22343,-125,4,2,1,70,0,0
22660,-90.9090909090909,4,2,1,70,0,0
27422,-125,4,2,1,70,0,0
27740,-90.9090909090909,4,2,1,70,0,0
30121,-142.857142857143,4,2,1,70,0,0
30359,-90.9090909090909,4,2,1,70,0,0
30756,-111.111111111111,4,2,1,70,0,0
32502,-142.857142857143,4,2,1,70,0,0
32899,-111.111111111111,4,2,1,70,0,0
35914,-111.111111111111,4,2,1,90,0,0
38375,-111.111111111111,4,2,1,70,0,0
40597,-76.9230769230769,4,1,1,70,0,0
40835,-76.9230769230769,4,2,1,10,0,0
40914,-80,4,2,1,70,0,0
45676,-76.9230769230769,4,1,1,70,0,0
45914,-76.9230769230769,4,1,1,10,0,0
45994,-80,4,2,1,70,0,0
50756,-76.9230769230769,4,1,1,70,0,0
50994,-76.9230769230769,4,1,1,10,0,0
51073,-83.3333333333333,4,2,1,70,0,0
55835,-76.9230769230769,4,1,1,70,0,0
56153,-83.3333333333333,4,2,1,70,0,0
61232,-80,4,2,1,70,0,1
77740,-90.9090909090909,4,2,1,70,0,0
79327,-90.9090909090909,4,2,1,70,0,0
79486,-100,4,2,1,70,0,0
80438,-111.111111111111,4,2,1,70,0,0
80597,-100,4,2,1,70,0,0
81867,-90.9090909090909,4,2,1,70,0,0
82026,-100,4,2,1,70,0,0
89168,-100,4,2,1,5,0,0

[Colours]
Combo1 : 192,192,192
Combo2 : 128,255,255
Combo3 : 255,0,0
Combo4 : 128,0,0

[HitObjects]
440,96,280,38,0,P|368:60|272:120,1,157.5,6|0,0:0|0:0,0:0:0:0:
296,160,597,2,0,B|280:196|280:196|296:240|292:324,1,115.50000352478,8|8,0:0|0:0,0:0:0:0:
232,108,914,1,2,0:0:0:0:
372,140,1073,1,2,0:0:0:0:
232,108,1232,1,8,0:0:0:0:
272,284,1391,22,0,B|208:328|164:272|164:272|164:248|144:200,1,157.5,2|0,0:0|0:0,0:0:0:0:
120,164,1708,2,0,P|128:128|108:56,1,94.499997116089,2|8,0:0|0:0,0:0:0:0:
40,172,2026,1,8,0:0:0:0:
96,340,2184,1,2,0:0:0:0:
192,196,2343,1,2,0:0:0:0:
108,248,2502,1,8,0:0:0:0:
192,196,2660,1,0,0:0:0:0:
191,79,2819,22,0,B|184:40|140:32|108:60|108:60|104:96|92:112,1,157.5,2|0,0:0|0:0,0:0:0:0:
268,40,3137,2,0,P|328:52|400:16,1,115.50000352478,8|8,0:0|0:0,0:0:0:0:
192,80,3454,1,2,0:0:0:0:
380,36,3613,1,2,0:0:0:0:
340,228,3772,1,8,0:0:0:0:
240,148,3930,21,2,0:0:0:0:
240,148,4010,1,0,0:0:0:0:
240,148,4089,2,0,P|248:208|212:268,1,105,0|2,0:0|0:0,0:0:0:0:
160,296,4327,1,2,0:0:0:0:
160,296,4406,2,0,P|112:288|56:328,1,105,8|8,0:0|0:0,0:0:0:0:
4,372,4724,2,0,L|16:228,1,105
172,176,5041,2,0,P|152:112|184:56,1,105,8|0,0:0|0:0,0:0:0:0:
304,44,5359,22,0,P|340:116|304:208,1,157.5,4|0,0:0|0:0,0:0:0:0:
288,204,5676,2,0,B|280:232|268:244|268:244|312:268|304:328,1,115.50000352478,8|8,0:0|0:0,0:0:0:0:
228,308,5994,1,2,0:0:0:0:
380,164,6153,1,2,0:0:0:0:
444,284,6311,1,8,0:0:0:0:
200,48,6470,22,0,B|244:128|192:208,1,157.5,2|0,0:0|0:0,0:0:0:0:
124,216,6787,2,0,P|180:200|232:224,1,94.499997116089,2|8,0:0|0:0,0:0:0:0:
352,272,7105,2,0,L|476:256,1,105,8|2,0:0|0:0,0:0:0:0:
292,188,7422,2,0,P|308:120|292:52,1,105,2|8,0:0|0:0,0:0:0:0:
216,296,7740,1,0,0:0:0:0:
216,296,7899,22,0,P|176:268|92:312,1,105,2|2,0:0|0:0,0:0:0:0:
40,344,8137,1,0,0:0:0:0:
40,344,8216,2,0,P|56:272|32:216,1,105,8|8,0:0|0:0,0:0:0:0:
16,176,8533,1,0,0:0:0:0:
172,148,8692,1,0,0:0:0:0:
104,96,8851,2,0,L|216:112,1,105,8|2,0:0|0:0,0:0:0:0:
264,60,9089,37,0,0:0:0:0:
264,60,9168,38,0,B|252:100|252:100|280:196,1,105,0|2,0:0|0:0,0:0:0:0:
192,28,9486,1,8,0:0:0:0:
336,96,9645,1,8,0:0:0:0:
340,240,9803,6,0,L|296:300,1,52.5,2|0,0:0|0:0,0:0:0:0:
276,184,9962,2,0,L|232:216,1,52.5,2|0,0:0|0:0,0:0:0:0:
240,108,10121,6,0,P|180:96|124:144,1,105,8|0,0:0|0:0,0:0:0:0:
84,252,10438,22,2,P|92:228|40:132,1,105,4|0,0:0|0:0,0:0:0:0:
144,116,10756,1,8,0:0:0:0:
144,116,11073,22,0,P|184:80|264:104,2,105,0|2|8,0:0|0:0|0:0,0:0:0:0:
288,144,11549,22,0,P|312:104|304:44,1,105,2|0,0:0|0:0,0:0:0:0:
328,224,11867,2,0,P|388:168|408:88,1,115.50000352478,0|8,0:0|0:0,0:0:0:0:
328,320,12184,2,0,P|416:288|460:220,1,125.999996154785,0|2,0:0|0:0,0:0:0:0:
224,276,12502,21,2,0:0:0:0:
320,184,12660,1,8,0:0:0:0:
336,80,12819,1,0,0:0:0:0:
336,80,12978,22,0,L|312:220,1,105,2|0,0:0|0:0,0:0:0:0:
405,31,13295,1,8,0:0:0:0:
276,152,13613,22,0,P|322:174|372:160,2,105,0|0|8,0:0|0:0|0:0,0:0:0:0:
176,32,14089,37,2,0:0:0:0:
176,32,14248,37,0,0:0:0:0:
48,76,14406,1,0,0:0:0:0:
48,76,14565,22,0,P|88:124|80:176,1,105,8|0,0:0|0:0,0:0:0:0:
40,264,14803,1,2,0:0:0:0:
52,284,14883,2,0,P|124:264|168:296,1,105
108,340,15200,1,4,0:0:0:0:
324,184,15359,1,0,0:0:0:0:
188,208,15518,22,0,L|304:188,1,105,2|0,0:0|0:0,0:0:0:0:
400,72,15835,1,8,0:0:0:0:
400,72,16153,22,0,L|388:200,2,105,0|2|8,0:0|0:0|0:0,0:0:0:0:
468,32,16629,1,2,0:0:0:0:
312,80,16787,2,0,P|252:80|212:36,1,105,0|2,0:0|0:0,0:0:0:0:
128,40,17026,1,0,0:0:0:0:
128,40,17105,2,0,B|120:76|120:76|144:168,1,105,8|0,0:0|0:0,0:0:0:0:
138,142,17581,21,0,0:0:0:0:
124,240,17740,1,8,0:0:0:0:
176,324,17899,1,0,0:0:0:0:
176,324,18057,2,0,P|240:324|288:352,1,105,0|2,0:0|0:0,0:0:0:0:
76,336,18375,1,8,0:0:0:0:
76,336,18692,22,0,P|92:284|64:240,1,105,0|2,0:0|0:0,0:0:0:0:
100,128,19010,1,8,0:0:0:0:
256,140,19168,2,0,L|376:124,2,105,0|0|2,0:0|0:0|0:0,0:0:0:0:
256,140,19803,37,2,0:0:0:0:
212,212,19962,22,2,P|180:116|212:72,1,157.5,0|0,0:0|0:0,0:0:0:0:
280,32,20597,38,0,P|228:64|152:36,1,115.50000352478,4|0,0:0|0:0,0:0:0:0:
24,108,20914,2,0,P|92:112|144:184,1,115.50000352478,8|2,0:0|0:0,0:0:0:0:
48,260,21232,1,0,0:0:0:0:
128,140,21391,1,0,0:0:0:0:
144,324,21549,1,8,0:0:0:0:
68,192,21708,2,0,P|128:216|192:196,1,115.50000352478,2|2,0:0|0:0,0:0:0:0:
376,184,22026,2,0,P|332:168|240:184,1,115.50000352478,0|8,0:0|0:0,0:0:0:0:
264,320,22343,6,2,P|200:288|96:340,1,168
52,368,22819,6,0,P|84:336|64:236,1,115.50000352478,8|2,0:0|0:0,0:0:0:0:
56,184,23137,1,4,0:0:0:0:
136,208,23295,1,0,0:0:0:0:
164,40,23454,1,8,0:0:0:0:
176,184,23613,1,2,0:0:0:0:
96,204,23772,1,0,0:0:0:0:
244,68,23930,1,0,0:0:0:0:
208,152,24089,21,8,0:0:0:0:
324,40,24248,2,0,P|388:28|452:88,1,115.50000352478,0|2,0:0|0:0,0:0:0:0:
244,68,24565,1,0,0:0:0:0:
448,120,24724,2,0,B|468:156|468:156|476:212|440:268,1,115.50000352478,8|2,0:0|0:0,0:0:0:0:
360,308,25041,1,2,0:0:0:0:
364,272,25121,1,0,0:0:0:0:
356,240,25200,1,2,0:0:0:0:
336,212,25279,1,0,0:0:0:0:
308,192,25359,1,8,0:0:0:0:
188,248,25518,1,0,0:0:0:0:
188,248,25676,22,0,P|132:268|56:224,1,115.50000352478,4|2,0:0|0:0,0:0:0:0:
88,92,25994,2,0,P|152:84|196:108,1,115.50000352478,8|2,0:0|0:0,0:0:0:0:
80,252,26311,1,0,0:0:0:0:
196,108,26470,1,0,0:0:0:0:
268,280,26629,1,8,0:0:0:0:
256,172,26787,2,0,P|205:151|145:171,1,115.50000352478,0|2,0:0|0:0,0:0:0:0:
336,44,27105,2,0,P|391:57|443:34,1,115.50000352478,0|8,0:0|0:0,0:0:0:0:
320,120,27422,38,2,B|296:116|276:96|276:96|184:104|204:200,1,168
228,284,27819,37,2,0:0:0:0:
228,284,27899,2,0,P|292:308|352:260,1,115.50000352478,8|2,0:0|0:0,0:0:0:0:
156,332,28216,2,0,P|112:308|44:324,1,115.50000352478,4|0,0:0|0:0,0:0:0:0:
228,284,28533,1,2,0:0:0:0:
104,224,28692,1,2,0:0:0:0:
264,180,28851,1,8,0:0:0:0:
48,120,29010,1,2,0:0:0:0:
300,80,29168,21,2,0:0:0:0:
300,80,29248,1,2,0:0:0:0:
300,80,29327,2,0,L|440:60,1,115.50000352478,0|8,0:0|0:0,0:0:0:0:
240,140,29645,1,2,0:0:0:0:
372,160,29803,1,8,0:0:0:0:
220,60,29962,1,0,0:0:0:0:
220,216,30121,2,2,B|208:260|208:260|208:304|252:332,1,110.249996635437
264,336,30438,1,8,0:0:0:0:
300,344,30518,1,8,0:0:0:0:
336,340,30597,1,8,0:0:0:0:
368,328,30676,1,8,0:0:0:0:
392,312,30756,22,0,L|416:192,1,94.499997116089,4|0,0:0|0:0,0:0:0:0:
344,148,31073,2,0,P|396:148|452:116,1,94.499997116089,8|2,0:0|0:0,0:0:0:0:
168,152,31391,2,0,P|116:148|64:116,1,94.499997116089,0|2,0:0|0:0,0:0:0:0:
344,240,31708,2,0,P|352:193|344:147,1,94.499997116089,8|0,0:0|0:0,0:0:0:0:
168,152,32026,2,0,P|159:198|176:244,1,94.499997116089,0|2,0:0|0:0,0:0:0:0:
260,256,32343,1,8,0:0:0:0:
200,344,32502,6,2,B|224:300|224:300|276:256|332:320,1,146.999995513916
372,352,32899,5,2,0:0:0:0:
372,352,32978,2,0,P|420:340|472:360,1,94.499997116089,8|2,0:0|0:0,0:0:0:0:
388,244,33295,2,0,P|376:188|400:128,1,94.499997116089,0|0,0:0|0:0,0:0:0:0:
480,108,33613,2,0,P|420:116|372:76,1,94.499997116089,8|2,0:0|0:0,0:0:0:0:
344,24,33930,2,0,P|352:70|340:115,1,94.499997116089,0|0,0:0|0:0,0:0:0:0:
280,152,34248,2,0,P|327:142|372:160,1,94.499997116089,8|2,0:0|0:0,0:0:0:0:
356,292,34565,22,0,P|308:304|260:276,1,94.499997116089,0|2,0:0|0:0,0:0:0:0:
432,332,34883,1,8,0:0:0:0:
320,224,35041,37,2,0:0:0:0:
320,224,35121,1,2,0:0:0:0:
320,224,35200,22,2,B|244:260|192:164|188:120|232:72|280:44|344:72|344:72|368:32|412:44,1,377.999988464356,2|6,0:0|0:0,0:0:0:0:
420,44,35914,5,0,0:0:0:0:
448,56,35994,1,0,0:0:0:0:
464,80,36073,1,2,0:0:0:0:
468,108,36153,1,8,0:0:0:0:
460,136,36232,1,2,0:0:0:0:
440,156,36311,1,2,0:0:0:0:
412,164,36391,1,2,0:0:0:0:
384,156,36470,1,0,0:0:0:0:
364,136,36549,1,0,0:0:0:0:
348,104,36629,1,2,0:0:0:0:
324,80,36708,1,2,0:0:0:0:
292,76,36787,1,8,0:0:0:0:
260,84,36867,1,0,0:0:0:0:
244,112,36946,21,0,0:0:0:0:
240,144,37026,1,2,0:0:0:0:
256,172,37105,1,0,0:0:0:0:
284,188,37184,1,0,0:0:0:0:
316,188,37264,1,2,0:0:0:0:
344,164,37343,1,2,0:0:0:0:
352,132,37422,1,8,0:0:0:0:
340,96,37502,1,0,0:0:0:0:
308,72,37581,1,0,0:0:0:0:
272,60,37660,1,2,0:0:0:0:
236,68,37740,21,0,0:0:0:0:
204,88,37819,1,0,0:0:0:0:
184,128,37899,1,2,0:0:0:0:
184,172,37978,1,2,0:0:0:0:
196,212,38057,1,8,0:0:0:0:
228,240,38137,1,0,0:0:0:0:
268,256,38216,1,0,0:0:0:0:
312,256,38295,1,2,0:0:0:0:
352,236,38375,37,6,0:0:0:0:
336,272,38692,1,2,0:0:0:0:
320,312,39010,1,2,0:0:0:0:
304,348,39327,37,2,0:0:0:0:
356,252,40597,38,2,B|396:208|380:148|328:92|260:128,1,204.749990627289,2|0,0:0|0:0,0:0:0:0:
208,164,40914,38,0,B|272:116|232:56|232:56|192:64|160:40,1,196.875,4|2,0:0|0:0,0:0:0:0:
104,96,41232,2,0,P|60:144|112:232,1,131.25,8|2,0:0|0:0,0:0:0:0:
92,20,41549,1,0,0:0:0:0:
185,157,41708,1,2,0:0:0:0:
42,183,41867,1,8,0:0:0:0:
142,87,42026,1,2,0:0:0:0:
104,96,42105,1,2,0:0:0:0:
65,102,42184,1,0,0:0:0:0:
240,72,42343,21,2,0:0:0:0:
304,12,42502,2,0,B|336:32|372:36|372:36|416:120|344:156,1,196.875,8|2,0:0|0:0,0:0:0:0:
300,208,42819,2,0,P|276:272|316:352,1,131.25
288,128,43137,21,8,0:0:0:0:
380,224,43295,1,2,0:0:0:0:
372,68,43454,21,0,0:0:0:0:
368,248,43613,1,2,0:0:0:0:
288,128,43772,2,0,L|124:176,1,131.25,8|0,0:0|0:0,0:0:0:0:
64,48,44089,1,0,0:0:0:0:
116,180,44248,1,2,0:0:0:0:
48,312,44406,1,8,0:0:0:0:
20,228,44565,22,0,P|72:252|156:208,1,131.25,0|2,0:0|0:0,0:0:0:0:
48,312,44883,1,0,0:0:0:0:
160,264,45042,2,0,L|180:120,2,131.25,8|2|8,0:0|0:0|0:0,0:0:0:0:
268,108,45518,1,0,0:0:0:0:
465,89,45676,6,0,P|369:79|355:184,1,204.749990627289,2|0,0:0|0:0,0:0:0:0:
368,199,45994,6,0,P|300:180|252:264,1,131.25,4|0,0:0|0:0,0:0:0:0:
200,304,46232,1,2,0:0:0:0:
199,303,46311,2,0,P|211:230|128:184,1,131.25,8|0,0:0|0:0,0:0:0:0:
112,332,46629,2,0,L|252:328,2,131.25,0|2|8,0:0|0:0|0:0,0:0:0:0:
40,288,47105,1,2,0:0:0:0:
160,192,47264,22,0,L|328:192,1,131.25
380,224,47502,1,0,0:0:0:0:
380,224,47581,2,0,P|392:260|376:292,2,65.625,8|2|0,0:0|0:0|0:0,0:0:0:0:
268,304,47899,2,0,L|408:304,1,131.25
204,248,48216,21,8,0:0:0:0:
186,330,48375,1,2,0:0:0:0:
428,140,48533,21,0,0:0:0:0:
472,224,48692,1,0,0:0:0:0:
435,309,48851,2,0,B|380:316|332:336|332:336|304:332,2,131.25,8|2|0,0:0|0:0|0:0,0:0:0:0:
212,272,49327,2,0,B|272:268|316:244|316:244|360:260,1,131.25,0|8,0:0|0:0,0:0:0:0:
152,328,49645,21,2,0:0:0:0:
26,291,49803,1,0,0:0:0:0:
136,249,49962,1,2,0:0:0:0:
49,217,50121,1,8,0:0:0:0:
115,175,50279,1,0,0:0:0:0:
44,140,50438,1,8,0:0:0:0:
44,140,50518,1,2,0:0:0:0:
44,140,50597,1,0,0:0:0:0:
49,217,50756,38,0,P|120:139|36:65,1,204.749990627289,2|0,0:0|0:0,0:0:0:0:
48,56,51073,38,0,P|124:75|196:31,1,125.999996154785,4|2,0:0|0:0,0:0:0:0:
284,76,51311,1,2,0:0:0:0:
284,76,51391,2,0,P|348:52|408:84,1,125.999996154785,8|0,0:0|0:0,0:0:0:0:
416,148,51708,1,0,0:0:0:0:
492,116,51867,1,0,0:0:0:0:
492,116,51946,1,0,0:0:0:0:
492,116,52026,2,0,B|512:172|476:208|476:208|496:228|504:276,2,125.999996154785,8|2|0,0:0|0:0|0:0,0:0:0:0:
504,32,52502,1,0,0:0:0:0:
428,60,52660,1,8,0:0:0:0:
420,276,52819,2,0,P|368:280|312:200,1,125.999996154785,0|2,0:0|0:0,0:0:0:0:
396,192,53137,21,0,0:0:0:0:
484,212,53295,1,8,0:0:0:0:
352,104,53454,1,0,0:0:0:0:
276,168,53613,6,0,P|244:244|320:224,1,188.999994232178
288,212,53930,6,0,L|260:376,1,125.999996154785,8|2,0:0|0:0,0:0:0:0:
364,312,54248,2,0,L|388:164,1,125.999996154785,0|2,0:0|0:0,0:0:0:0:
360,340,54565,5,8,0:0:0:0:
472,288,54724,5,2,0:0:0:0:
472,288,54803,1,2,0:0:0:0:
472,288,54883,1,10,0:0:0:0:
392,268,55041,1,2,0:0:0:0:
448,208,55200,1,8,0:0:0:0:
288,208,55359,1,2,0:0:0:0:
312,128,55518,2,0,P|272:160|192:128,1,125.999996154785,8|2,0:0|0:0,0:0:0:0:
144,68,55835,38,2,P|184:212|116:264,1,204.749990627289,2|0,0:0|0:0,0:0:0:0:
64,284,56153,38,0,P|60:220|100:168,1,125.999996154785,4|2,0:0|0:0,0:0:0:0:
176,136,56391,1,2,0:0:0:0:
192,128,56470,2,0,P|120:128|80:60,1,125.999996154785,8|0,0:0|0:0,0:0:0:0:
276,84,56787,2,0,P|344:64|408:140,1,125.999996154785,0|2,0:0|0:0,0:0:0:0:
336,240,57105,1,8,0:0:0:0:
388,88,57264,1,2,0:0:0:0:
448,156,57422,2,0,P|352:164|308:124,2,125.999996154785,0|0|8,0:0|0:0|0:0,0:0:0:0:
304,128,57899,1,0,0:0:0:0:
152,88,58057,1,0,0:0:0:0:
288,48,58216,21,0,0:0:0:0:
288,48,58295,1,2,0:0:0:0:
288,48,58375,2,0,P|224:124|264:196,1,188.999994232178,8|2,0:0|0:0,0:0:0:0:
280,208,58692,2,0,P|208:200|160:252,1,125.999996154785,0|2,0:0|0:0,0:0:0:0:
188,336,59010,2,0,P|276:336|312:284,1,125.999996154785,8|2,0:0|0:0,0:0:0:0:
372,264,59327,1,0,0:0:0:0:
368,352,59486,1,0,0:0:0:0:
344,168,59645,1,8,0:0:0:0:
136,112,59803,6,0,B|188:116|240:100|240:100|284:116|284:116|316:84|372:76|424:128,1,251.999992309571
200,212,60279,21,8,0:0:0:0:
372,264,60438,5,2,0:0:0:0:
372,264,60518,1,2,0:0:0:0:
372,264,60597,2,2,P|376:224|392:192,1,62.9999980773926,0|0,0:0|0:0,0:0:0:0:
412,124,60756,2,0,P|428:96|424:40,1,62.9999980773926,0|2,0:0|0:0,0:0:0:0:
344,56,60914,1,0,0:0:0:0:
320,52,60994,1,2,0:0:0:0:
296,48,61073,1,0,0:0:0:0:
272,44,61153,1,2,0:0:0:0:
244,40,61232,22,0,P|180:64|108:28,1,131.25,8|0,0:0|0:0,0:0:0:0:
168,180,61549,2,0,P|76:160|40:96,1,131.25,0|0,0:0|0:0,0:0:0:0:
276,164,61867,2,0,P|348:144|408:168,2,131.25,8|2|0,0:0|0:0|0:0,0:0:0:0:
244,244,62343,21,2,0:0:0:0:
196,172,62502,1,2,0:0:0:0:
368,48,62660,1,0,0:0:0:0:
340,128,62819,1,8,0:0:0:0:
427,231,62978,2,0,B|324:248|324:248|312:264|292:268,1,131.25,2|8,0:0|0:0,0:0:0:0:
252,168,63295,1,0,0:0:0:0:
252,56,63454,2,0,L|252:144,2,65.625,8|0|2,0:0|0:0|0:0,0:0:0:0:
160,132,63772,21,0,0:0:0:0:
128,56,63930,1,0,0:0:0:0:
76,184,64089,2,0,P|104:260|64:328,1,131.25,8|0,0:0|0:0,0:0:0:0:
24,252,64406,2,0,B|76:268|132:256|132:256|147:272|176:288,1,131.25,0|2,0:0|0:0,0:0:0:0:
244,256,64645,1,0,0:0:0:0:
236,288,64724,2,0,P|324:272|376:296,1,131.25,8|0,0:0|0:0,0:0:0:0:
444,332,65041,21,0,0:0:0:0:
368,372,65200,1,2,0:0:0:0:
376,200,65359,1,8,0:0:0:0:
444,248,65518,1,0,0:0:0:0:
296,320,65676,1,0,0:0:0:0:
300,240,65835,1,2,0:0:0:0:
300,240,65914,1,2,0:0:0:0:
300,240,65994,1,8,0:0:0:0:
280,68,66153,37,0,0:0:0:0:
280,68,66311,38,0,P|200:88|164:12,1,131.25
228,16,66629,2,0,B|212:68|212:112|212:112|168:172,1,131.25,8|0,0:0|0:0,0:0:0:0:
108,208,66946,2,2,B|120:164|120:116|120:116|152:68,1,131.25
72,48,67264,1,8,0:0:0:0:
140,280,67422,2,0,B|112:224|48:224|48:224|24:240|-8:220,2,131.25,0|2|0,0:0|0:0|0:0,0:0:0:0:
53,315,67899,1,8,0:0:0:0:
81,143,68057,1,2,0:0:0:0:
205,255,68216,1,8,0:0:0:0:
229,91,68375,1,0,0:0:0:0:
353,187,68533,1,8,0:0:0:0:
288,332,68692,6,2,P|292:308|264:256,1,65.625
272,256,68851,6,0,P|252:188|300:100,1,131.25
440,176,69168,1,8,0:0:0:0:
268,132,69327,1,2,0:0:0:0:
432,104,69486,2,0,B|464:184|464:184|452:252,2,131.25,0|0|8,0:0|0:0|0:0,0:0:0:0:
424,24,69962,1,2,0:0:0:0:
360,148,70121,2,2,P|304:200|192:152,1,196.875
188,88,70438,2,0,B|188:104|192:120|192:120|158:224,1,131.25,8|0,0:0|0:0,0:0:0:0:
104,280,70756,37,2,0:0:0:0:
104,280,70835,1,2,0:0:0:0:
104,280,70914,2,8,P|144:300|188:288,1,65.625
244,276,71073,2,8,P|268:260|296:204,1,65.625
324,160,71232,2,8,P|328:128|296:88,1,65.625
380,112,71391,38,0,B|372:152|324:164|324:164|280:232|364:300,1,196.875,4|2,0:0|0:0,0:0:0:0:
308,88,71708,1,8,0:0:0:0:
448,48,71867,2,0,P|472:120|432:188,1,131.25,0|2,0:0|0:0,0:0:0:0:
324,104,72184,2,0,P|261:99|232:24,1,131.25,0|8,0:0|0:0,0:0:0:0:
304,28,72502,22,0,B|288:92|262:135|262:135|264:192,1,131.25,0|2,0:0|0:0,0:0:0:0:
184,176,72819,1,0,0:0:0:0:
240,232,72978,1,8,0:0:0:0:
384,56,73137,1,0,0:0:0:0:
340,176,73295,1,0,0:0:0:0:
340,176,73375,1,0,0:0:0:0:
340,176,73454,2,0,B|336:200|324:212|324:212|332:256|332:312,2,131.25,0|8|2,0:0|0:0|0:0,0:0:0:0:
384,104,73930,22,2,B|400:68|400:68|376:88|348:88|348:88|284:124|236:36,1,196.875
200,128,74248,2,0,P|140:100|56:152,1,131.25,8|2,0:0|0:0,0:0:0:0:
131,192,74565,1,0,0:0:0:0:
200,256,74724,1,0,0:0:0:0:
60,128,74883,1,8,0:0:0:0:
236,68,75041,37,2,0:0:0:0:
236,68,75121,1,2,0:0:0:0:
236,68,75200,38,0,P|300:88|364:40,1,131.25,0|2,0:0|0:0,0:0:0:0:
440,256,75518,2,0,P|392:208|288:224,1,131.25,8|2,0:0|0:0,0:0:0:0:
271,61,75835,2,2,P|288:108|284:144,1,65.625
220,252,75994,2,0,P|224:216|236:188,1,65.625,2|0,0:0|0:0,0:0:0:0:
192,116,76153,2,0,P|136:124|80:48,1,131.25,8|0,0:0|0:0,0:0:0:0:
156,44,76470,21,4,0:0:0:0:
132,200,76629,1,2,0:0:0:0:
280,140,76787,1,8,0:0:0:0:
404,40,76946,1,0,0:0:0:0:
356,104,77105,2,2,B|348:132|332:148|332:148|376:172|392:268|312:300,1,196.875
348,276,77422,37,8,0:0:0:0:
284,220,77581,21,8,0:0:0:0:
284,220,77660,1,0,0:0:0:0:
284,220,77740,1,4,0:0:0:0:
428,312,79010,6,0,P|372:264|272:296,1,173.250005287171,4|2,0:0|0:0,0:0:0:0:
264,300,79327,2,0,P|288:234|256:172,1,115.50000352478,8|0,0:0|0:0,0:0:0:0:
152,212,79645,1,0,0:0:0:0:
276,192,79803,1,2,0:0:0:0:
196,68,79962,1,8,0:0:0:0:
196,68,80121,22,0,B|204:124|204:124|152:76|92:112,1,157.5,0|2,0:0|0:0,0:0:0:0:
76,116,80438,2,0,L|68:224,1,94.499997116089,0|8,0:0|0:0,0:0:0:0:
64,32,80756,1,0,0:0:0:0:
156,168,80914,1,0,0:0:0:0:
140,64,81073,1,2,0:0:0:0:
236,236,81232,1,8,0:0:0:0:
216,88,81391,1,2,0:0:0:0:
216,88,81549,22,0,P|308:108|360:40,1,157.5,4|2,0:0|0:0,0:0:0:0:
376,44,81867,2,0,L|348:192,1,115.50000352478,8|0,0:0|0:0,0:0:0:0:
272,204,82184,1,0,0:0:0:0:
352,252,82343,1,2,0:0:0:0:
272,72,82502,1,8,0:0:0:0:
180,96,82660,1,2,0:0:0:0:
180,96,82740,1,2,0:0:0:0:
180,96,82819,22,0,P|152:104|112:84,3,52.5
104,92,83137,2,0,P|48:112|24:176,1,105,8|8,0:0|0:0,0:0:0:0:
112,184,83454,1,0,0:0:0:0:
184,224,83613,1,2,0:0:0:0:
256,264,83772,2,0,B|296:288|296:288|312:248|360:232|380:240|404:264,1,157.5,8|2,0:0|0:0,0:0:0:0:
388,252,84089,21,8,0:0:0:0:
368,324,84248,1,0,0:0:0:0:
340,184,84406,1,8,0:0:0:0:
304,272,84565,1,0,0:0:0:0:
296,112,84724,1,0,0:0:0:0:
228,248,84883,1,2,0:0:0:0:
256,44,85041,1,8,0:0:0:0:
340,184,85200,21,2,0:0:0:0:
340,184,85279,1,2,0:0:0:0:
340,184,85359,2,0,P|396:204|456:168,2,105,0|2|8,0:0|0:0|0:0,0:0:0:0:
392,120,85835,1,0,0:0:0:0:
392,120,85994,1,0,0:0:0:0:
392,264,86311,37,8,0:0:0:0:
392,264,86629,37,2,0:0:0:0:
392,264,86708,1,2,0:0:0:0:
392,264,86787,1,2,0:0:0:0:
264,212,86946,2,0,L|388:260,1,105,8|0,0:0|0:0,0:0:0:0:
256,120,87264,2,0,L|364:160,1,105,0|2,0:0|0:0,0:0:0:0:
180,72,87581,37,8,0:0:0:0:
196,252,87740,1,4,0:0:0:0:
256,192,87899,12,0,89168,0:0:0:0:
