osu file format v6

[General]
AudioFilename: 08 Fly Me To The Moon (Infinity Climax Mix).mp3
AudioLeadIn: 1511
PreviewTime: 14057
Countdown: 1
SampleSet: Normal
StackLeniency: 0.7
Mode: 0
LetterboxInBreaks: 1

[Editor]
Bookmarks: 14075,41311,61295,68441,82165,109508,143446
DistanceSpacing: 0.800000011920929
BeatDivisor: 4
GridSize: 8

[Metadata]
Title:Fly Me To The Moon (Infinity Climax Mix)
Artist:Helena Noguerra
Creator:ztrot
Version:Normal
Source:Bayonetta
Tags:sexy witch JarJarJacob Larto m980

[Difficulty]
HPDrainRate:4
CircleSize:3
OverallDifficulty:6
SliderMultiplier:1.8
SliderTickRate:0.5

[Events]
//Background and Video events
0,0,"BG.jpg"
//Break Periods
2,68713,81080
//Storyboard Layer 0 (Background)
//Storyboard Layer 1 (Fail)
//Storyboard Layer 2 (Pass)
//Storyboard Layer 3 (Foreground)
//Storyboard Sound Samples
//Background Colour Transformations
3,100,163,162,255

[TimingPoints]
428,425.531914893617,4,1,0,100,1,0

[Colours]
Combo1 : 94,92,105
Combo2 : 130,0,0
Combo3 : 3,3,154
Combo4 : 176,88,0

[HitObjects]
448,40,428,2,0,B|448:136|360:136,2,135
376,64,1279,2,0,B|336:40|280:64|256:112|288:136,1,135
128,216,2130,6,0,B|40:216|40:112,2,135
200,216,2981,2,0,B|320:216|320:344,1,180
464,224,3832,6,0,B|408:184|488:152|432:88,2,135
392,240,4683,2,0,B|392:328|312:328,1,135
208,328,5321,1,0
96,192,5747,5,8
96,120,5959,2,0,B|160:40|272:56,2,180,8|0|8
312,344,7236,6,0,B|376:272|376:176|376:72|256:72|144:72|144:176|144:272|256:272,1,540,0|0
312,40,8938,6,0,B|376:112|376:208|376:312|256:312|144:312|144:208|144:112|256:112,1,540,0|0
392,336,10640,6,0,B|488:328|440:232,2,135
320,312,11491,2,0,B|264:240|352:208,2,135
192,320,12342,5,0
192,320,12555,1,0
192,320,12768,1,8
192,216,13087,1,8
192,144,13300,2,0,B|240:144|248:104|280:184|328:136,1,135,8|8
464,144,14045,6,0,B|416:368|176:288,1,360,0|2
256,160,15321,1,8
256,160,15534,2,0,B|112:96|-16:160,1,270,0|8
80,272,16598,6,8,B|224:320,1,135
320,336,17236,1,0
320,336,17449,2,0,B|400:272|368:144,1,180,4|8
368,32,18300,2,2,B|224:0|96:64,1,270,2|2
256,208,19576,5,8
184,336,20002,1,8
328,336,20427,1,8
400,208,20853,6,0,B|256:0|112:208,1,360,4|2
256,256,22130,1,8
256,256,22342,2,0,B|256:-32,1,270,0|8
184,112,23406,2,0,B|360:112,1,135,2|8
416,288,24257,6,0,B|320:240|240:288,1,180,4|8
256,144,25108,2,0,B|160:192|80:144,1,180,2|8
83,146,25747,1,0
256,288,26385,5,8
184,160,26810,1,8
328,160,27236,1,8
304,32,27662,6,0,B|176:32,1,90,4|0
144,176,28300,2,2,B|256:304|384:176,1,270,2|8
256,96,29364,2,0,B|256:304,1,180,0|8
256,352,30002,5,0
336,144,30640,1,8
176,144,31066,2,0,B|176:336|336:344|336:136,2,360,4|2|2
256,16,33193,1,8
256,16,33406,1,2
384,192,34045,5,8
256,240,34470,2,0,B|256:128,1,90,4|0
368,64,35108,2,2,B|368:-8|144:-16|144:64,1,270,2|8
256,160,36172,1,2
448,64,36810,6,0,B|536:176|448:320,1,270,0|8
368,192,37874,2,0,B|256:192,2,90,4|2|8
144,192,38725,2,2,B|144:352|368:344|368:192,1,360,2|4
256,112,40002,5,8
256,112,40215,1,8
256,112,40427,1,8
256,112,40640,1,8
56,328,41279,5,0
96,192,41704,1,8
240,224,42130,2,0,B|304:304|416:272,1,180,0|8
400,276,42768,1,0
400,64,43406,1,8
256,56,43832,5,0
112,56,44257,1,8
56,192,44683,2,0,B|72:296|152:352|256:360|360:328,2,360,4|4|4
200,224,46810,1,8
200,80,47236,1,0
272,80,47449,1,0
344,80,47662,1,8
432,192,48087,5,0
352,312,48513,2,0,B|232:360|80:288,1,270,8|0
90,292,49364,1,8
352,144,50215,6,8,B|232:191|90:124,1,225,8|0
90,124,51066,1,8
208,48,51491,5,0
352,48,51917,1,8
432,168,52342,1,0
352,288,52768,1,8
208,288,53193,5,0
208,288,53619,2,8,B|64:288|64:80,1,270,8|0
64,96,54470,1,8
208,96,54896,1,0
208,96,55108,1,4
256,208,55534,12,0,56598
440,336,57023,5,8
440,192,57449,1,0
384,232,57662,1,0
328,272,57874,1,8
256,144,58300,2,0,B|256:16|256:16|104:24|72:160,2,360
464,40,61279,5,0
464,184,61704,1,4
360,288,62130,1,4
464,184,62555,1,4
360,288,62981,1,4
464,184,63406,1,4
256,176,64257,5,0
256,176,64683,1,0
256,176,65108,2,0,B|328:112|352:136|368:176|368:224|360:272|312:312|264:328|200:320|152:288|136:224|136:152|152:96|184:56|256:32|320:32|376:64,1,720
440,192,67236,1,8
400,328,67662,1,0
256,256,68087,1,8
112,328,68513,1,4
136,64,82130,6,2,B|24:120|104:288|232:208,1,270
168,144,82981,2,4,B|264:112|370:152,2,180,4|8|0
375,318,84470,5,0
375,318,84683,2,0,B|479:262|438:128,1,180,2|8
426,86,85321,2,2,B|354:38|250:38|250:38|154:38|56:100,1,360
136,144,86385,2,0,B|304:144,2,135,2|0|2
80,216,87236,5,4
200,288,87662,1,8
312,216,88087,1,4
432,288,88513,1,8
495,181,88938,6,0,B|504:90|414:5|308:23,1,270,4|0
342,95,89789,2,2,B|422:103|454:174|426:242|357:267|312:239,1,270
347,174,90640,2,4,B|159:174,3,180,4|12|4|12
40,280,92342,6,2,B|-16:224|104:168|24:104,1,180
32,40,92981,1,0
120,80,93193,2,6,B|192:184|144:264|61:257|136:352|160:368,1,270
318,347,94257,6,2,B|462:307|497:133|420:43,1,360,2|0
354,87,95321,1,2
354,87,95747,2,2,B|424:176|376:336|208:320|96:288|96:120|184:64,1,540,6|10
256,168,97449,1,4
71,250,98087,6,2,B|104:304|141:380|297:391|368:368|442:281|448:216,1,450,2|6
256,208,99257,12,4,100853
158,87,102130,5,2
158,87,102555,2,2,B|88:176|136:336|304:320|416:288|416:120|328:64,1,540,6|10
256,168,104257,1,4
441,250,104896,6,2,B|408:304|371:380|215:391|144:368|70:281|64:216,1,450,2|6
256,208,106066,12,4,107662
256,208,107768,12,14,108938
256,0,109364,5,4
40,32,110002,1,0
88,96,110215,1,0
40,160,110427,2,2,B|64:224|136:256|224:216,1,180
472,88,111704,1,0
424,152,111917,1,0
376,88,112130,2,4,B|312:72|256:112|256:200,1,180
176,320,113193,5,0
336,360,113619,1,4
336,360,113832,1,0
336,224,114257,5,4
176,184,114683,1,4
336,144,115108,1,6
176,104,115534,1,6
336,64,115959,1,0
336,64,116172,1,6
400,16,116385,6,0,B|472:32|512:72|512:160,1,180
488,216,117023,1,0
432,152,117236,2,4,B|383:212|319:84|270:154,1,180
352,288,118087,2,2,B|303:348|239:220|190:290,2,180
480,176,119576,6,0,B|472:64|384:8|264:24,1,270,4|0
216,21,120427,2,0,B|128:19|40:64|31:181,1,270,4|0
112,184,121279,1,8
256,136,121704,1,8
400,184,122130,1,8
320,272,122555,5,0
432,360,122981,1,4
512,360,123193,1,0
472,224,123619,2,0,B|472:16|256:-32|136:80,1,450,0|4
256,104,125534,5,4
256,240,125959,1,8
216,368,126385,2,4,B|127:349|67:302|16:216|-6:65|97:-37|248:-96|384:-48|488:16|512:176|505:295|384:362|304:372|276:368,1,1080
192,112,129364,5,0
80,24,129789,1,4
0,24,130002,1,0
40,160,130427,2,2,B|40:368|256:416|376:304,1,450
0,192,132342,5,0
96,320,132768,1,8
256,368,133193,2,4,B|427:177|427:177|496:96|424:-24|312:0|288:48|288:48|273:64|256:92|238:63|224:48|224:48|200:0|88:-16|16:80|84:178|84:178|206:315,1,1080
0,344,136598,5,4
256,192,137449,1,4
512,344,138300,1,4
256,208,140002,12,0,143406
