osu file format v5

[General]
AudioFilename: 12 - Helena - Spanish Affairs.mp3
AudioLeadIn: 0
PreviewTime: -1
Countdown: 1
SampleSet: Soft
StackLeniency: 0.7
Mode: 0
LetterboxInBreaks: 1

[Metadata]
Title:Spanish Affairs
Artist:Helena
Creator:Cosmic_Bard
Version:Normal] [Reckless Affair
Source:
Tags:

[Difficulty]
HPDrainRate:5
CircleSize:5
OverallDifficulty:4
SliderMultiplier:1.5
SliderTickRate:2

[Events]
//Background and Video events
0,0,"AVCD-10183_t_01_400.jpg"
//Break Periods
2,24999,28879
2,57799,60479
2,76998,81879
//Storyboard Layer 0 (Background)
//Storyboard Layer 1 (Failing)
//Storyboard Layer 2 (Passing)
//Storyboard Layer 3 (Foreground)
//Storyboard Sound Samples
//Background Colour Transformations
3,100,163,162,255

[TimingPoints]
0,399.997586042208,4,2,0,100

[HitObjects]
128,96,12799,1,0
160,128,12999,1,0
128,160,13199,1,0
352,224,13799,1,0
320,256,13999,1,0
352,288,14199,1,0
32,192,14999,6,2,B|32:288|128:320|384:320,1,375
192,128,16999,5,0
320,128,17332,1,0
256,192,17599,2,0,B|256:224|224:256|192:256|160:256|128:224|128:128,1,225
96,64,19199,5,0
160,96,19399,1,0
96,128,19599,1,0
160,160,19799,1,0
288,224,20199,1,0
352,256,20399,1,0
288,288,20599,1,0
352,320,20799,1,0
256,64,21399,5,0
224,128,21599,1,0
288,128,21799,1,0
224,192,21999,1,0
288,192,22199,1,0
256,256,22399,2,0,B|256:352,2,75
256,192,23799,12,4,24799
128,96,30199,5,0
192,96,30399,1,0
224,160,30799,1,0
288,160,30999,1,0
352,224,31399,2,0,B|384:192|295:173|267:162|448:128,1,150
160,96,33199,5,0
224,160,33599,1,0
288,224,33999,1,0
288,224,34199,1,0
288,224,34599,2,2,B|512:224|416:0|0:64|0:160|96:320|192:352|295:351|380:285|256:192,1,750
352,160,37599,5,0
320,160,37999,1,0
288,160,38399,1,0
256,224,38799,1,0
256,224,38999,1,0
256,224,39399,2,0,L|416:224|416:96|224:96,1,450
128,96,41599,5,0
192,160,41999,1,0
192,160,42199,1,0
256,224,42599,1,0
320,288,42999,2,0,B|96:64,1,300
480,192,44799,6,2,B|480:128|480:64|469:21|384:0|288:128|243:195|192:288|69:325|32:352|55:224|55:183|0:128|0:64|64:0|96:0|192:64|252:76|309:421|512:160,1,1200
256,192,49599,12,0,50399
160,96,51199,2,0,B|256:0|288:0|352:64,1,225
352,160,52199,1,0
352,256,52599,1,4
288,256,53399,2,0,B|256:256|224:256|192:256,1,75
192,96,53999,5,0
256,64,54199,1,0
320,96,54399,2,0,B|192:288,1,225
256,320,55599,1,0
320,288,55999,2,0,B|441:211|160:110|352:64,1,225
288,96,57199,1,0
224,96,57599,1,0
256,192,61799,12,0,63399
160,96,63999,2,0,B|256:0|288:0|352:64,1,225
352,160,64999,1,0
352,256,65399,1,4
288,256,66199,2,0,B|256:256|224:256|192:256,1,75
320,96,66799,5,0
256,64,66999,1,0
192,96,67199,2,0,B|320:288,1,225
256,320,68399,1,0
192,288,68799,2,0,B|67:195|297:169|160:64,1,225
192,96,69999,1,0
256,96,70399,1,0
96,64,71999,6,0,B|192:64,1,75
256,64,72599,1,0
320,64,72999,1,0
320,128,73399,1,0
256,128,73799,1,0
256,192,74199,1,0
320,192,74599,1,0
320,256,74999,2,0,B|225:289|159:257|160:128,1,225
160,96,75999,2,6,B|277:112|253:172|273:214|40:148|158:274|256:256,1,300
384,64,83199,5,0
320,96,83399,1,0
384,128,83599,1,0
320,160,83799,1,0
192,224,84199,1,0
128,256,84399,1,0
192,288,84599,1,0
128,320,84799,1,0
256,320,85399,5,0
288,256,85599,1,0
224,256,85799,1,0
288,192,85999,1,0
224,192,86199,1,0
256,128,86399,2,0,B|256:32,2,75
256,192,87599,12,4,88799
