osu file format v14

[General]
AudioFilename: Helblinde - When Time Sleeps.mp3
AudioLeadIn: 0
PreviewTime: 56525
Countdown: 0
SampleSet: Soft
StackLeniency: 0.2
Mode: 0
LetterboxInBreaks: 0
WidescreenStoryboard: 1

[Editor]
Bookmarks: 82045,132849,154025
DistanceSpacing: 1.2
BeatDivisor: 4
GridSize: 4
TimelineZoom: 1

[Metadata]
Title:When Time Sleeps
TitleUnicode:When Time Sleeps
Artist:Helblinde
ArtistUnicode:Helblinde
Creator:Pappy
Version:Hard
Source:
Tags:
BeatmapID:1333152
BeatmapSetID:631365

[Difficulty]
HPDrainRate:5
CircleSize:4
OverallDifficulty:6
ApproachRate:7
SliderMultiplier:1.4
SliderTickRate:1

[Events]
//Background and Video events
0,0,"3.jpg",0,0
//Break Periods
2,22932,33126
2,132849,153125
//Storyboard Layer 0 (Background)
//Storyboard Layer 1 (Fail)
//Storyboard Layer 2 (Pass)
//Storyboard Layer 3 (Foreground)
//Storyboard Sound Samples

[TimingPoints]
163,705.882352941176,4,2,1,60,1,0
163,-133.333333333333,4,2,1,60,0,0
19909,705.882352941176,4,2,1,60,1,0
19909,-133.333333333333,4,2,1,60,0,0
20614,-133.333333333333,4,2,1,45,0,0
21320,-133.333333333333,4,2,1,30,0,0
34026,352.941176470588,4,2,1,80,1,0
36849,-200,4,2,1,80,0,0
38790,-133.333333333333,4,2,1,80,0,0
39673,-100,4,2,1,80,0,0
42849,-200,4,2,1,80,0,0
43908,-133.333333333333,4,2,1,80,0,0
45320,-100,4,2,1,80,0,0
56614,-100,4,2,1,80,0,1
62261,-100,4,2,1,80,0,1
73202,-100,4,2,1,80,0,1
80614,-200,4,2,1,80,0,1
82025,-200,4,2,1,80,0,0
158261,-100,4,2,1,80,0,1
179437,-200,4,2,1,80,0,0
180849,-100,4,2,1,80,0,1
200614,-200,4,2,1,80,0,0

[Colours]
Combo1 : 216,216,194
Combo2 : 142,194,133
Combo3 : 243,193,101
Combo4 : 174,206,213
SliderBorder : 191,224,159
SliderTrackOverride : 140,224,140

[HitObjects]
56,100,163,5,0,0:0:0:0:
120,56,515,1,0,0:0:0:0:
196,80,868,2,0,P|299:85|395:44,1,210.000008010865
395,44,2986,5,0,0:0:0:0:
376,120,3339,1,0,0:0:0:0:
356,196,3692,2,0,B|348:284|384:364|384:364|357:334,1,210.000008010865
358,336,5810,5,0,0:0:0:0:
428,296,6162,1,0,0:0:0:0:
358,256,6515,2,0,B|252:236|256:280|149:256,1,210.000008010865
149,256,8633,5,0,0:0:0:0:
104,192,8986,1,0,0:0:0:0:
149,256,9339,2,0,B|256:280|252:236|358:256,1,210.000008010865
357,255,11457,5,0,0:0:0:0:
404,192,11810,1,0,0:0:0:0:
451,129,12162,1,0,0:0:0:0:
451,129,12868,2,0,P|401:113|353:132,1,105.000004005432
304,192,13927,1,0,0:0:0:0:
276,120,14280,6,0,L|282:67,2,52.5000020027161
156,224,15692,1,0,0:0:0:0:
156,224,16398,2,0,L|153:250,3,26.2500010013581
148,288,17104,5,0,0:0:0:0:
148,288,17457,2,0,P|173:292|199:288,1,52.5000020027161
256,232,18162,1,0,0:0:0:0:
255,232,18515,2,0,P|307:224|359:232,1,105.000004005432
428,272,19574,1,0,0:0:0:0:
256,192,19909,12,0,22732,0:0:0:0:
56,160,34026,6,0,L|195:148,1,140
268,104,34555,1,0,0:0:0:0:
268,104,34731,2,0,P|224:156|231:224,1,140
305,182,35261,1,0,0:0:0:0:
305,182,35437,6,0,P|348:129|341:61,1,140
269,20,35967,1,0,0:0:0:0:
200,64,36143,2,0,B|153:59|153:59|107:68|107:68|61:64,1,140
61,64,36849,6,0,B|88:184|88:184|76:240|76:240|112:272|112:272|125:321,1,280
125,321,38614,1,0,0:0:0:0:
125,321,38702,1,0,0:0:0:0:
125,321,38790,2,0,L|121:347,2,26.2500010013581
176,204,39320,1,0,0:0:0:0:
176,204,39673,6,0,L|245:211,1,70
300,148,40026,2,0,L|369:140,1,70
228,104,40378,2,0,P|161:118|102:83,1,140
36,32,40908,1,0,0:0:0:0:
36,32,41084,6,0,L|76:165,1,140
152,204,41614,1,0,0:0:0:0:
152,203,41790,2,0,P|219:183|288:186,1,140
444,252,42496,5,0,0:0:0:0:
444,252,42849,1,0,0:0:0:0:
444,252,43908,2,0,B|420:368|420:368|399:334,2,157.500006008148
464,176,45143,1,0,0:0:0:0:
440,96,45320,6,0,B|392:88|392:88|352:112|303:101,1,140
192,228,46025,2,0,B|240:220|240:220|280:244|328:233,1,140
404,192,46555,1,0,0:0:0:0:
404,192,46731,6,0,L|341:317,1,140
256,332,47261,1,0,0:0:0:0:
170,317,47437,2,0,P|136:322|104:337,1,70
40,284,47790,1,0,0:0:0:0:
40,284,48143,6,0,B|20:216|56:216|40:145,1,140
56,64,48673,1,0,0:0:0:0:
119,118,48849,2,0,P|189:114|256:95,1,140
256,95,49555,6,0,L|325:85,1,70
449,138,49908,2,0,L|380:148,1,70
246,92,50261,2,0,L|322:82,1,70
459,140,50614,2,0,L|382:151,1,70
267,245,50967,5,0,0:0:0:0:
267,245,52378,1,0,0:0:0:0:
100,268,52731,1,0,0:0:0:0:
100,268,52820,1,0,0:0:0:0:
100,268,52908,2,0,L|65:272,2,35
163,111,53437,1,0,0:0:0:0:
162,111,53790,6,0,P|188:87|221:76,1,70
268,8,54143,2,0,P|291:33|302:66,1,70
371,113,54496,2,0,P|345:136|312:147,1,70
265,216,54849,2,0,P|241:190|230:157,1,70
163,111,55202,6,0,P|175:229|60:200,1,280
60,200,56614,5,0,0:0:0:0:
60,283,56790,1,0,0:0:0:0:
140,310,56966,1,0,0:0:0:0:
189,242,57143,1,0,0:0:0:0:
140,173,57320,2,0,P|206:159|260:200,1,140
312,136,57849,1,0,0:0:0:0:
312,136,58025,6,0,P|378:150|432:109,1,140
360,68,58555,1,0,0:0:0:0:
360,68,58731,2,0,L|499:60,1,140
499,60,59437,6,0,L|484:128,1,70
428,192,59790,1,0,0:0:0:0:
428,192,59967,2,0,P|429:259|479:308,1,140
408,356,60496,2,0,B|372:356|372:356|339:345,1,70
264,308,60849,5,0,0:0:0:0:
264,308,61908,1,0,0:0:0:0:
256,224,62084,1,0,0:0:0:0:
264,307,62261,6,0,P|231:321|196:323,1,70
124,284,62614,2,0,P|89:286|56:299,1,70
12,372,62967,2,0,L|11:232,1,140
28,148,63496,1,0,0:0:0:0:
111,163,63673,6,0,P|146:162|180:151,1,70
255,116,64025,2,0,P|324:109|383:145,2,140
172,104,64908,1,0,0:0:0:0:
112,164,65084,6,0,L|100:240,1,70
28,188,65437,2,0,L|49:49,1,140
132,28,65967,1,0,0:0:0:0:
171,103,66143,2,0,P|206:107|241:101,1,70
316,60,66496,6,0,P|385:52|454:64,1,140
466,74,67025,1,0,0:0:0:0:
476,84,67202,2,0,L|460:160,1,70
402,260,67555,2,0,L|388:192,1,70
440,336,67908,6,0,B|372:352|372:320|301:335,1,140
256,264,68437,1,0,0:0:0:0:
141,342,68614,2,0,P|176:345|210:335,1,70
72,300,68967,2,0,P|37:297|3:307,1,70
144,260,69320,6,0,B|136:214|136:214|145:169|145:169|137:119,1,140
56,100,69849,2,0,L|66:169,1,70
215,212,70202,1,0,0:0:0:0:
215,212,70378,1,0,0:0:0:0:
350,191,70731,6,0,P|285:216|215:212,1,140
339,106,71261,1,0,0:0:0:0:
418,140,71437,1,0,0:0:0:0:
428,224,71614,2,0,L|438:293,1,70
356,276,71967,1,0,0:0:0:0:
256,336,72143,5,0,0:0:0:0:
256,336,73202,1,0,0:0:0:0:
356,276,73378,1,0,0:0:0:0:
256,336,73555,6,0,B|184:336|184:336|120:311,1,140
136,228,74084,1,0,0:0:0:0:
136,228,74261,2,0,L|200:254,1,70
256,192,74614,2,0,P|262:157|255:123,1,70
136,228,74967,6,0,P|123:296|136:365,1,140
375,365,75673,2,0,P|388:296|376:228,1,140
256,112,76378,6,0,L|256:42,1,70
168,100,76731,2,0,L|178:169,1,70
333,169,77084,2,0,L|344:100,1,70
132,100,77437,2,0,L|143:169,1,70
368,169,77790,6,0,L|390:30,1,140
460,76,78320,1,0,0:0:0:0:
460,76,78496,2,0,L|449:145,1,70
298,123,78849,2,0,L|308:53,1,70
460,76,79202,5,0,0:0:0:0:
298,123,79555,1,0,0:0:0:0:
345,285,79908,1,0,0:0:0:0:
507,238,80261,1,0,0:0:0:0:
298,123,80614,6,0,P|228:122|164:150,2,140
256,192,82114,12,0,86261,0:0:0:0:
68,136,87673,5,0,0:0:0:0:
444,248,89084,5,0,0:0:0:0:
192,322,89790,2,0,L|172:180,2,140
328,280,91908,6,0,P|268:223|360:187,1,210
408,192,93143,1,0,0:0:0:0:
448,156,93320,2,0,P|452:96|408:24,1,140
207,64,94731,6,0,P|158:81|106:87,2,105
256,156,96143,2,0,L|256:296,1,140
460,340,97555,1,0,0:0:0:0:
448,348,98614,2,0,L|408:336,1,35
391,327,98967,6,0,P|370:262|386:194,1,140
398,161,99849,1,0,0:0:0:0:
401,126,100026,1,0,0:0:0:0:
395,92,100202,1,0,0:0:0:0:
381,61,100378,5,0,0:0:0:0:
381,61,100555,2,0,P|328:60|272:32,1,105
268,52,103202,6,0,L|264:191,1,140
112,128,104614,2,0,L|115:267,1,140
332,300,106025,6,0,B|380:292|404:252|404:252|451:235,2,140
332,300,110261,6,0,L|262:311,1,70
192,236,110967,2,0,L|122:224,1,70
36,288,111673,2,0,P|12:216|36:160,1,140
96,76,112731,1,0,0:0:0:0:
243,119,113084,6,0,P|278:120|312:111,1,70
460,24,113790,2,0,P|425:23|391:32,1,70
312,32,114496,1,0,0:0:0:0:
391,111,114849,1,0,0:0:0:0:
312,190,115202,1,0,0:0:0:0:
233,112,115555,1,0,0:0:0:0:
416,104,115908,6,0,L|429:35,2,70
356,192,116967,1,0,0:0:0:0:
355,192,117320,2,0,P|356:261|389:321,1,140
432,352,118202,2,0,L|516:340,1,70
484,244,118731,5,0,0:0:0:0:
484,244,118908,2,0,L|449:239,1,35
448,136,119437,1,0,0:0:0:0:
355,192,119790,1,0,0:0:0:0:
352,82,120143,2,0,B|312:80|290:52|290:52|260:64|223:53,1,140
120,48,121202,1,0,0:0:0:0:
40,116,121555,6,0,L|52:256,1,140
120,336,122614,1,0,0:0:0:0:
120,336,122790,1,0,0:0:0:0:
120,336,122967,2,0,P|189:334|255:312,1,140
336,244,124025,1,0,0:0:0:0:
336,244,124201,1,0,0:0:0:0:
335,244,124378,6,0,P|370:244|404:252,1,70
504,144,125084,2,0,P|470:152|435:152,1,70
352,88,125790,1,0,0:0:0:0:
352,88,127202,5,0,0:0:0:0:
248,71,127555,1,0,0:0:0:0:
199,165,127908,1,0,0:0:0:0:
274,239,128261,1,0,0:0:0:0:
367,191,128614,1,0,0:0:0:0:
376,195,129673,1,0,0:0:0:0:
388,200,130025,5,0,0:0:0:0:
295,248,130378,1,0,0:0:0:0:
220,174,130731,1,0,0:0:0:0:
269,80,131084,1,0,0:0:0:0:
373,97,131437,5,0,0:0:0:0:
256,192,154025,5,0,0:0:0:0:
452,64,154731,2,0,L|448:133,1,70
332,284,155437,5,0,0:0:0:0:
332,284,158261,6,0,L|264:296,1,70
204,236,158614,1,0,0:0:0:0:
179,315,158790,2,0,P|184:332|193:347,2,35
204,235,159143,2,0,P|220:168|204:100,1,140
72,24,159673,6,0,P|55:91|71:159,1,140
120,228,160202,1,0,0:0:0:0:
154,305,160378,1,0,0:0:0:0:
93,363,160555,1,0,0:0:0:0:
19,320,160731,1,0,0:0:0:0:
36,237,160908,1,0,0:0:0:0:
204,238,161084,6,0,B|250:233|250:233|295:246|295:246|341:241,1,140
423,228,161614,1,0,0:0:0:0:
372,164,161791,2,0,L|302:170,1,70
453,152,162143,2,0,L|482:88,1,70
423,228,162496,6,0,L|503:342,1,140,0|0,0:0|0:0,0:0:0:0:
400,344,163025,2,0,P|367:330|333:326,1,70
252,348,163378,1,0,0:0:0:0:
252,348,163555,2,0,P|217:344|185:330,1,70
67,355,163908,6,0,P|36:294|33:224,1,140
112,192,164437,1,0,0:0:0:0:
112,192,164525,1,0,0:0:0:0:
112,192,164614,2,0,L|179:171,1,70
43,138,164967,2,0,P|32:104|32:70,1,70
170,72,165320,6,0,P|99:81|31:70,1,140
244,32,165849,1,0,0:0:0:0:
244,32,166025,2,0,L|313:38,1,70
356,112,166378,2,0,L|425:105,1,70
320,192,166731,6,0,P|324:261|348:327,1,140
432,308,167261,1,0,0:0:0:0:
432,308,167437,2,0,L|501:297,1,70
356,344,167790,2,0,L|286:333,1,70
136,314,168143,6,0,P|188:268|256:256,1,140
312,192,168673,1,0,0:0:0:0:
312,192,168849,2,0,P|363:238|431:250,1,140
280,44,169555,6,0,B|244:52|244:52|210:50,1,70
136,16,169908,1,0,0:0:0:0:
86,122,170084,1,0,0:0:0:0:
86,122,170173,1,0,0:0:0:0:
86,122,170261,2,0,B|122:114|122:114|156:116,1,70
131,195,170614,2,0,P|132:230|123:264,1,70
87,341,170967,6,0,P|155:344|202:295,1,140
256,228,171496,1,0,0:0:0:0:
309,295,171673,1,0,0:0:0:0:
256,360,171849,1,0,0:0:0:0:
202,295,172025,1,0,0:0:0:0:
424,341,172378,6,0,L|427:271,1,70
508,248,172731,2,0,L|504:178,1,70
440,123,173084,2,0,P|373:146|304:158,1,140
303,157,173790,6,0,P|318:189|327:223,1,70
236,112,174143,2,0,P|221:80|212:46,1,70
128,44,174496,2,0,B|96:76|40:80|40:80|57:118,1,140
104,192,175025,1,0,0:0:0:0:
128,340,175202,6,0,B|96:308|40:304|40:304|57:265,1,140
140,256,175731,1,0,0:0:0:0:
205,307,175908,2,0,P|274:295|328:252,1,140
416,224,176614,6,0,L|348:241,1,70
316,166,176967,1,0,0:0:0:0:
397,145,177143,2,0,P|354:91|286:88,1,140
232,154,177673,1,0,0:0:0:0:
224,174,178025,6,0,L|236:258,1,70
144,200,178378,2,0,L|156:284,1,70
64,226,178731,2,0,L|76:310,2,70
52,244,179437,2,0,L|71:382,1,140
