osu file format v14

[General]
AudioFilename: audio.mp3
AudioLeadIn: 0
PreviewTime: 93492
Countdown: 0
SampleSet: Soft
StackLeniency: 0
Mode: 0
LetterboxInBreaks: 0
WidescreenStoryboard: 0

[Editor]
Bookmarks: 0,19692,39384,59076,73846,83692,93538,103383,113230,123076,142769,162461,182153,192000,201842,211692,221535,232615,242456,252302,272000,311384,343384
DistanceSpacing: 0.8
BeatDivisor: 8
GridSize: 4
TimelineZoom: 3.700005

[Metadata]
Title:The Solace of Oblivion
TitleUnicode:The Solace of Oblivion
Artist:Helblinde
ArtistUnicode:Helblinde
Creator:Sonnyc
Version:Aspire
Source:osu!
Tags:ephemerality forlorn thrasher
BeatmapID:1258287
BeatmapSetID:594960

[Difficulty]
HPDrainRate:4
CircleSize:4.5
OverallDifficulty:9
ApproachRate:9
SliderMultiplier:1.79999990463257
SliderTickRate:0.5

[Events]
//Background and Video events
0,0,"aspire-2017-main-graphic-wallpaper.jpg",0,0
//Break Periods
2,1891,3692
2,8353,10476
2,12968,15400
2,144812,147090
2,149735,152013
2,153933,155997
2,211887,220934
//Storyboard Layer 0 (Background)
//Storyboard Layer 1 (Fail)
//Storyboard Layer 2 (Pass)
//Storyboard Layer 3 (Foreground)
//Storyboard Sound Samples

[TimingPoints]
0,307.692307692308,4,2,0,60,1,0
0,-142.857142857143,4,2,0,60,0,0
192,-142.857142857143,4,2,0,5,0,0
230,-142.857142857143,4,2,0,60,0,0
423,-142.857142857143,4,2,0,5,0,0
461,-142.857142857143,4,2,0,60,0,0
653,-142.857142857143,4,2,0,5,0,0
692,-142.857142857143,4,2,0,60,0,0
884,-142.857142857143,4,2,0,5,0,0
923,-166.666666666667,4,2,0,60,0,0
1384,-66.6666666666667,4,2,0,60,0,0
1692,-142.857142857143,4,2,0,60,0,0
6346,-142.857142857143,4,2,0,5,0,0
6384,-142.857142857143,4,2,0,60,0,0
6576,-142.857142857143,4,2,0,5,0,0
6615,-142.857142857143,4,2,0,60,0,0
6807,-142.857142857143,4,2,0,5,0,0
6846,-142.857142857143,4,2,0,60,0,0
7038,-142.857142857143,4,2,0,5,0,0
7076,-166.666666666667,4,2,0,60,0,0
7692,-100,4,2,0,60,0,0
8153,-142.857142857143,4,2,0,5,0,0
11076,-142.857142857143,4,2,0,60,0,0
11269,-142.857142857143,4,2,0,5,0,0
11307,-142.857142857143,4,2,0,60,0,0
11500,-142.857142857143,4,2,0,5,0,0
11538,-142.857142857143,4,2,0,60,0,0
11730,-142.857142857143,4,2,0,5,0,0
11769,-142.857142857143,4,2,0,60,0,0
11961,-142.857142857143,4,2,0,5,0,0
12000,-166.666666666667,4,2,0,60,0,0
12461,-66.6666666666667,4,2,0,60,0,0
12769,-142.857142857143,4,2,0,60,0,0
16192,-142.857142857143,4,2,0,5,0,0
16230,-142.857142857143,4,2,0,60,0,0
16423,-142.857142857143,4,2,0,5,0,0
16461,-142.857142857143,4,2,0,60,0,0
16653,-142.857142857143,4,2,0,5,0,0
16692,-142.857142857143,4,2,0,60,0,0
16884,-142.857142857143,4,2,0,5,0,0
16923,-166.666666666667,4,2,0,60,0,0
17230,1230.76923076923,4,2,0,5,1,0
17230,-116.279069767442,4,2,0,5,0,0
19691,615.384615384615,4,2,0,60,1,0
19691,-71.4285714285714,4,2,0,60,0,0
20921,-23.84,4,2,0,60,0,0
21844,-23.84,4,2,0,5,0,0
22152,-71.4285714285714,4,2,0,60,0,0
24614,-42.83,4,2,0,60,0,0
25152,-42.83,4,2,0,5,0,0
25229,-21.57,4,2,0,60,0,0
25767,-21.57,4,2,0,5,0,0
25844,-42.83,4,2,0,60,0,0
26383,-21.57,4,2,0,5,0,0
26460,-71.4285714285714,4,2,0,60,0,0
29537,-50,4,2,0,60,0,0
30767,-23.84,4,2,0,60,0,0
31998,-71.4285714285714,4,2,0,60,0,0
33229,-100,4,2,0,60,0,0
38152,-83.3333333333333,4,2,0,60,0,0
39075,-83.3333333333333,4,2,0,5,0,0
39383,76.9230769230769,4,2,0,60,1,0
39383,-363,4,2,0,60,0,0
41536,-59.5238095238095,4,2,0,60,0,0
41844,-363,4,2,0,60,0,0
43690,-181.818181818182,4,2,0,60,0,0
44306,-363,4,2,0,60,0,0
47383,-153.846153846154,4,2,0,60,0,0
47998,307.692307692308,4,2,0,60,1,0
47998,-142.857142857143,4,2,0,60,0,0
48190,-142.857142857143,4,2,0,5,0,0
48228,-142.857142857143,4,2,0,60,0,0
48421,-142.857142857143,4,2,0,5,0,0
48459,-142.857142857143,4,2,0,60,0,0
48651,-142.857142857143,4,2,0,5,0,0
48690,-142.857142857143,4,2,0,60,0,0
48882,-142.857142857143,4,2,0,5,0,0
48921,-142.857142857143,4,2,0,60,0,0
49228,76.9230769230769,4,2,0,60,1,0
49228,-363,4,2,0,60,0,0
49535,-181.818181818182,4,2,0,60,0,0
49843,-363,4,2,0,60,0,0
50151,-181.818181818182,4,2,0,60,0,0
50766,-363,4,2,0,60,0,0
51074,-181.818181818182,4,2,0,60,0,0
51381,-363,4,2,0,60,0,0
51997,-133.333333333333,4,2,0,60,0,0
52304,-363,4,2,0,60,0,0
52612,-133.333333333333,4,2,0,60,0,0
52920,-363,4,2,0,60,0,0
54151,307.692307692308,4,2,0,60,1,0
54151,-89.2857142857143,4,2,0,60,0,0
54612,-89.2857142857143,4,2,0,30,0,0
54766,-89.2857142857143,4,2,0,60,0,0
55227,-89.2857142857143,4,2,0,30,0,0
55381,-89.2857142857143,4,2,0,60,0,0
55843,-89.2857142857143,4,2,0,30,0,0
55997,-89.2857142857143,4,2,0,60,0,0
56458,-89.2857142857143,4,2,0,30,0,0
56612,205.128205128205,4,2,0,60,1,0
56612,-66.6666666666667,4,2,0,60,0,0
56688,-66.6666666666667,4,2,0,5,0,0
56766,-37.5,4,2,0,60,0,0
56842,-37.5,4,2,0,5,0,0
56920,-26.3,4,2,0,60,0,0
56996,-26.3,4,2,0,5,0,0
57073,-20.3,4,2,0,60,0,0
57150,-20.3,4,2,0,5,0,0
57227,-66.6666666666667,4,2,0,60,0,0
57304,-66.6666666666667,4,2,0,5,0,0
57381,-37.5,4,2,0,60,0,0
57458,-37.5,4,2,0,5,0,0
57535,-26.3,4,2,0,60,0,0
57612,-26.3,4,2,0,5,0,0
57689,-20.3,4,2,0,60,0,0
57765,-20.3,4,2,0,5,0,0
57843,615.384615384615,4,2,0,60,1,0
57843,-71.4285714285714,4,2,0,60,0,0
58919,-71.4285714285714,4,2,0,5,0,0
59073,307.692307692308,4,2,0,60,1,0
59996,-50,4,2,0,60,0,0
60765,-100,4,2,0,60,0,0
62457,-24.5,4,2,0,60,0,0
63996,-100,4,2,0,60,0,0
65226,615.384615384615,4,2,0,50,1,0
65226,-27.5,4,2,0,50,0,0
65379,-27.5,4,2,0,25,0,0
66457,307.692307692308,4,2,0,60,1,0
67841,615.384615384615,4,2,0,60,1,0
67841,-27.5,4,2,0,60,0,0
68302,-27.5,4,2,0,30,0,0
68456,-27.5,4,2,0,60,0,0
68764,-27.5,4,2,0,30,0,0
68917,307.692307692308,4,2,0,60,1,0
70147,-100,4,2,0,40,0,0
71378,-100,4,2,0,60,0,0
72609,230.769230769231,4,2,0,60,1,0
72609,-19.1,4,2,0,60,0,0
73070,-19.1,4,2,0,60,0,0
73224,307.692307692308,4,2,0,60,1,0
73224,-25,4,2,0,60,0,0
73839,307.692307692308,4,2,0,60,1,0
73839,-66.6666666666667,4,2,0,60,0,0
76300,-38,4,2,0,60,0,0
76762,-66.6666666666667,4,2,0,60,0,0
77531,-20,4,2,0,60,0,0
78762,-66.6666666666667,4,2,0,60,0,0
81685,-95.2380952380952,4,2,0,60,0,0
83685,-30,4,2,0,60,0,0
83762,-30,4,2,0,5,0,0
83839,-30,4,2,0,60,0,0
83915,-30,4,2,0,5,0,0
83992,-40,4,2,0,60,0,0
84069,-40,4,2,0,5,0,0
84146,-40,4,2,0,60,0,0
84223,-40,4,2,0,5,0,0
84300,-40,4,2,0,60,0,0
86146,-40,4,2,0,60,0,0
86223,-40,4,2,0,5,0,0
86300,-40,4,2,0,60,0,0
86377,-40,4,2,0,5,0,0
86454,-40,4,2,0,60,0,0
86531,-40,4,2,0,5,0,0
86608,-40,4,2,0,60,0,0
86685,-40,4,2,0,5,0,0
86762,-40,4,2,0,60,0,0
88685,-40,4,2,0,5,0,0
88762,-20,4,2,0,60,0,0
88839,-20,4,2,0,5,0,0
88915,-40,4,2,0,60,0,0
88992,-40,4,2,0,5,0,0
89069,-10,4,2,0,60,0,0
89146,-10,4,2,0,5,0,0
89223,-10,4,2,0,60,0,0
92921,-10.12,4,2,0,60,0,0
93538,-16.6666667,4,2,0,80,0,0
94615,92.3076923076923,4,2,0,80,1,0
94615,-3,4,2,0,80,0,0
94768,-250,4,2,0,80,0,0
94769,307.692307692308,4,2,0,80,1,0
94769,-16.6666667,4,2,0,80,0,0
97076,92.3076923076923,4,2,0,80,1,0
97076,-5,4,2,0,80,0,0
97230,307.692307692308,4,2,0,80,1,0
97230,-50,4,2,0,80,0,0
98460,205.128205128205,4,2,0,80,1,0
98460,-76.9230769230769,4,2,0,80,0,0
98768,-71.4285714285714,4,2,0,80,0,0
99076,-66.6666666666667,4,2,0,80,0,0
99383,-62.5,4,2,0,80,0,0
99691,-20,4,2,0,80,0,0
100922,307.692307692308,4,2,0,80,1,0
100922,-55.5555555555556,4,2,0,80,0,0
101076,-27.7777777777778,4,2,0,80,0,0
101230,-18.5185,4,2,0,80,0,0
101383,-13.8888888888889,4,2,0,80,0,0
102153,-50,4,2,0,80,0,0
103383,-12.5,4,2,0,80,0,0
105691,-50,4,2,0,80,0,0
105999,-12.5,4,2,0,80,0,0
107076,-50,4,2,0,80,0,0
107383,-50,4,2,0,40,0,0
107691,-50,4,2,0,40,0,0
107999,-50,4,2,0,40,0,0
108306,-12.5,4,2,0,80,0,0
110614,-50,4,2,0,80,0,0
110922,-12.5,4,2,0,80,0,0
111999,-50,4,2,0,80,0,0
113230,102.564102564103,4,2,0,80,1,0
113230,-4.1666666,4,2,0,80,0,0
113383,307.692307692308,4,2,0,80,1,0
113383,-50,4,2,0,80,0,0
113536,102.564102564103,4,2,0,80,1,0
113536,-4.1666666,4,2,0,80,0,0
113690,307.692307692308,4,2,0,80,1,0
113690,-50,4,2,0,80,0,0
113843,102.564102564103,4,2,0,80,1,0
113843,-4.1666666,4,2,0,80,0,0
113997,307.692307692308,4,2,0,80,1,0
113997,-50,4,2,0,80,0,0
114150,102.564102564103,4,2,0,80,1,0
114150,-4.1666666,4,2,0,80,0,0
114304,307.692307692308,4,2,0,80,1,0
114304,-50,4,2,0,80,0,0
114457,102.564102564103,4,2,0,80,1,0
114457,-4.1666666,4,2,0,80,0,0
114611,307.692307692308,4,2,0,80,1,0
114611,-50,4,2,0,80,0,0
114764,102.564102564103,4,2,0,80,1,0
114764,-4.1666666,4,2,0,80,0,0
114918,307.692307692308,4,2,0,80,1,0
114918,-50,4,2,0,80,0,0
115071,102.564102564103,4,2,0,80,1,0
115071,-4.1666666,4,2,0,80,0,0
115225,153.846153846154,4,2,0,80,1,0
115378,102.564102564103,4,2,0,80,1,0
115378,-4.1666666,4,2,0,80,0,0
115532,153.846153846154,4,2,0,80,1,0
115685,102.564102564103,4,2,0,80,1,0
115685,-4.1666666,4,2,0,80,0,0
115839,153.846153846154,4,2,0,80,1,0
115992,102.564102564103,4,2,0,80,1,0
115992,-4.1666666,4,2,0,80,0,0
116146,153.846153846154,4,2,0,80,1,0
116299,102.564102564103,4,2,0,80,1,0
116299,-4.1666666,4,2,0,80,0,0
116453,153.846153846154,4,2,0,80,1,0
116606,102.564102564103,4,2,0,80,1,0
116606,-4.1666666,4,2,0,80,0,0
116760,153.846153846154,4,2,0,80,1,0
116913,615.384615384615,4,2,0,80,1,0
116913,-30,4,2,0,80,0,0
118144,102.564102564103,4,2,0,80,1,0
118144,-4.1666666,4,2,0,80,0,0
118298,153.846153846154,4,2,0,80,1,0
118451,102.564102564103,4,2,0,80,1,0
118451,-4.1666666,4,2,0,80,0,0
118605,153.846153846154,4,2,0,80,1,0
118758,102.564102564103,4,2,0,80,1,0
118758,-4.1666666,4,2,0,80,0,0
118912,153.846153846154,4,2,0,80,1,0
119065,102.564102564103,4,2,0,80,1,0
119065,-4.1666666,4,2,0,80,0,0
119219,153.846153846154,4,2,0,80,1,0
119372,102.564102564103,4,2,0,80,1,0
119372,-4.1666666,4,2,0,80,0,0
119526,153.846153846154,4,2,0,80,1,0
119679,102.564102564103,4,2,0,80,1,0
119679,-4.1666666,4,2,0,80,0,0
119833,153.846153846154,4,2,0,80,1,0
119986,102.564102564103,4,2,0,80,1,0
119986,-4.1666666,4,2,0,80,0,0
120140,153.846153846154,4,2,0,80,1,0
120293,102.564102564103,4,2,0,80,1,0
120293,-4.1666666,4,2,0,80,0,0
120447,153.846153846154,4,2,0,80,1,0
120600,102.564102564103,4,2,0,80,1,0
120600,-4.1666666,4,2,0,80,0,0
120754,153.846153846154,4,2,0,80,1,0
120907,102.564102564103,4,2,0,80,1,0
120907,-4.1666666,4,2,0,80,0,0
121061,153.846153846154,4,2,0,80,1,0
121214,102.564102564103,4,2,0,80,1,0
121214,-4.1666666,4,2,0,80,0,0
121368,153.846153846154,4,2,0,80,1,0
121521,102.564102564103,4,2,0,80,1,0
121521,-4.1666666,4,2,0,80,0,0
121675,153.846153846154,4,2,0,80,1,0
121844,307.692307692308,4,2,0,80,1,0
123074,-66.6666666666667,4,2,0,80,0,0
124305,-33.333333,4,2,0,80,0,0
126151,-66.6666666666667,4,2,0,80,0,0
129228,-33.333333,4,2,0,80,0,0
131074,-66.6666666666667,4,2,0,80,0,0
134151,-33.333333,4,2,0,80,0,0
135997,-66.6666666666667,4,2,0,80,0,0
137844,615.384615384615,4,2,0,80,1,0
137844,-32.5,4,2,0,80,0,0
139074,-60,4,2,0,80,0,0
140305,-133.333333333333,4,2,0,80,0,0
142767,307.692307692308,4,2,0,60,1,0
142767,-142.857142857143,4,2,0,60,0,0
144151,-52.6315789473684,4,2,0,60,0,0
147690,-142.857142857143,4,2,0,60,0,0
149074,-52.6315789473684,4,2,0,60,0,0
152613,-142.857142857143,4,2,0,60,0,0
160920,615.384615384615,4,2,0,60,1,0
160920,-99.009900990099,4,2,0,60,0,0
162458,-100,4,2,0,60,0,0
162459,307.692307692308,4,2,0,60,1,0
182151,615.384615384615,4,2,0,60,1,0
182151,-41.66666667,4,2,0,60,0,0
183382,307.692307692308,4,2,0,60,1,0
183536,-25,4,2,0,60,0,0
183689,-16.66666667,4,2,0,60,0,0
183843,-25,4,2,0,60,0,0
184305,-16.66666667,4,2,0,60,0,0
184458,-25,4,2,0,60,0,0
184920,-16.66666667,4,2,0,60,0,0
185074,-25,4,2,0,60,0,0
188305,48000,4,2,0,60,1,0
188305,-4000,4,2,0,60,0,0
191305,-4000,4,2,0,5,0,0
191997,153.846153846154,4,2,0,60,1,0
191997,-89.2857142857143,4,2,0,60,0,0
195689,307.692307692308,4,2,0,60,1,0
195689,-31.25,4,2,0,60,0,0
196304,153.846153846154,4,2,0,60,1,0
196304,-89.2857142857143,4,2,0,60,0,0
196919,307.692307692308,4,2,0,60,1,0
196919,-22.32,4,2,0,60,0,0
198149,-19.2,4,2,0,60,0,0
199380,-31.25,4,2,0,60,0,0
201226,-10.418,4,2,0,60,0,0
201842,-50,4,2,0,60,0,0
209842,-100,4,2,0,60,0,0
210457,615.384615384615,4,2,0,60,1,0
210457,-133.333333333333,4,2,0,60,0,0
221534,307.692307692308,4,2,0,60,1,0
224611,-33.33333,4,2,0,60,0,0
224919,-16,4,2,0,60,0,0
225842,-33.33333,4,2,0,60,0,0
226149,-16,4,2,0,60,0,0
228919,-32,4,2,0,60,0,0
230149,1230.76923076923,4,2,0,60,1,0
230149,-50,4,2,0,60,0,0
232302,-50,4,2,0,5,0,0
232611,76.9230769230769,4,2,0,80,1,0
232611,-6,4,2,0,80,0,0
232918,-12,4,2,0,80,0,0
235072,-6,4,2,0,80,0,0
235380,-12,4,2,0,80,0,0
237226,-2,4,2,0,80,0,0
237534,-50,4,2,0,80,0,0
239995,615.384615384615,4,2,0,80,1,0
239995,-65.359477124183,4,2,0,80,0,0
241225,-63.6942675159236,4,2,0,80,0,0
242456,153.846153846154,4,2,0,80,1,0
242456,-50,4,2,0,80,0,0
250456,-21.5,4,2,0,80,0,0
252302,307.692307692308,4,2,0,80,1,0
252302,-66.6666666666667,4,2,0,80,0,0
256609,-33.3333333333,4,2,0,80,0,0
259686,-66.6666666666667,4,2,0,80,0,0
260302,-33.3333333333,4,2,0,80,0,0
260917,615.384615384615,4,2,0,80,1,0
260917,-42.2,4,2,0,80,0,0
262147,307.692307692308,4,2,0,80,1,0
262762,-66.6666666666667,4,2,0,80,0,0
267070,-100,4,2,0,80,0,0
267377,-33.3333333333,4,2,0,80,0,0
267685,-100,4,2,0,80,0,0
267993,-50,4,2,0,80,0,0
268300,-100,4,2,0,80,0,0
268608,-33.3333333333,4,2,0,80,0,0
268916,-100,4,2,0,80,0,0
269223,-50,4,2,0,80,0,0

[Colours]
Combo1 : 132,255,211
Combo2 : 255,217,64
Combo3 : 255,170,215
Combo4 : 200,149,255
Combo5 : 132,255,211
Combo6 : 255,217,64
Combo7 : 255,170,215
Combo8 : 200,149,255

[HitObjects]
44,28,0,6,0,L|40:108,1,78.7499934244158,4|0,0:3|0:0,0:0:0:0:
48,116,230,2,0,L|44:196,1,78.7499934244158,2|0,0:0|0:0,0:0:0:0:
52,204,461,2,0,L|48:284,1,78.7499934244158,2|0,0:0|0:0,0:0:0:0:
56,292,692,2,0,L|52:372,1,78.7499934244158
60,380,923,2,0,L|56:460,1,80.999993236542,2|0,0:0|0:0,0:0:0:0:
256,192,1384,6,2,B|220:144|183:209|242:313|375:234|317:104|216:91|186:243|256:192,1,269.999995994568,0|0,0:0|3:0,0:0:0:0:
468,28,6153,38,0,L|472:108,1,78.7499934244158,4|0,0:3|0:0,0:0:0:0:
464,116,6383,2,0,L|468:196,1,78.7499934244158,2|0,0:0|0:0,0:0:0:0:
460,204,6614,2,0,L|464:284,1,78.7499934244158,2|0,0:0|0:0,0:0:0:0:
456,292,6845,2,0,L|460:372,1,78.7499934244158
452,380,7076,2,2,L|456:460,1,80.999993236542,2|0,0:0|0:0,0:0:0:0:
256,192,7692,6,0,B|291:144|328:209|269:313|136:234|194:104|295:91|325:243|256:192,1,269.999995994568,2|0,3:2|0:0,0:0:0:0:
60,380,11076,6,0,L|56:460,1,78.7499934244159,4|0,0:3|0:0,0:0:0:0:
56,292,11307,2,0,L|52:372,1,78.7499934244158,2|0,0:0|0:0,0:0:0:0:
52,204,11537,2,0,L|48:284,1,78.7499934244158,2|0,0:0|0:0,0:0:0:0:
48,116,11769,2,0,L|44:196,1,78.7499934244158
44,28,12000,2,0,L|40:108,1,80.999993236542,2|0,0:0|0:0,0:0:0:0:
256,192,12461,38,2,B|220:144|183:209|242:313|375:234|317:104|216:91|186:243|256:192,1,269.999995994568,0|2,0:0|0:0,0:0:0:0:
452,380,16000,6,0,L|456:460,1,78.7499934244159,4|0,0:3|0:0,0:0:0:0:
456,292,16231,2,0,L|460:372,1,78.7499934244158,2|0,0:0|0:0,0:0:0:0:
460,204,16461,2,0,L|464:284,1,78.7499934244158,2|0,0:0|0:0,0:0:0:0:
464,116,16693,2,0,L|468:196,1,78.7499934244158
468,28,16924,2,0,L|472:108,1,80.999993236542,2|0,0:0|0:0,0:0:0:0:
256,192,17230,12,0,19383,3:0:0:0:
256,192,17383,38,2,B|292:144|329:209|270:313|137:234|195:104|296:91|326:243|256:192,1,270.899989780808,0|0,0:0|0:0,0:0:0:0:
332,120,19691,22,0,P|356:164|344:248,1,125.999989479065,2|0,0:0|0:0,0:0:0:0:
180,120,20306,2,0,P|156:164|168:248,1,125.999989479065,0|0,3:0|0:0,0:0:0:0:
256,13,20921,2,0,B|407:13|506:113|541:377|341:470|170:470|-29:377|6:113|105:13|256:13,1,1132.55026831691,2|0,0:0|0:0,0:0:0:0:
315,277,22152,6,0,P|256:296|197:277,1,125.999989479065,2|0,0:0|0:0,0:0:0:0:
197,107,22767,2,0,P|256:88|315:107,1,125.999989479065,0|0,3:2|0:0,0:0:0:0:
452,308,23383,5,0,0:0:0:0:
256,192,23690,1,2,0:0:0:0:
60,308,23998,1,0,3:0:0:0:
256,192,24306,1,2,0:0:0:0:
216,252,24614,6,0,P|216:132|296:252,1,367.732862297362,2|0,0:0|0:0,0:0:0:0:
336,311,25229,6,0,P|336:73|176:311,1,730.180778320282,0|0,3:0|0:0,0:0:0:0:
296,252,25844,38,0,P|296:132|216:252,1,367.732862297362,2|0,0:0|0:0,0:0:0:0:
256,192,26460,37,2,0:0:0:0:
256,192,27075,53,2,0:0:0:0:
296,252,27383,1,2,0:0:0:0:
256,312,27690,1,2,3:2:0:0:
216,252,27998,1,2,0:0:0:0:
256,192,28306,1,2,0:0:0:0:
256,192,29229,21,2,0:0:0:0:
296,118,29537,2,0,B|300:177|263:192|248:192|211:206|215:265,1,179.999990463257,2|0,0:0|0:0,0:0:0:0:
215,118,30152,2,0,B|211:177|248:192|263:192|300:206|296:265,1,179.999990463257,0|0,3:0|0:0,0:0:0:0:
256,13,30767,2,0,B|105:13|6:113|-29:377|171:470|342:470|541:377|506:113|407:13|256:13,1,1132.78783243637,2|2,0:0|0:0,0:0:0:0:
197,277,31998,6,0,P|256:296|315:277,1,125.999989479065,2|0,0:0|0:0,0:0:0:0:
315,107,32613,2,0,P|256:88|197:107,1,125.999989479065,0|0,3:2|0:0,0:0:0:0:
256,192,33229,6,0,B|292:240|329:175|270:71|137:150|195:280|296:293|326:141|256:192,1,269.999985694885,0|2,0:0|0:0,0:0:0:0:
72,144,34460,6,0,B|66:202|66:202|87:261|87:261|82:319,1,179.999990463257,2|0,0:0|3:0,0:0:0:0:
440,144,35690,2,0,B|445:202|445:202|424:261|424:261|429:319,1,179.999990463257,2|0,0:0|3:0,0:0:0:0:
218,25,36921,37,2,0:0:0:0:
194,96,37229,1,2,0:0:0:0:
256,141,37537,1,2,0:0:0:0:
317,96,37844,1,2,0:0:0:0:
293,24,38152,2,0,P|256:141|218:25,1,323.999972946168,2|0,3:2|0:0,0:0:0:0:
100,332,39383,37,2,0:0:0:0:
141,264,39536,2,0,B|87:240|48:275|48:275|87:240|141:264,1,198.347096929209
412,332,39998,1,2,3:2:0:0:
371,264,40151,2,0,B|424:240|463:275|463:275|424:240|371:264,1,198.347096929209
136,88,40613,38,0,B|148:120|148:120|144:184,1,99.1735484646044,2|0,0:3|0:0,0:0:0:0:
376,88,40921,2,0,B|363:120|363:120|367:184,1,99.1735484646044,2|0,0:3|0:0,0:0:0:0:
256,156,41229,2,0,L|256:256,1,99.1735484646044,2|0,0:3|0:0,0:0:0:0:
256,354,41536,22,0,B|244:304|244:304|256:354|256:354|244:304|244:304|256:354|256:354|244:304|244:304|256:256|256:256|244:304|244:304|256:256|256:256|244:304|244:304|256:256|256:256|256:156,1,604.799949499514,2|2,0:3|0:3,0:0:0:0:
440,136,41844,5,2,0:0:0:0:
376,88,41998,2,0,B|363:120|363:120|367:184|367:184|363:120|363:120|376:88,1,198.347096929209
72,136,42459,1,2,3:2:0:0:
136,88,42613,2,0,B|148:120|148:120|144:184|144:184|148:120|148:120|136:88,1,198.347096929209
367,184,43075,6,0,B|375:312,1,99.1735484646044,2|0,0:0|0:0,0:0:0:0:
145,184,43383,2,0,B|137:312,1,99.1735484646044,2|0,3:2|0:0,0:0:0:0:
379,381,43690,22,0,B|367:184,1,197.999995552063,2|0,0:0|0:0,0:0:0:0:
132,381,43998,2,0,B|145:184,1,197.999995552063,2|0,3:2|0:0,0:0:0:0:
445,167,44306,38,0,P|388:103|293:147,1,198.347096929209,2|0,0:0|3:0,0:0:0:0:
256,212,44767,1,0,0:0:0:0:
67,167,44921,2,0,P|123:103|218:147,1,198.347096929209,2|0,0:0|3:0,0:0:0:0:
256,212,45382,1,0,0:0:0:0:
176,352,45536,21,2,0:0:0:0:
138,282,45690,2,0,B|145:183|145:183|138:282,1,198.347096929209,0|0,0:0|0:0,0:0:0:0:
336,352,46152,1,2,3:2:0:0:
374,282,46306,2,0,B|366:183|366:183|374:282,1,198.347096929209,0|0,0:0|0:0,0:0:0:0:
65,234,46767,6,0,B|71:135,1,99.1735484646044,2|0,0:0|0:0,0:0:0:0:
447,234,47075,2,0,B|440:135,1,99.1735484646044,2|0,3:2|0:0,0:0:0:0:
138,282,47383,22,0,B|148:120|148:120|124:52,1,233.999976890565,2|0,0:0|0:0,0:0:0:0:
374,282,47690,2,0,B|364:120|364:120|388:52,1,233.999976890565,2|0,3:2|0:0,0:0:0:0:
251,28,47998,38,0,L|247:108,1,78.7499934244158,4|0,0:3|0:0,0:0:0:0:
255,116,48228,2,0,L|251:196,1,78.7499934244158,2|0,0:0|0:0,0:0:0:0:
259,204,48459,2,0,L|255:284,1,78.7499934244158,2|0,0:0|0:0,0:0:0:0:
263,292,48690,2,0,L|259:372,1,78.7499934244158
267,380,48921,1,2,0:0:0:0:
59,332,49228,22,0,B|65:233,1,99.1735484646044,4|0,3:0|0:0,0:0:0:0:
42,138,49535,2,0,B|67:203|67:203|59:332,1,197.999995552063,2|0,0:3|0:0,0:0:0:0:
176,164,49843,38,0,P|192:108|180:67,1,99.1735484646044,4|0,0:3|0:0,0:0:0:0:
105,15,50151,2,0,P|183:69|176:164,1,197.999995552063,2|0,0:3|0:0,0:0:0:0:
407,15,50458,54,0,P|329:69|336:164,1,197.999995552063,4|0,0:3|0:0,0:0:0:0:
329,69,50766,2,0,P|320:117|336:164,1,99.1735484646044,2|0,0:3|0:0,0:0:0:0:
470,138,51074,6,0,B|445:203|445:203|453:332,1,197.999995552063,4|0,0:3|0:0,0:0:0:0:
447,233,51381,2,0,B|453:332,1,99.1735484646044,2|0,3:0|0:0,0:0:0:0:
304,284,51689,6,0,P|256:296|208:284,1,99.1735484646044,4|0,0:3|0:0,0:0:0:0:
360,224,51997,2,0,P|256:296|152:224,1,269.999995994568,2|0,0:3|0:0,0:0:0:0:
306,140,52304,6,0,L|206:140,1,99.1735484646044,4|0,0:3|0:0,0:0:0:0:
391,140,52612,2,0,L|121:140,1,269.999995994568,2|0,0:3|0:0,0:0:0:0:
50,176,52920,22,0,P|43:128|64:83,1,99.1735484646044,4|0,0:3|0:0,0:0:0:0:
293,9,53228,2,0,P|341:13|380:44,1,99.1735484646044,4|0,0:3|0:0,0:0:0:0:
132,44,53535,38,0,P|170:13|218:9,1,99.1735484646044,4|0,0:3|0:0,0:0:0:0:
447,83,53843,2,0,P|468:128|461:176,1,99.1735484646044,4|0,0:3|0:0,0:0:0:0:
360,336,54151,22,0,P|296:252|152:336,1,302.399987669678,4|2,0:3|0:3,0:0:0:0:
296,384,54304,1,2,0:3:0:0:
216,384,54458,1,0,0:0:0:0:
152,335,54612,1,2,0:3:0:0:
153,15,54766,38,0,P|180:151|48:196,1,302.399987669678,4|2,0:3|0:3,0:0:0:0:
78,47,54919,1,2,0:3:0:0:
38,116,55073,1,0,0:0:0:0:
49,196,55228,1,2,0:3:0:0:
359,15,55381,38,0,P|332:151|464:196,1,302.399987669678,4|2,0:3|0:3,0:0:0:0:
434,47,55534,1,2,0:3:0:0:
474,116,55688,1,0,0:0:0:0:
463,196,55843,1,2,0:3:0:0:
256,320,55997,38,2,B|215:320|189:293|180:223|233:198|278:198|331:223|322:293|296:320|256:320,1,302.399987669678,4|2,0:3|0:3,0:0:0:0:
216,250,56151,1,2,0:3:0:0:
296,250,56304,1,0,0:0:0:0:
256,320,56458,1,2,0:3:0:0:
150,334,56612,22,0,P|133:286|138:236,1,101.249998497963,4|0,0:3|0:0,0:0:0:0:
183,173,56766,54,0,P|134:246|149:333,1,179.999990463257,2|0,0:3|0:0,0:0:0:0:
206,383,56920,54,0,P|132:285|183:174,1,256.653986242722,4|0,0:3|0:0,0:0:0:0:
256,152,57073,54,0,P|135:246|206:382,1,332.512310150685,2|0,0:3|0:0,0:0:0:0:
362,334,57227,38,0,P|378:286|373:236,1,101.249998497963,4|0,0:3|0:0,0:0:0:0:
329,173,57381,54,0,P|377:246|362:333,1,179.999990463257,2|0,0:3|0:0,0:0:0:0:
306,383,57535,54,0,P|379:285|328:174,1,256.653986242722,4|0,0:3|0:0,0:0:0:0:
256,152,57689,54,0,P|376:246|305:382,1,332.512310150685,2|0,0:3|0:0,0:0:0:0:
256,273,57843,22,2,B|306:243|306:243|256:273|256:334|256:334|256:273|206:243|206:243|256:273|306:243|306:243|256:273,1,440.999963176729,4|0,1:0|0:0,0:3:0:0:
150,334,59073,21,4,0:3:0:0:
75,325,59227,1,4,0:3:0:0:
0,316,59380,1,0,1:0:0:0:
205,381,59534,1,4,0:3:0:0:
220,348,59610,1,4,0:3:0:0:
219,313,59687,1,4,0:3:0:0:
201,282,59764,1,4,0:3:0:0:
170,264,59841,1,4,0:3:0:0:
399,191,59996,2,0,L|220:208,1,179.999990463257,0|4,1:0|0:3,0:0:0:0:
255,204,60226,5,4,0:3:0:0:
291,201,60303,1,4,0:3:0:0:
327,197,60380,1,4,0:3:0:0:
363,194,60457,1,4,0:3:0:0:
170,264,60611,2,0,P|152:176|224:132,1,179.999990463257,4|4,0:3|0:3,0:0:0:0:
184,141,60843,1,4,0:3:0:0:
157,165,60920,1,4,0:3:0:0:
145,199,60997,1,4,0:3:0:0:
150,234,61073,1,4,0:3:0:0:
220,208,61226,1,4,0:3:0:0:
220,208,61534,5,4,0:3:0:0:
145,199,61687,1,4,0:3:0:0:
70,190,61842,1,0,1:0:0:0:
275,255,61995,1,4,0:3:0:0:
290,222,62073,1,4,0:3:0:0:
289,187,62149,1,4,0:3:0:0:
271,156,62226,1,4,0:3:0:0:
240,138,62303,1,4,0:3:0:0:
400,190,62457,2,2,B|375:192|375:192|400:190|400:190|363:193|363:193|387:191|387:191|353:194|353:194|375:192|375:192|339:196|339:196|363:193|363:193|325:197|325:197|353:194|353:194|309:199|309:199|339:196|339:196|294:200|294:200|325:197|325:197|220:208,1,551.020378969154,0|0,1:0|0:0,0:3:0:0:
276,272,62765,21,4,0:3:0:0:
320,267,62842,1,4,0:3:0:0:
365,263,62919,1,4,0:3:0:0:
221,319,63073,1,0,1:0:0:0:
400,190,63226,37,0,0:0:0:0:
400,190,63303,1,0,0:0:0:0:
400,190,63380,2,0,B|306:200|306:200|400:190|400:190|220:208,1,367.346919312769,4|0,1:3|0:0,0:0:0:0:
436,300,63688,5,0,1:0:0:0:
276,272,63842,1,4,0:3:0:0:
276,272,63919,1,4,0:3:0:0:
276,272,63996,1,4,0:3:0:0:
432,224,64149,1,4,0:3:0:0:
296,196,64303,1,4,0:3:0:0:
428,148,64457,1,4,0:3:0:0:
428,148,64534,1,4,0:3:0:0:
428,148,64611,1,4,0:3:0:0:
428,148,64688,1,4,0:3:0:0:
428,148,64765,1,4,0:3:0:0:
316,120,64919,1,0,1:0:0:0:
424,72,65073,1,0,0:0:0:0:
436,300,65226,6,0,B|364:268|276:272,1,163.636354966597,0|2,0:0|0:0,0:0:0:0:
276,272,65379,54,0,B|356:232|432:224,1,163.636354966597,0|2,0:0|0:0,0:0:0:0:
432,224,65533,54,0,B|427:220|427:220|432:224|432:224|426:219|432:224|432:224|412:208|353:186|296:196,1,163.636354966597
296,196,65687,54,0,B|304:190|304:190|296:196|296:196|354:144|428:148,1,163.636354966597
428,148,65841,54,0,B|421:144|428:148|428:148|428:148|428:148|421:144|421:144|428:148|428:148|420:144|420:144|428:148|428:148|400:123|358:107|316:120,1,163.636354966597
316,120,65995,54,0,B|323:113|323:113|316:120|316:120|316:120|316:120|324:112|324:112|316:120|316:120|343:93|381:75|424:72|424:72|424:72|424:72|424:72|424:72|424:72|424:72|424:72|424:72|424:72|424:72,1,163.636354966597
424,72,66149,54,0,B|416:68|416:68|424:72|424:72|424:72|424:72|416:68|416:68|424:72|424:72|416:68|416:68|424:72|424:72|416:68|416:68|424:72|424:72|384:48|334:44,1,163.636354966597,0|2,0:0|0:0,0:0:0:0:
337,44,66303,53,2,0:0:0:0:
108,84,66457,5,4,0:3:0:0:
183,75,66611,1,4,0:3:0:0:
258,66,66764,1,0,1:0:0:0:
53,131,66918,1,4,0:3:0:0:
38,98,66994,1,4,0:3:0:0:
39,63,67071,1,4,0:3:0:0:
57,32,67148,1,4,0:3:0:0:
88,14,67225,1,4,0:3:0:0:
124,160,67380,1,4,0:3:0:0:
436,300,67687,37,0,0:0:0:0:
436,300,67764,1,0,0:0:0:0:
436,300,67841,2,0,B|364:268|276:272|276:272|356:232|432:224|432:224|427:220|427:220|432:224|432:224|426:219|432:224|432:224|412:208|353:189|296:196,1,490.909064899792,2|0,0:0|0:0,0:0:0:0:
276,272,67995,53,2,1:2:0:0:
432,224,68148,53,0,0:0:0:0:
296,196,68302,54,0,B|303:189|303:189|296:196|296:196|353:139|428:148|428:148|421:144|428:148|428:148|428:148|428:148|421:144|421:144|428:148|428:148|420:144|420:144|428:148|428:148|404:126|356:112|316:120|316:120|323:113|323:113|316:120|316:120|316:120|316:120|324:112|324:112|316:120|316:120|344:88|381:75|424:72,1,490.909064899792,0|2,0:0|0:0,0:0:0:0:
428,148,68456,53,0,0:0:0:0:
316,120,68610,53,0,1:0:0:0:
424,72,68764,53,2,0:0:0:0:
183,93,68917,37,4,0:3:0:0:
108,84,69071,1,4,0:3:0:0:
33,75,69224,1,0,1:0:0:0:
203,23,69378,1,4,0:3:0:0:
234,41,69455,1,4,0:3:0:0:
252,72,69532,1,4,0:3:0:0:
253,107,69609,1,4,0:3:0:0:
238,140,69685,1,4,0:3:0:0:
128,12,69840,1,4,0:3:0:0:
436,300,70147,5,0,0:0:0:0:
276,272,70301,1,2,0:0:0:0:
432,224,70455,1,2,0:0:0:0:
296,196,70609,1,0,0:0:0:0:
428,148,70763,1,0,0:0:0:0:
316,120,70917,1,0,0:0:0:0:
424,72,71070,1,0,0:0:0:0:
336,44,71224,1,2,0:0:0:0:
108,84,71378,5,4,0:3:0:0:
183,75,71532,1,4,0:3:0:0:
258,66,71686,1,0,1:0:0:0:
53,131,71840,1,4,0:3:0:0:
38,98,71917,1,4,0:3:0:0:
39,63,71993,1,4,0:3:0:0:
57,32,72070,1,4,0:3:0:0:
88,14,72147,1,4,0:3:0:0:
124,160,72301,1,4,0:3:0:0:
436,300,72609,6,0,B|364:268|276:272|276:272|352:232|432:224|432:224|372:192|296:196|296:196|352:152|428:148|428:148|380:116|316:120|316:120|364:80|424:72|424:72|384:48|336:44|336:44|384:48|424:72|424:72|364:80|316:120|316:120|380:116|428:148|428:148|352:152|296:196|296:196|372:192|432:224|432:224|352:232|276:272|276:272|364:268|436:300,1,1884.81661642151,2|2,0:0|0:0,0:0:0:0:
336,44,72840,53,2,0:0:0:0:
436,300,73070,53,2,0:0:0:0:
88,180,73224,6,0,B|67:103|126:43|126:43|98:106|108:162|108:162|182:169|224:218|224:218|157:194|94:204|94:204|101:264|49:316|49:316|80:249|63:172|63:172|4:176|-48:141|-48:141|0:207|88:180,1,1079.99994277954,2|0,0:0|0:0,0:0:0:0:
336,44,73839,6,0,P|404:32|460:80,1,134.999997997284,6|0,1:0|0:0,0:0:0:0:
311,162,74146,2,0,P|299:94|347:38,1,134.999997997284,0|0,1:0|0:0,0:0:0:0:
429,186,74454,2,0,P|361:198|305:150,1,134.999997997284,4|0,0:3|0:0,0:0:0:0:
454,68,74761,2,0,P|466:136|418:192,1,134.999997997284,0|0,1:0|0:0,0:0:0:0:
83,198,75069,6,0,P|151:186|207:234,1,134.999997997284,4|0,0:3|0:0,0:0:0:0:
58,316,75377,2,0,P|46:248|94:192,1,134.999997997284,0|0,1:0|0:0,0:0:0:0:
176,340,75685,2,0,P|108:352|52:304,1,134.999997997284,2|0,1:0|0:0,0:0:0:0:
201,222,75992,2,0,P|213:290|165:346,1,134.999997997284,0|0,1:0|0:0,0:0:0:0:
188,128,76300,6,0,B|242:95|257:38|215:-62|122:-54|60:-19|8:54|75:144|132:159|188:128,1,473.684185429624,4|0,0:3|1:0,0:0:0:0:
324,256,76762,2,0,B|355:238|387:246|425:297|396:339|360:360|308:364|284:306|292:273|324:256,1,269.999995994568
256,192,77223,1,4,0:3:0:0:
256,192,77377,1,0,0:0:0:0:
356,72,77531,6,0,B|352:96|352:96|356:72|356:72|352:96|352:96|356:72|356:72|352:96|352:96|352:96|352:96|356:72|356:72|352:96|352:96|356:72|356:72|352:96|352:96|356:72|356:72|352:96|352:96|356:72|356:72|352:96|352:96|356:72|356:72|352:96|352:96|340:168|256:192|256:192|172:216|160:288|160:288|156:312,1,674.999964237214,2|2,1:0|0:1,0:0:0:0:
156,72,78146,54,0,B|160:96|160:96|156:72|156:72|160:96|160:96|156:72|156:72|160:96|160:96|160:96|160:96|156:72|156:72|160:96|160:96|156:72|156:72|160:96|160:96|156:72|156:72|160:96|160:96|156:72|156:72|160:96|160:96|156:72|156:72|160:96|160:96|172:168|256:192|256:192|340:216|352:288|352:288|356:312,2,674.999964237214,2|2|0,1:0|1:0|1:0,0:0:0:0:
8,290,78762,6,0,P|61:252|126:265,1,134.999997997284,2|0,1:0|0:0,0:0:0:0:
101,146,79069,2,0,P|138:199|125:264,1,134.999997997284,0|0,1:0|0:0,0:0:0:0:
245,240,79377,2,0,P|191:277|126:264,1,134.999997997284,4|0,0:3|0:0,0:0:0:0:
152,384,79685,2,0,P|114:330|127:265,1,134.999997997284,0|0,1:0|0:0,0:0:0:0:
267,144,79992,6,0,P|320:106|385:119,1,134.999997997284,4|0,0:3|0:0,0:0:0:0:
360,0,80300,2,0,P|397:53|384:118,1,134.999997997284,0|0,1:0|0:0,0:0:0:0:
504,94,80608,2,0,P|450:131|385:118,1,134.999997997284,2|0,1:0|0:0,0:0:0:0:
411,238,80915,2,0,P|373:184|386:119,1,134.999997997284,0|0,1:0|0:0,0:0:0:0:
388,340,81223,6,0,B|296:364|316:320|256:304|196:320|216:364|124:340,1,269.999995994568,4|0,0:3|1:0,0:0:0:0:
164,264,81685,2,0,P|256:240|348:264,1,188.999984218598,4|4,0:3|0:3,0:0:0:0:
298,332,82146,1,0,1:0:0:0:
214,332,82300,1,4,0:3:0:0:
180,96,82608,5,4,0:3:0:0:
172,180,82762,1,0,1:0:0:0:
164,264,82915,1,4,0:3:0:0:
332,96,83223,5,4,0:3:0:0:
340,180,83377,1,4,0:3:0:0:
348,264,83530,1,4,0:3:0:0:
164,264,83685,6,0,P|121:239|172:180,1,149.999992052714,0|0,1:3|0:0,0:0:0:0:
340,179,83839,2,0,P|394:217|348:264,1,149.999992052714,2|0,0:0|0:0,0:0:0:0:
172,180,83992,38,0,P|145:137|180:96,1,112.499994039536
331,95,84146,2,0,P|366:134|340:180,1,112.499994039536,2|0,0:0|0:0,0:0:0:0:
172,180,84300,37,2,0:0:0:0:
180,96,84454,1,0,0:0:0:0:
340,180,84608,5,0,0:0:0:0:
332,96,84762,1,2,0:0:0:0:
256,232,84915,5,2,0:0:0:0:
256,232,85069,1,2,0:0:0:0:
328,356,85531,6,0,P|398:256|380:159,1,224.999988079071,2|0,1:1|0:0,0:0:0:0:
326,105,85762,2,0,P|203:95|130:161,1,224.999988079071,2|0,1:1|0:0,0:0:0:0:
112,231,85992,2,0,P|128:299|156:335,1,112.499994039536,2|0,1:1|0:0,0:0:0:0:
313,278,86146,38,0,P|328:225|304:176,1,112.499994039536
207,175,86300,2,0,P|183:225|198:278,1,112.499994039536,2|0,0:0|0:0,0:0:0:0:
304,176,86454,38,0,P|318:123|294:73,1,112.499994039536
217,73,86608,2,0,P|193:123|208:176,1,112.499994039536,2|0,0:0|0:0,0:0:0:0:
304,176,86762,37,2,0:0:0:0:
294,73,86915,1,0,0:0:0:0:
208,176,87069,5,0,0:0:0:0:
218,73,87222,1,2,0:0:0:0:
256,256,87377,5,2,0:0:0:0:
256,256,87531,1,2,0:0:0:0:
184,380,87992,6,0,P|114:280|132:183,1,224.999988079071,2|0,1:1|0:0,0:0:0:0:
186,129,88223,2,0,P|309:119|382:185,1,224.999988079071,2|0,1:1|0:0,0:0:0:0:
400,255,88454,2,0,P|384:323|356:359,1,112.499994039536,2|0,1:1|0:0,0:0:0:0:
198,297,88608,38,0,P|186:244|224:192,1,112.499994039536
298,314,88762,2,0,P|199:298|217:196,1,224.999988079071,2|0,0:0|0:0,0:0:0:0:
314,213,88915,2,0,P|326:266|288:318,1,112.499994039536
215,197,89069,2,0,B|264:161|322:172|389:249|344:327|291:369|205:376|162:290|167:234|215:197,1,449.999976158142,2|0,0:0|0:0,0:0:0:0:
314,213,89223,21,2,0:0:0:0:
298,314,89377,1,0,0:0:0:0:
198,297,89531,1,0,0:0:0:0:
215,197,89685,1,2,0:0:0:0:
256,256,89839,5,2,0:0:0:0:
256,256,89992,1,2,0:0:0:0:
215,197,90454,22,0,B|264:161|322:172|389:249|344:327|291:369|205:376|162:290|167:234|215:197,1,449.999976158142,2|0,1:0|0:0,0:0:0:0:
298,314,90685,2,0,B|244:346|192:336|124:262|167:181|222:140|309:132|353:221|341:277|298:314,1,449.999976158142,2|0,1:0|0:0,0:0:0:0:
215,197,90915,2,0,B|264:161|322:172|389:249|344:327|291:369|205:376|162:290|167:234|215:197,1,449.999976158142,2|0,1:0|0:0,0:0:0:0:
256,256,91069,21,0,0:0:0:0:
288,188,91223,1,2,0:0:0:0:
215,197,91377,1,2,0:0:0:0:
144,168,91531,1,0,0:0:0:0:
206,124,91685,1,2,0:0:0:0:
279,115,91839,1,0,0:0:0:0:
352,144,91992,1,0,0:0:0:0:
288,188,92146,1,2,0:0:0:0:
215,197,92300,1,2,0:0:0:0:
144,168,92454,1,2,0:0:0:0:
508,152,92921,6,2,B|564:152|564:152|609:213|564:273|564:273|596:212|564:152|564:152|596:212|564:273|564:273|558:282|548:273|548:273|519:253|481:253|450:273|450:273|428:287|400:287|380:273|380:273|352:253|310:253|283:273|283:273|264:287|236:287|216:273|216:273|187:253|147:253|118:273|118:273|97:287|68:287|48:273|48:273|20:253|-22:253|-49:273|-49:273|-68:287|-84:273|-84:273|-93:264|-84:255|-84:255|-174:255|-174:255|-84:255|-84:255|-84:101|-84:101|248:101|248:101|248:276|248:276|248:152|248:152|420:152|420:152|420:98|420:98|397:91|378:76|378:76|422:84|467:76|467:76|448:91|424:98|424:98|424:152|424:152|508:152,1,2667.98407853904,0|0,0:0|0:0,0:0:0:0:
0,344,93538,6,0,B|17:320|36:352|6:404|-60:365|-31:300|19:293|34:369|0:344,1,134.999997997284,4|0,0:3|0:0,0:0:0:0:
168,344,93692,6,2,B|185:320|204:352|174:404|108:365|137:300|187:293|202:369|168:344,1,134.999992847443,2|0,0:0|0:0,0:0:0:0:
332,344,93846,38,0,B|349:320|368:352|338:404|272:365|301:300|351:293|366:369|332:344,1,134.999992847443,8|0,0:3|0:0,0:0:0:0:
500,344,94000,6,2,B|517:320|536:352|506:404|440:365|469:300|519:293|534:369|500:344,1,134.999992847443,2|0,0:0|0:0,0:0:0:0:
168,344,94153,38,2,B|185:320|204:352|174:404|108:365|137:300|187:293|202:369|168:344,1,134.999992847443,4|0,0:3|0:0,0:0:0:0:
332,344,94307,6,0,B|349:320|368:352|338:404|272:365|301:300|351:293|366:369|332:344,1,134.999992847443,2|0,0:0|0:0,0:0:0:0:
500,344,94461,38,0,B|517:320|536:352|506:404|440:365|469:300|519:293|534:369|500:344,1,134.999992847443,8|0,0:3|0:0,0:0:0:0:
508,152,94615,38,2,B|564:152|564:152|609:213|564:273|564:273|596:212|564:152|564:152|596:212|564:273|564:273|558:282|548:273|548:273|519:253|481:253|450:273|450:273|428:287|400:287|380:273|380:273|352:253|310:253|283:273|283:273|264:287|236:287|216:273|216:273|187:253|147:253|118:273|118:273|97:287|68:287|48:273|48:273|20:253|-22:253|-49:273|-49:273|-68:287|-84:273|-84:273|-93:264|-84:255|-84:255|-174:255|-174:255|-84:255|-84:255|-84:101|-84:101|248:101|248:101|248:276|248:276|248:152|248:152|420:152|420:152|420:98|420:98|397:91|378:76|378:76|422:84|467:76|467:76|448:91|424:98|424:98|424:152|424:152|508:152,1,2667.98407853904,2|0,0:0|0:0,0:0:0:0:
0,344,94769,6,0,B|17:320|36:352|6:404|-60:365|-31:300|19:293|34:369|0:344,1,134.999997997284,4|0,0:3|0:0,0:0:0:0:
168,344,94922,6,2,B|185:320|204:352|174:404|108:365|137:300|187:293|202:369|168:344,1,134.999992847443,2|0,0:0|0:0,0:0:0:0:
332,344,95076,38,0,B|349:320|368:352|338:404|272:365|301:300|351:293|366:369|332:344,1,134.999992847443,8|0,0:3|0:0,0:0:0:0:
500,344,95229,6,2,B|517:320|536:352|506:404|440:365|469:300|519:293|534:369|500:344,1,134.999992847443,2|0,0:0|0:0,0:0:0:0:
292,159,95384,6,0,B|288:183|265:193|265:193|288:183|308:198|308:198|288:183|292:159,1,134.999992847443,4|0,0:3|0:0,0:0:0:0:
161,223,95538,54,0,B|137:219|127:196|127:196|137:219|122:239|122:239|137:219|161:223,1,134.999992847443,4|0,0:3|0:0,0:0:0:0:
96,88,95692,54,0,B|99:63|122:53|122:53|99:63|79:48|79:48|99:63|96:88,1,134.999992847443,4|0,0:3|0:0,0:0:0:0:
226,25,95846,54,0,B|250:28|260:51|260:51|250:28|265:8|265:8|250:28|226:25,1,134.999992847443,4|0,0:3|0:0,0:0:0:0:
500,344,95999,22,2,B|517:320|536:352|506:404|440:365|469:300|519:293|534:369|500:344,1,134.999992847443,4|0,0:3|0:0,0:0:0:0:
332,344,96153,6,2,B|349:320|368:352|338:404|272:365|301:300|351:293|366:369|332:344,1,134.999992847443,2|0,0:0|0:0,0:0:0:0:
168,344,96307,38,2,B|185:320|204:352|174:404|108:365|137:300|187:293|202:369|168:344,1,134.999992847443,8|0,0:3|0:0,0:0:0:0:
0,344,96461,6,0,B|17:320|36:352|6:404|-60:365|-31:300|19:293|34:369|0:344,1,134.999997997284,2|0,0:0|0:0,0:0:0:0:
500,344,96615,38,2,B|517:320|536:352|506:404|440:365|469:300|519:293|534:369|500:344,1,134.999992847443,4|0,0:3|0:0,0:0:0:0:
332,344,96769,6,2,B|349:320|368:352|338:404|272:365|301:300|351:293|366:369|332:344,1,134.999992847443,2|0,0:0|0:0,0:0:0:0:
168,344,96923,38,2,B|185:320|204:352|174:404|108:365|137:300|187:293|202:369|168:344,1,134.999992847443,8|0,0:3|0:0,0:0:0:0:
508,152,97076,38,2,B|564:152|564:152|609:213|564:273|564:273|596:212|564:152|564:152|596:212|564:273|564:273|558:282|548:273|548:273|519:253|481:253|450:273|450:273|428:287|400:287|380:273|380:273|352:253|310:253|283:273|283:273|264:287|236:287|216:273|216:273|187:253|147:253|118:273|118:273|97:287|68:287|48:273|48:273|20:253|-22:253|-49:273|-49:273|-68:287|-84:273|-84:273|-93:264|-84:255|-84:255|-174:255|-174:255|-84:255|-84:255|-84:101|-84:101|248:101|248:101|248:276|248:276|248:152|248:152|420:152|420:152|420:98|420:98|397:91|378:76|378:76|422:84|467:76|467:76|448:91|424:98|424:98|424:152|424:152|508:152,1,2667.98407853904,2|0,0:0|0:0,0:0:0:0:
422,46,97230,38,0,B|414:6|414:6|422:-34|422:-34|406:-134,1,179.999990463257,4|0,0:3|0:0,0:0:0:0:
422,46,97538,38,0,B|435:7|435:7|462:-23|462:-23|498:-117,1,179.999990463257,4|0,0:3|0:0,0:0:0:0:
422,46,97845,6,0,B|395:15|395:15|382:-23|382:-23|318:-101,1,179.999990463257,4|0,0:3|0:0,0:0:0:0:
422,46,98153,38,0,B|414:6|414:6|422:-34|422:-34|406:-134,1,179.999990463257,4|0,0:3|0:0,0:0:0:0:
28,120,98460,38,0,B|55:122|55:122|80:113|80:113|116:117,1,87.749991333962,4|0,0:3|0:0,0:0:0:0:
40,192,98614,70,0,B|67:194|67:194|92:185|92:185|128:189,1,87.749991333962,2|0,0:3|0:0,0:0:0:0:
114,116,98768,38,0,B|223:127,1,94.499992109299,8|0,0:3|0:0,0:0:0:0:
126,188,98922,6,0,B|235:199,1,94.499992109299,2|0,0:3|0:0,0:0:0:0:
207,125,99076,38,0,B|237:127|237:127|266:117|266:117|306:121,1,101.249998497963,4|0,0:3|0:0,0:0:0:0:
219,197,99230,6,0,B|249:199|249:199|278:189|278:189|318:193,1,101.249998497963,2|0,0:3|0:0,0:0:0:0:
306,121,99383,38,0,B|430:134,1,107.999994277954,8|0,0:3|0:0,0:0:0:0:
318,193,99537,6,0,B|443:206,1,107.999994277954,2|0,0:3|0:0,0:0:0:0:
70,151,99691,22,0,B|75:158|69:167|69:167|73:158|70:151|70:151|73:158|69:167|69:167|67:168|66:167|66:167|62:163|57:163|51:166|51:166|49:167|45:167|42:166|42:166|38:162|33:162|28:165|28:165|26:166|23:166|19:164|19:164|15:161|10:161|6:164|6:164|3:165|0:164|-2:163|-2:163|-5:160|-11:159|-15:163|-15:163|-17:163|-19:162|-19:162|-21:161|-19:159|-19:159|-19:159|-19:159|-18:138|-18:138|25:141|25:141|24:165|24:165|25:148|25:148|49:149|49:149|43:138|43:138|56:139|56:139|49:149|49:149|70:151,1,337.499982118607,4|0,0:3|0:0,0:0:0:0:
99,153,99845,54,0,B|104:160|98:169|98:169|102:160|99:153|99:153|102:160|98:169|98:169|96:170|95:169|95:169|91:165|86:165|81:168|81:168|79:169|75:169|72:168|72:168|68:164|63:164|58:167|58:167|56:168|53:168|49:166|49:166|45:163|40:163|36:166|36:166|33:167|30:166|26:165|26:165|23:162|17:161|13:165|13:165|11:165|9:164|9:164|7:163|9:161|9:161|9:161|9:161|10:140|10:140|55:143|55:143|54:167|54:167|55:150|55:150|79:151|79:151|73:140|73:140|85:141|85:141|79:151|79:151|99:153,1,337.499982118607,2|0,0:3|0:0,0:0:0:0:
131,155,99999,54,0,B|136:162|130:171|130:171|134:162|131:155|131:155|134:162|130:171|130:171|128:172|127:171|127:171|123:167|118:167|113:170|113:170|111:171|107:171|104:170|104:170|100:166|95:166|90:169|90:169|88:170|85:170|81:168|81:168|77:165|72:165|68:168|68:168|65:169|62:168|58:167|58:167|55:164|49:163|45:167|45:167|43:167|41:166|41:166|39:165|41:163|41:163|41:163|41:163|42:142|42:142|87:145|87:145|86:169|86:169|87:152|87:152|111:153|111:153|105:142|105:142|117:143|117:143|111:153|111:153|131:155,1,337.499982118607,8|0,0:3|0:0,0:0:0:0:
171,157,100153,54,0,B|176:164|170:173|170:173|174:164|171:157|171:157|174:164|170:173|170:173|168:174|167:173|167:173|163:169|158:169|153:172|153:172|151:173|147:173|144:172|144:172|140:168|135:168|130:171|130:171|128:172|125:172|121:170|121:170|117:167|112:167|108:170|108:170|105:171|102:170|98:169|98:169|95:166|89:165|85:169|85:169|83:169|81:168|81:168|79:167|81:165|81:165|81:165|81:165|82:144|82:144|127:147|127:147|126:171|126:171|127:154|127:154|151:155|151:155|145:144|145:144|157:145|157:145|151:155|151:155|171:157,1,337.499982118607,2|0,0:3|0:0,0:0:0:0:
219,159,100306,54,0,B|224:166|218:175|218:175|222:166|219:159|219:159|222:166|218:175|218:175|216:176|215:175|215:175|211:171|206:171|201:174|201:174|199:175|195:175|192:174|192:174|188:170|183:170|178:173|178:173|176:174|173:174|169:172|169:172|165:169|160:169|156:172|156:172|153:173|150:172|146:171|146:171|143:168|137:167|133:171|133:171|131:171|129:170|129:170|127:169|129:167|129:167|129:167|129:167|130:146|130:146|175:149|175:149|174:173|174:173|175:156|175:156|199:157|199:157|193:146|193:146|205:147|205:147|199:157|199:157|219:159,1,337.499982118607,4|0,0:3|0:0,0:0:0:0:
275,162,100460,54,0,B|280:169|274:178|274:178|278:169|275:162|275:162|278:169|274:178|274:178|272:179|271:178|271:178|267:174|262:174|257:177|257:177|255:178|251:178|248:177|248:177|244:173|239:173|234:176|234:176|232:177|229:177|225:175|225:175|221:172|216:172|212:175|212:175|209:176|206:175|202:174|202:174|199:171|193:170|189:174|189:174|187:174|185:173|185:173|183:172|185:170|185:170|185:170|185:170|186:149|186:149|231:152|231:152|230:176|230:176|231:159|231:159|255:160|255:160|249:149|249:149|261:150|261:150|255:160|255:160|275:162,1,337.499982118607,2|0,0:3|0:0,0:0:0:0:
343,166,100614,54,0,B|348:173|342:182|342:182|346:173|343:166|343:166|346:173|342:182|342:182|340:183|339:182|339:182|335:178|330:178|325:181|325:181|323:182|319:182|316:181|316:181|312:177|307:177|302:180|302:180|300:181|297:181|293:179|293:179|289:176|284:176|280:179|280:179|277:180|274:179|270:178|270:178|267:175|261:174|257:178|257:178|255:178|253:177|253:177|251:176|253:174|253:174|253:174|253:174|254:153|254:153|299:156|299:156|298:180|298:180|299:163|299:163|323:164|323:164|317:153|317:153|329:154|329:154|323:164|323:164|343:166,1,337.499982118607,8|0,0:3|0:0,0:0:0:0:
423,170,100768,54,0,B|428:177|422:186|422:186|426:177|423:170|423:170|426:177|422:186|422:186|420:187|419:186|419:186|415:182|410:182|405:185|405:185|403:186|399:186|396:185|396:185|392:181|387:181|382:184|382:184|380:185|377:185|373:183|373:183|369:180|364:180|360:183|360:183|357:184|354:183|350:182|350:182|347:179|341:178|337:182|337:182|335:182|333:181|333:181|331:180|333:178|333:178|333:178|333:178|334:157|334:157|379:160|379:160|378:184|378:184|379:167|379:167|403:168|403:168|397:157|397:157|409:158|409:158|403:168|403:168|423:170,1,337.499982118607,2|0,0:3|0:0,0:0:0:0:
376,324,100922,6,0,B|286:333,1,80.999993236542,4|0,0:3|0:0,0:0:0:0:
214,340,101076,2,0,B|376:324,1,161.999986473084,2|0,0:3|0:0,0:0:0:0:
456,315,101230,2,0,B|215:340,1,243.000238334902,8|0,0:3|0:0,0:0:0:0:
133,347,101383,2,0,B|456:315,1,323.999972946168,2|0,0:3|0:0,0:0:0:0:
376,324,101537,5,4,0:3:0:0:
295,332,101691,1,2,0:3:0:0:
214,340,101845,1,8,0:3:0:0:
133,347,101999,1,2,0:3:0:0:
58,308,102153,6,0,B|50:348|50:348|58:388|58:388|42:488,1,179.999990463257,4|0,0:3|0:0,0:0:0:0:
58,308,102461,38,0,B|67:347|67:347|91:380|91:380|119:477,1,179.999990463257,4|0,0:3|0:0,0:0:0:0:
58,308,102768,6,0,B|33:341|33:341|24:380|24:380|-32:463,1,179.999990463257,4|0,0:3|0:0,0:0:0:0:
58,308,103076,38,0,B|50:348|50:348|58:388|58:388|42:488,1,179.999990463257,4|0,0:3|0:0,0:0:0:0:
104,208,103383,22,0,B|80:176|56:219|95:289|184:236|145:149|78:140|58:242|104:208,1,179.999990463257,4|0,0:3|0:0,0:0:0:0:
212,224,103537,2,0,B|188:192|164:235|203:305|292:252|253:165|186:156|166:258|212:224,1,179.999990463257,2|0,0:3|0:0,0:0:0:0:
259,126,103691,2,0,B|235:94|211:137|250:207|339:154|300:67|233:58|213:160|259:126,1,179.999990463257,8|0,0:3|0:0,0:0:0:0:
180,50,103845,2,0,B|156:18|132:61|171:131|260:78|221:-9|154:-18|134:84|180:50,1,179.999990463257,2|0,0:3|0:0,0:0:0:0:
80,96,103998,38,0,B|56:64|32:107|71:177|160:124|121:37|54:28|34:130|80:96,1,179.999990463257,4|0,0:3|0:0,0:0:0:0:
104,208,104153,2,0,B|80:176|56:219|95:289|184:236|145:149|78:140|58:242|104:208,1,179.999990463257,2|0,0:3|0:0,0:0:0:0:
179,292,104306,2,0,B|155:260|131:303|170:373|259:320|220:233|153:224|133:326|179:292,1,179.999990463257,8|0,0:3|0:0,0:0:0:0:
287,327,104460,2,0,B|263:295|239:338|278:408|367:355|328:268|261:259|241:361|287:327,1,179.999990463257,2|0,0:3|0:0,0:0:0:0:
398,304,104614,6,0,B|374:272|350:315|389:385|478:332|439:245|372:236|352:338|398:304,1,179.999990463257,4|0,0:3|0:0,0:0:0:0:
374,193,104768,2,0,B|350:161|326:204|365:274|454:221|415:134|348:125|328:227|374:193,1,179.999990463257,2|0,0:3|0:0,0:0:0:0:
263,216,104922,2,0,B|239:184|215:227|254:297|343:244|304:157|237:148|217:250|263:216,1,179.999990463257,4|0,0:3|0:0,0:0:0:0:
287,327,105076,2,0,B|263:295|239:338|278:408|367:355|328:268|261:259|241:361|287:327,1,179.999990463257,2|0,0:3|0:0,0:0:0:0:
298,108,105230,38,0,B|274:76|250:119|289:189|378:136|339:49|272:40|252:142|298:108,1,179.999990463257,4|0,0:3|0:0,0:0:0:0:
103,207,105383,2,0,B|79:175|55:218|94:288|183:235|144:148|77:139|57:241|103:207,1,179.999990463257,2|0,0:3|0:0,0:0:0:0:
287,327,105537,2,0,B|263:295|239:338|278:408|367:355|328:268|261:259|241:361|287:327,1,179.999990463257,8|0,0:3|0:0,0:0:0:0:
232,216,105691,22,0,B|235:204|232:191|232:191|217:206|211:228|211:228|232:233|254:228|254:228|247:206|232:191|232:191|229:204|232:216,1,179.999990463257,4|0,0:3|0:0,0:0:0:0:
103,207,105999,38,0,B|79:175|55:218|94:288|183:235|144:148|77:139|57:241|103:207,1,179.999990463257,2|0,0:3|0:0,0:0:0:0:
173,97,106153,2,0,B|149:65|125:108|164:178|253:125|214:38|147:29|127:131|173:97,1,179.999990463257,8|0,0:3|0:0,0:0:0:0:
298,108,106306,2,0,B|274:76|250:119|289:189|378:136|339:49|272:40|252:142|298:108,1,179.999990463257,2|0,0:3|0:0,0:0:0:0:
357,218,106460,2,0,B|333:186|309:229|348:299|437:246|398:159|331:150|311:252|357:218,1,179.999990463257,4|0,0:3|0:0,0:0:0:0:
287,327,106614,2,0,B|263:295|239:338|278:408|367:355|328:268|261:259|241:361|287:327,1,179.999990463257,2|0,0:3|0:0,0:0:0:0:
162,318,106768,2,0,B|138:286|114:329|153:399|242:346|203:259|136:250|116:352|162:318,1,179.999990463257,4|0,0:3|0:0,0:0:0:0:
103,207,106922,2,0,B|79:175|55:218|94:288|183:235|144:148|77:139|57:241|103:207,1,179.999990463257,2|0,0:3|0:0,0:0:0:0:
232,216,107076,6,0,B|235:204|232:191|232:191|217:206|211:228|211:228|232:233|254:228|254:228|247:206|232:191|232:191|229:204|232:216,1,179.999990463257,4|0,0:3|0:0,0:0:0:0:
232,216,107383,2,0,B|235:204|232:191|232:191|217:206|211:228|211:228|232:233|254:228|254:228|247:206|232:191|232:191|229:204|232:216,1,179.999990463257,4|0,0:3|0:0,0:0:0:0:
232,216,107691,2,0,B|235:204|232:191|232:191|217:206|211:228|211:228|232:233|254:228|254:228|247:206|232:191|232:191|229:204|232:216,1,179.999990463257,4|0,0:3|0:0,0:0:0:0:
232,216,107999,2,0,B|235:204|232:191|232:191|217:206|211:228|211:228|232:233|254:228|254:228|247:206|232:191|232:191|229:204|232:216,1,179.999990463257,4|0,0:3|0:0,0:0:0:0:
136,72,108306,6,0,B|142:64|153:56|153:56|156:72|152:89|152:89|136:92|120:89|120:89|117:73|120:56|120:56|136:54|153:56|153:56|147:68|136:72,1,179.999990463257,4|0,0:3|0:0,0:0:0:0:
256,72,108460,2,0,B|262:64|273:56|273:56|276:72|272:89|272:89|256:92|240:89|240:89|237:73|240:56|240:56|256:54|273:56|273:56|267:68|256:72,1,179.999990463257,2|0,0:3|0:0,0:0:0:0:
376,72,108614,2,0,B|370:64|359:56|359:56|356:72|360:89|360:89|376:92|392:89|392:89|395:73|392:56|392:56|376:54|359:56|359:56|365:68|376:72,1,179.999990463257,8|0,0:3|0:0,0:0:0:0:
376,192,108768,2,0,B|370:184|359:176|359:176|356:192|360:209|360:209|376:212|392:209|392:209|395:193|392:176|392:176|376:174|359:176|359:176|365:188|376:192,1,179.999990463257,2|0,0:3|0:0,0:0:0:0:
136,192,108922,6,0,B|142:184|153:176|153:176|156:192|152:209|152:209|136:212|120:209|120:209|117:193|120:176|120:176|136:174|153:176|153:176|147:188|136:192,1,179.999990463257,4|0,0:3|0:0,0:0:0:0:
136,312,109075,2,0,B|142:320|153:328|153:328|156:312|152:295|152:295|136:292|120:295|120:295|117:311|120:328|120:328|136:330|153:328|153:328|147:316|136:312,1,179.999990463257,2|0,0:3|0:0,0:0:0:0:
256,312,109229,2,0,B|262:320|273:328|273:328|276:312|272:295|272:295|256:292|240:295|240:295|237:311|240:328|240:328|256:330|273:328|273:328|267:316|256:312,1,179.999990463257,8|0,0:3|0:0,0:0:0:0:
376,312,109383,2,0,B|370:320|359:328|359:328|356:312|360:295|360:295|376:292|392:295|392:295|395:311|392:328|392:328|376:330|359:328|359:328|365:316|376:312,1,179.999990463257,2|0,0:3|0:0,0:0:0:0:
256,72,109537,38,0,B|262:64|273:56|273:56|276:72|272:89|272:89|256:92|240:89|240:89|237:73|240:56|240:56|256:54|273:56|273:56|267:68|256:72,1,179.999990463257,4|0,0:3|0:0,0:0:0:0:
256,312,109691,2,0,B|262:320|273:328|273:328|276:312|272:295|272:295|256:292|240:295|240:295|237:311|240:328|240:328|256:330|273:328|273:328|267:316|256:312,1,179.999990463257,2|0,0:3|0:0,0:0:0:0:
136,192,109845,6,0,B|142:184|153:176|153:176|156:192|152:209|152:209|136:212|120:209|120:209|117:193|120:176|120:176|136:174|153:176|153:176|147:188|136:192,1,179.999990463257,4|0,0:3|0:0,0:0:0:0:
376,192,109999,2,0,B|370:184|359:176|359:176|356:192|360:209|360:209|376:212|392:209|392:209|395:193|392:176|392:176|376:174|359:176|359:176|365:188|376:192,1,179.999990463257,2|0,0:3|0:0,0:0:0:0:
256,72,110153,38,0,B|262:64|273:56|273:56|276:72|272:89|272:89|256:92|240:89|240:89|237:73|240:56|240:56|256:54|273:56|273:56|267:68|256:72,1,179.999990463257,4|0,0:3|0:0,0:0:0:0:
256,192,110306,2,0,B|262:184|273:176|273:176|276:192|272:209|272:209|256:212|240:209|240:209|237:193|240:176|240:176|256:174|273:176|273:176|267:188|256:192,1,179.999990463257,2|0,0:3|0:0,0:0:0:0:
256,312,110460,2,0,B|262:320|273:328|273:328|276:312|272:295|272:295|256:292|240:295|240:295|237:311|240:328|240:328|256:330|273:328|273:328|267:316|256:312,1,179.999990463257,8|0,0:3|0:0,0:0:0:0:
376,72,110614,38,0,B|370:64|359:56|359:56|356:72|360:89|360:89|376:92|392:89|392:89|395:73|392:56|392:56|376:54|359:56|359:56|365:68|376:72,1,179.999990463257,4|0,0:3|0:0,0:0:0:0:
136,312,110922,6,0,B|142:320|153:328|153:328|156:312|152:295|152:295|136:292|120:295|120:295|117:311|120:328|120:328|136:330|153:328|153:328|147:316|136:312,1,179.999990463257,2|0,0:3|0:0,0:0:0:0:
136,192,111076,2,0,B|142:184|153:176|153:176|156:192|152:209|152:209|136:212|120:209|120:209|117:193|120:176|120:176|136:174|153:176|153:176|147:188|136:192,1,179.999990463257,8|0,0:3|0:0,0:0:0:0:
256,192,111230,2,0,B|262:200|273:208|273:208|276:192|272:175|272:175|256:172|240:175|240:175|237:191|240:208|240:208|256:210|273:208|273:208|267:196|256:192,1,179.999990463257,2|0,0:3|0:0,0:0:0:0:
376,192,111383,2,0,B|382:200|393:208|393:208|396:192|392:175|392:175|376:172|360:175|360:175|357:191|360:208|360:208|376:210|393:208|393:208|387:196|376:192,1,179.999990463257,4|0,0:3|0:0,0:0:0:0:
376,312,111537,2,0,B|382:320|393:328|393:328|396:312|392:295|392:295|376:292|360:295|360:295|357:311|360:328|360:328|376:330|393:328|393:328|387:316|376:312,1,179.999990463257,2|0,0:3|0:0,0:0:0:0:
256,312,111691,2,0,B|262:320|273:328|273:328|276:312|272:295|272:295|256:292|240:295|240:295|237:311|240:328|240:328|256:330|273:328|273:328|267:316|256:312,1,179.999990463257,8|0,0:3|0:0,0:0:0:0:
136,312,111845,2,0,B|142:320|153:328|153:328|156:312|152:295|152:295|136:292|120:295|120:295|117:311|120:328|120:328|136:330|153:328|153:328|147:316|136:312,1,179.999990463257,2|0,0:3|0:0,0:0:0:0:
136,72,111999,38,0,B|130:64|119:56|119:56|116:72|120:89|120:89|136:92|152:89|152:89|155:73|152:56|152:56|136:54|119:56|119:56|125:68|136:72,1,179.999990463257,4|0,0:3|0:0,0:0:0:0:
256,192,113230,38,0,B|323:136|323:136|360:185|328:239|328:239|256:192|256:192|328:239|328:239|294:292|229:274|229:274|256:192|256:192|229:274|229:274|168:257|166:192|166:192|256:192|256:192|166:192|166:192|165:129|225:106|225:106|256:192|256:192|225:106|225:106|285:87|323:136|323:136|256:192,1,1439.99992370606,0|2,1:0|0:0,0:0:0:0:
96,224,113383,6,0,P|92:188|108:120,1,89.9999952316285,2|2,0:1|0:0,0:0:0:0:
256,192,113536,38,0,B|277:276|277:276|336:258|341:196|341:196|256:192|256:192|341:196|341:196|345:133|282:109|282:109|256:192|256:192|282:109|282:109|223:87|183:139|183:139|256:192|256:192|183:139|183:139|145:189|180:243|180:243|256:192|256:192|180:243|180:243|217:293|277:276|277:276|256:192,1,1439.99992370606,0|2,1:0|0:0,0:0:0:0:
101,135,113690,6,0,P|116:102|164:52,1,89.9999952316285,2|2,0:1|0:0,0:0:0:0:
256,192,113843,38,0,B|323:136|323:136|360:185|328:239|328:239|256:192|256:192|328:239|328:239|294:292|229:274|229:274|256:192|256:192|229:274|229:274|168:257|166:192|166:192|256:192|256:192|166:192|166:192|165:129|225:106|225:106|256:192|256:192|225:106|225:106|285:87|323:136|323:136|256:192,1,1439.99992370606,0|2,1:0|0:0,0:0:0:0:
151,61,113997,6,0,P|180:40|248:22,1,89.9999952316285,2|2,0:1|0:0,0:0:0:0:
256,192,114150,38,0,B|277:276|277:276|336:258|341:196|341:196|256:192|256:192|341:196|341:196|345:133|282:109|282:109|256:192|256:192|282:109|282:109|223:87|183:139|183:139|256:192|256:192|183:139|183:139|145:189|180:243|180:243|256:192|256:192|180:243|180:243|217:293|277:276|277:276|256:192,1,1439.99992370606,0|2,1:0|0:0,0:0:0:0:
231,24,114304,6,0,P|267:21|334:41,1,89.9999952316285,2|2,0:1|0:0,0:0:0:0:
256,192,114457,38,0,B|323:136|323:136|360:185|328:239|328:239|256:192|256:192|328:239|328:239|294:292|229:274|229:274|256:192|256:192|229:274|229:274|168:257|166:192|166:192|256:192|256:192|166:192|166:192|165:129|225:106|225:106|256:192|256:192|225:106|225:106|285:87|323:136|323:136|256:192,1,1439.99992370606,0|2,1:0|0:0,0:0:0:0:
319,33,114611,6,0,P|351:49|398:101,1,89.9999952316285,2|2,0:1|0:0,0:0:0:0:
256,192,114764,38,0,B|277:276|277:276|336:258|341:196|341:196|256:192|256:192|341:196|341:196|345:133|282:109|282:109|256:192|256:192|282:109|282:109|223:87|183:139|183:139|256:192|256:192|183:139|183:139|145:189|180:243|180:243|256:192|256:192|180:243|180:243|217:293|277:276|277:276|256:192,1,1439.99992370606,0|2,1:0|0:0,0:0:0:0:
390,87,114918,6,0,P|408:117|423:186,1,89.9999952316285,2|2,0:1|0:0,0:0:0:0:
256,192,115071,38,0,B|323:136|323:136|360:185|328:239|328:239|256:192|256:192|328:239|328:239|294:292|229:274|229:274|256:192|256:192|229:274|229:274|168:257|166:192|166:192|256:192|256:192|166:192|166:192|165:129|225:106|225:106|256:192|256:192|225:106|225:106|285:87|323:136|323:136|256:192,1,1439.99992370606,0|2,1:0|0:0,0:0:0:0:
422,169,115225,6,0,P|422:205|399:271,1,89.9999952316285,2|2,0:1|0:0,0:0:0:0:
256,192,115378,38,0,B|277:276|277:276|336:258|341:196|341:196|256:192|256:192|341:196|341:196|345:133|282:109|282:109|256:192|256:192|282:109|282:109|223:87|183:139|183:139|256:192|256:192|183:139|183:139|145:189|180:243|180:243|256:192|256:192|180:243|180:243|217:293|277:276|277:276|256:192,1,1439.99992370606,0|2,1:0|0:0,0:0:0:0:
407,256,115532,6,0,P|388:287|335:331,1,89.9999952316285,2|2,0:1|0:0,0:0:0:0:
256,192,115685,38,0,B|323:136|323:136|360:185|328:239|328:239|256:192|256:192|328:239|328:239|294:292|229:274|229:274|256:192|256:192|229:274|229:274|168:257|166:192|166:192|256:192|256:192|166:192|166:192|165:129|225:106|225:106|256:192|256:192|225:106|225:106|285:87|323:136|323:136|256:192,1,1439.99992370606,0|2,1:0|0:0,0:0:0:0:
348,323,115839,6,0,P|316:340|247:351,1,89.9999952316285,2|2,0:1|0:0,0:0:0:0:
256,192,115992,38,0,B|277:276|277:276|336:258|341:196|341:196|256:192|256:192|341:196|341:196|345:133|282:109|282:109|256:192|256:192|282:109|282:109|223:87|183:139|183:139|256:192|256:192|183:139|183:139|145:189|180:243|180:243|256:192|256:192|180:243|180:243|217:293|277:276|277:276|256:192,1,1439.99992370606,0|2,1:0|0:0,0:0:0:0:
264,351,116146,6,0,P|227:350|163:323,1,89.9999952316285,2|2,0:1|0:0,0:0:0:0:
256,192,116299,38,0,B|323:136|323:136|360:185|328:239|328:239|256:192|256:192|328:239|328:239|294:292|229:274|229:274|256:192|256:192|229:274|229:274|168:257|166:192|166:192|256:192|256:192|166:192|166:192|165:129|225:106|225:106|256:192|256:192|225:106|225:106|285:87|323:136|323:136|256:192,1,1439.99992370606,0|2,1:0|0:0,0:0:0:0:
178,333,116453,6,0,P|147:313|106:257,1,89.9999952316285,2|2,0:1|0:0,0:0:0:0:
256,192,116606,38,0,B|277:276|277:276|336:258|341:196|341:196|256:192|256:192|341:196|341:196|345:133|282:109|282:109|256:192|256:192|282:109|282:109|223:87|183:139|183:139|256:192|256:192|183:139|183:139|145:189|180:243|180:243|256:192|256:192|180:243|180:243|217:293|277:276|277:276|256:192,1,1439.99992370606,0|2,1:0|0:0,0:0:0:0:
113,272,116760,6,0,P|98:240|90:170,1,89.9999952316285,2|2,0:1|0:0,0:0:0:0:
420,177,116913,22,2,B|427:316|339:412|96:457|1:278|-5:121|69:-68|315:-49|412:37|420:177,1,1049.999944369,2|0,1:0|0:0,0:3:0:0:
256,192,118144,6,0,B|323:136|323:136|360:185|328:239|328:239|256:192|256:192|328:239|328:239|294:292|229:274|229:274|256:192|256:192|229:274|229:274|168:257|166:192|166:192|256:192|256:192|166:192|166:192|165:129|225:106|225:106|256:192|256:192|225:106|225:106|285:87|323:136|323:136|256:192,1,1439.99992370606,0|2,1:0|0:0,0:0:0:0:
418,174,118298,6,0,P|418:210|395:276,1,89.9999952316285,2|2,0:1|0:0,0:0:0:0:
256,192,118451,38,0,B|277:276|277:276|336:258|341:196|341:196|256:192|256:192|341:196|341:196|345:133|282:109|282:109|256:192|256:192|282:109|282:109|223:87|183:139|183:139|256:192|256:192|183:139|183:139|145:189|180:243|180:243|256:192|256:192|180:243|180:243|217:293|277:276|277:276|256:192,1,1439.99992370606,0|2,1:0|0:0,0:0:0:0:
403,261,118605,6,0,P|384:292|331:336,1,89.9999952316285,2|2,0:1|0:0,0:0:0:0:
256,192,118758,38,0,B|323:136|323:136|360:185|328:239|328:239|256:192|256:192|328:239|328:239|294:292|229:274|229:274|256:192|256:192|229:274|229:274|168:257|166:192|166:192|256:192|256:192|166:192|166:192|165:129|225:106|225:106|256:192|256:192|225:106|225:106|285:87|323:136|323:136|256:192,1,1439.99992370606,0|2,1:0|0:0,0:0:0:0:
346,330,118912,6,0,P|314:347|245:358,1,89.9999952316285,2|2,0:1|0:0,0:0:0:0:
256,192,119065,38,0,B|277:276|277:276|336:258|341:196|341:196|256:192|256:192|341:196|341:196|345:133|282:109|282:109|256:192|256:192|282:109|282:109|223:87|183:139|183:139|256:192|256:192|183:139|183:139|145:189|180:243|180:243|256:192|256:192|180:243|180:243|217:293|277:276|277:276|256:192,1,1439.99992370606,0|2,1:0|0:0,0:0:0:0:
262,358,119219,6,0,P|225:357|161:330,1,89.9999952316285,2|2,0:1|0:0,0:0:0:0:
256,192,119372,38,0,B|323:136|323:136|360:185|328:239|328:239|256:192|256:192|328:239|328:239|294:292|229:274|229:274|256:192|256:192|229:274|229:274|168:257|166:192|166:192|256:192|256:192|166:192|166:192|165:129|225:106|225:106|256:192|256:192|225:106|225:106|285:87|323:136|323:136|256:192,1,1439.99992370606,0|2,1:0|0:0,0:0:0:0:
176,340,119526,6,0,P|145:320|104:264,1,89.9999952316285,2|2,0:1|0:0,0:0:0:0:
256,192,119679,38,0,B|277:276|277:276|336:258|341:196|341:196|256:192|256:192|341:196|341:196|345:133|282:109|282:109|256:192|256:192|282:109|282:109|223:87|183:139|183:139|256:192|256:192|183:139|183:139|145:189|180:243|180:243|256:192|256:192|180:243|180:243|217:293|277:276|277:276|256:192,1,1439.99992370606,0|2,1:0|0:0,0:0:0:0:
111,279,119833,6,0,P|96:247|88:177,1,89.9999952316285,2|2,0:1|0:0,0:0:0:0:
256,192,119986,38,0,B|323:136|323:136|360:185|328:239|328:239|256:192|256:192|328:239|328:239|294:292|229:274|229:274|256:192|256:192|229:274|229:274|168:257|166:192|166:192|256:192|256:192|166:192|166:192|165:129|225:106|225:106|256:192|256:192|225:106|225:106|285:87|323:136|323:136|256:192,1,1439.99992370606,0|2,1:0|0:0,0:0:0:0:
88,194,120140,6,0,P|91:158|121:94,1,89.9999952316285,2|2,0:1|0:0,0:0:0:0:
256,192,120293,38,0,B|277:276|277:276|336:258|341:196|341:196|256:192|256:192|341:196|341:196|345:133|282:109|282:109|256:192|256:192|282:109|282:109|223:87|183:139|183:139|256:192|256:192|183:139|183:139|145:189|180:243|180:243|256:192|256:192|180:243|180:243|217:293|277:276|277:276|256:192,1,1439.99992370606,0|2,1:0|0:0,0:0:0:0:
112,109,120447,6,0,P|134:80|191:41,1,89.9999952316285,2|2,0:1|0:0,0:0:0:0:
256,192,120600,38,0,B|323:136|323:136|360:185|328:239|328:239|256:192|256:192|328:239|328:239|294:292|229:274|229:274|256:192|256:192|229:274|229:274|168:257|166:192|166:192|256:192|256:192|166:192|166:192|165:129|225:106|225:106|256:192|256:192|225:106|225:106|285:87|323:136|323:136|256:192,1,1439.99992370606,0|2,1:0|0:0,0:0:0:0:
177,49,120754,6,0,P|210:35|280:31,1,89.9999952316285,2|2,0:1|0:0,0:0:0:0:
256,192,120907,38,0,B|277:276|277:276|336:258|341:196|341:196|256:192|256:192|341:196|341:196|345:133|282:109|282:109|256:192|256:192|282:109|282:109|223:87|183:139|183:139|256:192|256:192|183:139|183:139|145:189|180:243|180:243|256:192|256:192|180:243|180:243|217:293|277:276|277:276|256:192,1,1439.99992370606,0|2,1:0|0:0,0:0:0:0:
264,30,121061,6,0,P|300:34|361:68,1,89.9999952316285,2|2,0:1|0:0,0:0:0:0:
256,192,121214,38,0,B|323:136|323:136|360:185|328:239|328:239|256:192|256:192|328:239|328:239|294:292|229:274|229:274|256:192|256:192|229:274|229:274|168:257|166:192|166:192|256:192|256:192|166:192|166:192|165:129|225:106|225:106|256:192|256:192|225:106|225:106|285:87|323:136|323:136|256:192,1,1439.99992370606,0|2,1:0|0:0,0:0:0:0:
347,57,121368,6,0,P|375:80|410:140,1,89.9999952316285,2|2,0:1|0:0,0:0:0:0:
256,192,121521,38,0,B|277:276|277:276|336:258|341:196|341:196|256:192|256:192|341:196|341:196|345:133|282:109|282:109|256:192|256:192|282:109|282:109|223:87|183:139|183:139|256:192|256:192|183:139|183:139|145:189|180:243|180:243|256:192|256:192|180:243|180:243|217:293|277:276|277:276|256:192,1,1439.99992370606,0|2,1:0|0:0,0:0:0:0:
404,124,121675,6,0,P|415:157|416:227,1,89.9999952316285,2|2,0:1|0:0,0:0:0:0:
112,282,121843,21,0,1:0:0:0:
95,137,121997,1,2,0:0:0:0:
199,32,122151,1,2,0:0:0:0:
344,48,122305,1,2,0:0:0:0:
422,173,122459,1,2,0:0:0:0:
374,311,122613,1,2,0:0:0:0:
237,360,122766,1,2,0:0:0:0:
112,282,122920,1,2,0:0:0:0:
312,120,123074,6,0,B|344:184|332:251|332:251|344:184|312:120|312:120|344:184|332:251,1,404.999993991852,0|2,1:3|0:1,0:0:0:0:
200,120,123690,2,0,B|168:184|180:251|180:251|168:184|200:120|200:120|168:184|180:251,1,404.999993991852,2|0,1:2|0:0,0:0:0:0:
376,44,124305,6,0,B|440:172|416:306|416:306|440:172|376:44|376:44|440:172|416:306,1,809.999987983704,0|0,1:3|0:0,0:0:0:0:
136,44,124920,2,0,B|72:172|96:306|96:306|72:172|136:44|136:44|72:172|96:306,1,809.999987983704,2|0,1:2|0:0,0:0:0:0:
376,44,125536,6,0,B|440:172|416:306,1,269.999995994568,0|0,1:3|0:0,0:0:0:0:
136,44,125844,2,0,B|72:172|96:306,1,269.999995994568,2|0,1:2|0:0,0:0:0:0:
312,120,126151,22,0,B|344:184|332:251,1,134.999997997284,0|0,1:3|0:0,0:0:0:0:
200,120,126459,2,0,B|168:184|180:251,1,134.999997997284,2|0,1:2|0:0,0:0:0:0:
400,282,126767,37,2,1:0:0:0:
417,137,126921,1,2,0:0:0:0:
313,32,127075,1,2,0:0:0:0:
168,48,127229,1,2,0:0:0:0:
90,173,127383,1,2,0:0:0:0:
138,311,127537,1,2,0:0:0:0:
275,360,127690,1,2,0:0:0:0:
400,282,127844,1,2,0:0:0:0:
200,120,127997,6,0,B|168:184|180:251,3,134.999997997284,0|0|0|0,1:3|0:0|0:0|0:0,0:0:0:0:
312,120,128613,2,0,B|344:184|332:251,3,134.999997997284,2|0|0|0,1:2|0:0|0:0|0:0,0:0:0:0:
136,44,129228,6,0,B|72:172|96:306,3,269.999995994568,0|0|0|0,1:3|0:0|0:0|0:0,0:0:0:0:
376,44,129844,2,0,B|440:172|416:306,3,269.999995994568,2|0|0|0,1:2|0:0|0:0|0:0,0:0:0:0:
136,44,130459,6,0,B|72:172|96:306,1,269.999995994568,0|0,1:3|0:0,0:0:0:0:
376,44,130767,2,0,B|440:172|416:306,1,269.999995994568,2|0,1:2|0:0,0:0:0:0:
200,120,131074,22,0,B|168:184|180:251,1,134.999997997284,0|0,1:3|0:0,0:0:0:0:
312,120,131382,2,0,B|344:184|332:251,1,134.999997997284,2|0,1:2|0:0,0:0:0:0:
112,282,131690,37,2,1:0:0:0:
95,137,131844,1,2,0:0:0:0:
199,32,131998,1,2,0:0:0:0:
344,48,132152,1,2,0:0:0:0:
422,173,132306,1,2,0:0:0:0:
374,311,132460,1,2,0:0:0:0:
180,120,132920,6,0,B|212:184|200:251|200:251|212:184|180:120|180:120|212:184|200:251,1,404.999993991852,0|0,1:3|0:0,0:0:0:0:
332,120,133536,2,0,B|300:184|312:251|312:251|300:184|332:120|332:120|300:184|312:251,1,404.999993991852,2|0,1:2|0:0,0:0:0:0:
68,76,134151,6,0,B|132:204|108:338|108:338|132:204|68:76|68:76|132:204|108:338,1,809.999987983704,0|0,1:3|0:0,0:0:0:0:
444,76,134767,2,0,B|380:204|404:338|404:338|380:204|444:76|444:76|380:204|404:338,1,809.999987983704,2|0,1:2|0:0,0:0:0:0:
68,76,135382,6,0,B|132:204|108:338,1,269.999995994568,0|0,1:3|0:0,0:0:0:0:
444,76,135690,2,0,B|380:204|404:338,1,269.999995994568,2|0,1:2|0:0,0:0:0:0:
180,120,135997,22,0,B|212:184|200:251,1,134.999997997284,0|0,1:3|0:0,0:0:0:0:
332,120,136305,2,0,B|300:184|312:251,1,134.999997997284,2|0,1:2|0:0,0:0:0:0:
79,191,136613,37,2,1:0:0:0:
131,67,136767,1,2,0:0:0:0:
256,15,136920,1,2,0:0:0:0:
380,67,137074,1,2,0:0:0:0:
432,192,137228,1,2,0:0:0:0:
380,316,137382,1,2,0:0:0:0:
255,368,137536,1,2,0:0:0:0:
131,316,137690,1,2,0:0:0:0:
79,191,137844,22,2,P|383:69|131:316,1,969.230717879076,2|2,1:0|0:0,0:3:0:0:
315,276,139074,22,2,P|328:116|196:276,1,524.9999721845,2|2,1:0|0:0,0:3:0:0:
256,192,140305,38,2,B|208:156|273:119|377:178|298:311|168:253|155:152|307:122|256:192,1,269.999995994568,2|4,1:0|0:3,0:3:0:0:
452,380,142767,6,0,L|456:460,1,78.7499934244159,4|0,0:3|0:0,0:0:0:0:
456,292,142998,2,0,L|460:372,1,78.7499934244158,2|0,0:0|0:0,0:0:0:0:
460,204,143228,2,0,L|464:284,1,78.7499934244158,2|0,0:0|0:0,0:0:0:0:
464,116,143460,2,0,L|468:196,1,78.7499934244158
468,28,143691,2,0,L|472:108,1,80.999993236542,2|0,0:0|0:0,0:0:0:0:
311,98,144151,38,0,B|263:88|202:99|202:99|213:149|202:199|202:199|263:168|325:184|359:238|332:295|263:318|202:280,1,512.999959121706,2|2,0:0|0:0,0:0:0:0:
60,380,147690,6,0,L|56:460,1,78.7499934244159,4|0,0:3|0:0,0:0:0:0:
56,292,147921,2,0,L|52:372,1,78.7499934244158,2|0,0:0|0:0,0:0:0:0:
52,204,148151,2,0,L|48:284,1,78.7499934244158,2|0,0:0|0:0,0:0:0:0:
48,116,148383,2,0,L|44:196,1,78.7499934244158
44,28,148614,2,0,L|40:108,1,80.999993236542,2|0,0:0|0:0,0:0:0:0:
202,280,149074,38,0,B|263:318|332:295|359:238|325:184|263:168|202:199|202:199|213:149|202:99|202:99|263:88|311:98,1,512.999959121706,2|2,0:0|0:0,0:0:0:0:
468,28,152613,38,0,L|472:108,1,78.7499934244158,4|0,0:3|0:0,0:0:0:0:
464,116,152843,2,0,L|468:196,1,78.7499934244158,2|0,0:0|0:0,0:0:0:0:
460,204,153074,2,0,L|464:284,1,78.7499934244158,2|0,0:0|0:0,0:0:0:0:
456,292,153305,2,0,L|460:372,1,78.7499934244158
452,380,153536,2,2,L|456:460,1,80.999993236542,2|0,0:0|0:0,0:0:0:0:
44,28,157536,54,0,L|40:108,1,78.7499934244158,4|0,0:3|0:0,0:0:0:0:
48,116,157766,2,0,L|44:196,1,78.7499934244158,2|0,0:0|0:0,0:0:0:0:
52,204,157997,2,0,L|48:284,1,78.7499934244158,2|0,0:0|0:0,0:0:0:0:
56,292,158228,2,0,L|52:372,1,78.7499934244158
60,380,158459,2,2,L|56:460,1,80.999993236542,2|0,0:0|0:0,0:0:0:0:
261,28,159997,54,0,L|265:108,1,78.7499934244158,4|0,0:3|0:0,0:0:0:0:
257,116,160227,2,0,L|261:196,1,78.7499934244158,2|0,0:0|0:0,0:0:0:0:
253,204,160458,2,0,L|257:284,1,78.7499934244158,2|0,0:0|0:0,0:0:0:0:
249,292,160689,2,0,L|253:372,1,78.7499934244158
244,380,160920,54,0,B|253:371|253:371|249:292|249:292|257:283|257:283|253:204|253:204|261:195|261:195|257:116|257:116|265:107|265:107|261:28,1,363.599973523255,2|0,0:0|0:0,0:0:0:0:
32,104,162459,5,4,0:3:0:0:
132,228,162613,1,4,0:3:0:0:
190,80,162767,1,0,1:0:0:0:
124,124,162920,1,4,0:3:0:0:
106,129,162997,1,4,0:3:0:0:
106,147,163074,1,4,0:3:0:0:
124,153,163151,1,4,0:3:0:0:
134,138,163228,1,4,0:3:0:0:
119,138,163382,1,0,1:0:0:0:
388,124,163536,5,4,0:3:0:0:
406,129,163613,1,4,0:3:0:0:
406,147,163690,1,4,0:3:0:0:
388,153,163767,1,4,0:3:0:0:
378,138,163844,1,4,0:3:0:0:
393,138,163998,1,0,1:0:0:0:
256,296,164151,5,4,0:3:0:0:
241,285,164228,1,4,0:3:0:0:
247,268,164305,1,4,0:3:0:0:
265,268,164382,1,4,0:3:0:0:
271,285,164459,1,4,0:3:0:0:
256,282,164613,1,0,1:0:0:0:
480,104,164920,21,4,0:3:0:0:
380,228,165074,1,4,0:3:0:0:
322,80,165228,1,0,1:0:0:0:
388,124,165381,1,4,0:3:0:0:
406,129,165458,1,4,0:3:0:0:
406,147,165535,1,4,0:3:0:0:
388,153,165612,1,4,0:3:0:0:
378,138,165689,1,4,0:3:0:0:
393,138,165843,1,0,1:0:0:0:
124,124,165997,5,4,0:3:0:0:
106,129,166074,1,4,0:3:0:0:
106,147,166151,1,4,0:3:0:0:
124,153,166228,1,4,0:3:0:0:
134,138,166305,1,4,0:3:0:0:
119,138,166459,1,0,1:0:0:0:
256,296,166612,5,4,0:3:0:0:
271,285,166689,1,4,0:3:0:0:
265,268,166766,1,4,0:3:0:0:
247,268,166843,1,4,0:3:0:0:
241,285,166920,1,4,0:3:0:0:
256,282,167074,1,0,1:0:0:0:
190,80,167382,5,4,0:3:0:0:
322,80,167536,1,4,0:3:0:0:
190,80,167690,1,0,1:0:0:0:
356,208,167843,5,4,0:3:0:0:
360,190,167920,1,4,0:3:0:0:
378,195,167997,1,4,0:3:0:0:
373,212,168074,1,4,0:3:0:0:
356,208,168151,1,4,0:3:0:0:
367,201,168305,1,0,1:0:0:0:
156,208,168459,5,4,0:3:0:0:
152,190,168536,1,4,0:3:0:0:
134,195,168613,1,4,0:3:0:0:
139,212,168690,1,4,0:3:0:0:
156,208,168767,1,4,0:3:0:0:
145,201,168921,1,0,1:0:0:0:
256,296,169074,5,4,0:3:0:0:
270,284,169151,1,4,0:3:0:0:
256,271,169228,1,4,0:3:0:0:
242,284,169305,1,4,0:3:0:0:
256,296,169382,1,4,0:3:0:0:
258,282,169536,1,0,1:0:0:0:
322,80,169843,5,4,0:3:0:0:
190,80,169997,1,4,0:3:0:0:
322,80,170151,1,0,1:0:0:0:
156,208,170304,5,4,0:3:0:0:
152,190,170381,1,4,0:3:0:0:
134,195,170458,1,4,0:3:0:0:
139,212,170535,1,4,0:3:0:0:
156,208,170612,1,4,0:3:0:0:
145,201,170766,1,0,1:0:0:0:
356,208,170920,5,4,0:3:0:0:
360,190,170997,1,4,0:3:0:0:
378,195,171074,1,4,0:3:0:0:
373,212,171151,1,4,0:3:0:0:
356,208,171228,1,4,0:3:0:0:
367,201,171382,1,0,1:0:0:0:
256,296,171535,5,4,0:3:0:0:
242,284,171612,1,4,0:3:0:0:
256,271,171689,1,4,0:3:0:0:
270,284,171766,1,4,0:3:0:0:
256,296,171843,1,4,0:3:0:0:
254,282,171997,1,0,1:0:0:0:
20,348,172305,5,4,0:3:0:0:
100,344,172459,1,4,0:3:0:0:
180,340,172613,1,0,1:0:0:0:
124,176,172767,5,4,0:3:0:0:
108,196,172843,1,4,0:3:0:0:
136,200,172920,1,4,0:3:0:0:
124,176,172997,1,4,0:3:0:0:
124,192,173074,1,4,0:3:0:0:
124,192,173228,1,0,1:0:0:0:
388,176,173383,5,4,0:3:0:0:
404,196,173460,1,4,0:3:0:0:
376,200,173537,1,4,0:3:0:0:
388,176,173614,1,4,0:3:0:0:
388,192,173691,1,4,0:3:0:0:
388,192,173844,1,0,1:0:0:0:
256,80,173997,5,4,0:3:0:0:
242,58,174074,1,4,0:3:0:0:
270,58,174151,1,4,0:3:0:0:
256,80,174228,1,4,0:3:0:0:
257,64,174305,1,4,0:3:0:0:
257,64,174458,1,0,1:0:0:0:
492,348,174767,5,4,0:3:0:0:
412,344,174921,1,4,0:3:0:0:
332,340,175075,1,0,1:0:0:0:
388,176,175229,5,4,0:3:0:0:
404,196,175305,1,4,0:3:0:0:
376,200,175382,1,4,0:3:0:0:
388,176,175459,1,4,0:3:0:0:
388,192,175536,1,4,0:3:0:0:
388,192,175690,1,0,1:0:0:0:
124,176,175845,5,4,0:3:0:0:
108,196,175922,1,4,0:3:0:0:
136,200,175999,1,4,0:3:0:0:
124,176,176076,1,4,0:3:0:0:
124,192,176153,1,4,0:3:0:0:
124,192,176306,1,0,1:0:0:0:
256,80,176459,5,4,0:3:0:0:
270,58,176536,1,4,0:3:0:0:
242,58,176613,1,4,0:3:0:0:
256,80,176690,1,4,0:3:0:0:
255,64,176767,1,4,0:3:0:0:
255,64,176920,1,0,1:0:0:0:
256,320,177228,5,4,0:3:0:0:
256,240,177382,1,4,0:3:0:0:
256,160,177536,1,0,1:0:0:0:
136,288,177690,5,4,0:3:0:0:
120,292,177767,1,4,0:3:0:0:
136,288,177843,1,4,0:3:0:0:
152,284,177920,1,4,0:3:0:0:
136,288,177997,1,4,0:3:0:0:
136,288,178151,1,0,1:0:0:0:
376,288,178305,5,4,0:3:0:0:
392,292,178382,1,4,0:3:0:0:
376,288,178458,1,4,0:3:0:0:
360,284,178535,1,4,0:3:0:0:
376,288,178612,1,4,0:3:0:0:
376,288,178766,1,0,1:0:0:0:
255,64,178920,5,4,0:3:0:0:
236,64,178997,1,4,0:3:0:0:
255,64,179074,1,4,0:3:0:0:
272,64,179151,1,4,0:3:0:0:
255,64,179228,1,4,0:3:0:0:
255,64,179382,1,0,1:0:0:0:
256,320,179690,5,4,0:3:0:0:
256,240,179844,1,4,0:3:0:0:
256,160,179998,1,0,1:0:0:0:
376,196,180152,5,4,0:3:0:0:
360,200,180229,1,4,0:3:0:0:
376,196,180305,1,4,0:3:0:0:
392,192,180382,1,4,0:3:0:0:
376,196,180459,1,4,0:3:0:0:
376,196,180613,1,0,1:0:0:0:
136,196,180767,5,4,0:3:0:0:
152,200,180844,1,4,0:3:0:0:
136,196,180920,1,4,0:3:0:0:
120,192,180997,1,4,0:3:0:0:
136,196,181074,1,4,0:3:0:0:
136,196,181228,1,0,1:0:0:0:
256,320,181382,5,4,0:3:0:0:
240,320,181459,1,4,0:3:0:0:
256,320,181536,1,4,0:3:0:0:
272,320,181613,1,4,0:3:0:0:
256,320,181690,1,4,0:3:0:0:
256,320,181844,1,0,1:0:0:0:
256,160,182151,6,0,B|256:123|256:123|256:195|256:195|256:123|256:123|256:195|256:195|256:123|256:123|256:195|256:195|256:123|256:123|256:195|256:195|256:123|256:123|256:195|256:195|256:123|256:123|256:195|256:195|256:160,1,863.999927856448,4|0,0:3|0:0,0:0:0:0:
256,160,183536,6,0,B|231:160|216:176|210:218|242:233|269:233|301:218|296:176|280:160|256:160,1,179.999990463257,2|2,0:0|0:0,0:0:0:0:
257,160,183689,6,0,B|219:160|197:183|188:246|236:268|276:268|324:246|316:183|292:160|257:160,1,269.999985694885,2|2,0:0|0:0,0:0:0:0:
257,160,183843,6,0,B|207:160|177:192|165:276|229:306|283:306|347:276|337:192|305:160|257:160,1,359.999980926514,2|2,0:0|0:0,0:0:0:0:
424,336,184151,22,0,B|446:339|465:327|477:286|448:266|422:261|388:270|387:313|399:331|424:336,1,179.999990463257,2|2,0:0|0:0,0:0:0:0:
424,336,184305,6,0,B|458:342|486:323|504:262|461:232|422:225|370:239|368:302|386:329|424:336,1,269.999995994568,2|2,0:0|0:0,0:0:0:0:
423,335,184458,6,0,B|471:344|508:318|532:237|474:196|421:187|353:205|350:290|374:327|424:336,1,359.999980926514,2|2,0:0|0:0,0:0:0:0:
87,336,184766,22,0,B|64:339|45:327|33:286|62:266|88:261|122:270|123:313|111:331|87:336,1,179.999990463257,2|2,0:0|0:0,0:0:0:0:
88,336,184920,6,0,B|53:342|25:323|7:262|50:232|89:225|141:239|143:302|125:329|88:336,1,269.999995994568,2|2,0:0|0:0,0:0:0:0:
88,335,185074,6,0,B|40:344|3:318|-20:237|37:196|90:187|158:205|161:290|137:327|88:336,1,359.999980926514,2|2,0:0|0:0,0:0:0:0:
256,440,185382,5,2,0:0:0:0:
256,436,185458,1,2,0:0:0:0:
256,432,185535,1,2,0:0:0:0:
256,428,185612,1,2,0:0:0:0:
256,424,185689,1,2,0:0:0:0:
256,380,185843,1,2,0:0:0:0:
256,336,185997,53,2,0:0:0:0:
256,332,186073,1,2,0:0:0:0:
256,328,186150,1,2,0:0:0:0:
256,324,186227,1,2,0:0:0:0:
256,320,186305,1,2,0:0:0:0:
256,276,186458,1,2,0:0:0:0:
256,232,186613,53,2,0:0:0:0:
256,228,186689,1,2,0:0:0:0:
256,224,186766,1,2,0:0:0:0:
256,220,186843,1,2,0:0:0:0:
256,216,186921,1,2,0:0:0:0:
256,172,187074,1,2,0:0:0:0:
256,128,187228,53,2,0:0:0:0:
256,124,187304,1,2,0:0:0:0:
256,120,187381,1,2,0:0:0:0:
256,116,187458,1,2,0:0:0:0:
256,112,187536,1,2,0:0:0:0:
256,68,187689,1,2,0:0:0:0:
256,24,187844,53,2,0:0:0:0:
256,20,187920,1,2,0:0:0:0:
256,16,187997,1,2,0:0:0:0:
256,12,188074,1,2,0:0:0:0:
256,8,188152,1,2,0:0:0:0:
256,68,188305,54,0,L|256:69,1,1.12499994039536,2|0,0:0|0:0,0:0:0:0:
372,264,191997,6,0,B|426:240|466:275|466:275|426:240|372:264|372:264|426:240|466:275|466:275|426:240|372:264,1,403.19998355957,2|0,1:0|0:0,0:0:0:0:
100,332,192458,1,0,0:0:0:0:
140,264,192612,6,0,B|86:240|46:275|46:275|86:240|140:264|140:264|86:240|46:275|46:275|86:240|140:264,1,403.19998355957,2|0,3:1|0:0,0:0:0:0:
412,332,193073,1,0,3:2:0:0:
136,84,193227,6,0,B|148:116|148:116|144:182|144:182|148:116|148:116|136:84|136:84|148:116|148:116|144:182,1,302.399987669678,0|0,3:3|0:0,0:0:0:0:
376,84,193535,2,0,B|363:116|363:116|367:182|367:182|363:116|363:116|376:84|376:84|363:116|363:116|367:182,1,302.399987669678,2|0,3:2|0:0,0:0:0:0:
143,183,193843,6,0,B|138:284|138:284|143:183|143:183|138:284,1,302.399987669678,0|0,3:0|0:0,0:0:0:0:
367,182,194150,2,0,B|372:283|372:283|367:182|367:182|372:283,1,302.399987669678,0|0,3:0|0:0,0:0:0:0:
136,84,194458,6,0,B|147:115|147:115|143:183|143:183|147:115|147:115|136:84|136:84|147:115|147:115|143:183|143:183|147:115|147:115|136:84,1,403.19998355957,2|0,0:1|0:0,0:0:0:0:
138,283,194920,1,0,0:0:0:0:
376,84,195073,6,0,B|364:115|364:115|368:183|368:183|364:115|364:115|376:84|376:84|364:115|364:115|368:183|368:183|364:115|364:115|376:84,1,403.19998355957,2|0,3:1|0:0,0:0:0:0:
374,283,195535,1,0,0:0:0:0:
224,261,195689,6,0,B|195:209|253:163|314:204|290:258|290:258|314:204|253:163|195:209|224:261|224:261|195:209|253:163|314:204|290:258|290:258|314:204|253:163|195:209|224:261|224:261|195:209|253:163|314:204|290:258,1,863.999954223634,2|0,3:1|0:0,0:0:0:0:
368,183,196304,6,0,B|373:284|373:284|368:183|368:183|373:284,1,302.399987669678,2|0,3:1|0:0,0:0:0:0:
143,183,196611,2,0,B|138:284|138:284|143:183|143:183|138:284,1,302.399987669678,2|0,3:1|0:0,0:0:0:0:
439,130,196919,6,0,B|449:331|449:331|439:130|439:130|449:331|449:331|439:130|439:130|449:332|449:332|439:130,1,1209.67737180344,2|0,3:1|0:0,0:0:0:0:
73,130,197534,2,0,B|63:331|63:331|73:130|73:130|63:331|63:331|73:130|73:130|63:332|63:332|73:130,1,1209.67737180344,2|0,3:1|0:0,0:0:0:0:
372,284,198149,6,0,B|362:122|362:122|386:54|386:54|362:122|362:122|372:284|372:284|362:122|362:122|386:54|386:54|362:122|362:122|372:284|372:284|362:122|362:122|386:54|386:54|362:122|362:122|372:284,1,1406.24986961485,2|0,3:1|0:0,0:0:0:0:
140,284,198765,1,2,3:1:0:0:
140,284,198919,2,0,B|150:122|150:122|126:54|126:54|150:122|150:122|140:284|140:284|150:122|150:122|126:54|126:54|150:122|150:122|140:284,1,937.499913076564,2|0,3:1|0:0,0:0:0:0:
288,261,199380,6,0,B|317:209|259:163|198:204|222:258|222:258|198:204|259:163|317:209|288:261|288:261|317:209|259:163|198:204|222:258|222:258|198:204|259:163|317:209|288:261|288:261|317:209|259:163|198:204|222:258,1,863.999954223634,2|0,3:1|0:0,0:0:0:0:
144,188,199995,6,0,B|139:283|139:283|144:188|144:188|139:283,1,287.999984741211,2|0,3:1|0:0,0:0:0:0:
368,188,200303,2,0,B|372:283|372:283|368:188|368:188|372:283,1,287.999984741211,2|0,3:1|0:0,0:0:0:0:
224,261,200611,38,0,B|195:209|253:163|314:204|290:258|290:258|314:204|253:163|195:209|224:261|224:261|195:209|253:163|314:204|290:258|290:258|314:204|253:163|195:209|224:261|224:261|195:209|253:163|314:204|290:258,1,863.999954223634,2|0,3:1|0:0,0:0:0:0:
355,307,201226,38,0,B|434:146|253:17|76:150|156:308|156:308|76:150|253:17|434:146|355:307|355:307|434:146|253:17|76:150|156:308|156:308|76:150|253:17|434:146|355:307|355:307|434:146|253:17|76:150|156:308,1,2591.66807410978,2|0,3:1|0:0,0:0:0:0:
112,100,201842,38,0,B|22:96|22:96|112:100|112:100|22:96|22:96|112:100,1,359.999980926514,2|0,1:0|0:0,0:0:0:0:
340,156,202303,1,0,0:0:0:0:
400,100,202457,6,0,B|490:96|490:96|400:100|400:100|490:96|490:96|400:100,1,359.999980926514,2|0,1:0|0:0,0:0:0:0:
172,156,202918,1,0,0:0:0:0:
256,368,203072,5,0,0:0:0:0:
192,320,203226,1,0,0:0:0:0:
192,320,203303,1,0,0:0:0:0:
192,320,203380,1,2,0:1:0:0:
216,244,203534,1,0,0:0:0:0:
296,244,203688,1,2,0:0:0:0:
320,320,203842,1,0,0:0:0:0:
256,368,203995,1,2,0:1:0:0:
96,180,204303,22,0,B|6:184|6:184|96:180|96:180|6:184|6:184|96:180,1,359.999980926514,2|0,1:0|0:0,0:0:0:0:
356,236,204765,1,0,0:0:0:0:
416,180,204919,6,0,B|506:184|506:184|416:180|416:180|506:184|506:184|416:180,1,359.999980926514,2|0,1:0|0:0,0:0:0:0:
156,236,205379,1,0,0:0:0:0:
256,148,205534,5,0,0:0:0:0:
216,24,205688,1,0,0:0:0:0:
216,24,205765,1,0,0:0:0:0:
216,24,205842,1,2,0:1:0:0:
320,100,205996,1,0,0:0:0:0:
192,100,206150,1,0,0:0:0:0:
296,24,206304,1,2,0:0:0:0:
256,148,206457,1,0,1:0:0:0:
492,316,206765,5,0,1:0:0:0:
430,268,206919,1,0,0:0:0:0:
430,268,206995,1,0,0:0:0:0:
430,268,207072,1,2,0:1:0:0:
352,257,207226,1,0,0:0:0:0:
280,286,207380,1,0,1:0:0:0:
232,348,207534,1,0,1:0:0:0:
160,377,207688,1,0,1:0:0:0:
82,366,207841,1,0,0:0:0:0:
21,319,207995,37,0,1:0:0:0:
79,271,208149,1,0,0:0:0:0:
79,271,208226,1,0,0:0:0:0:
79,271,208303,1,2,0:1:0:0:
158,258,208456,1,0,0:0:0:0:
231,287,208610,1,0,1:0:0:0:
280,346,208764,1,0,0:0:0:0:
353,374,208918,1,0,0:0:0:0:
429,362,209072,1,0,0:0:0:0:
492,316,209226,1,0,1:0:0:0:
176,112,209842,38,0,P|232:80|336:112,1,179.999990463257,2|0,0:3|0:0,0:0:0:0:
256,192,210457,38,2,B|208:156|273:119|377:178|298:311|168:253|155:152|307:122|256:192,1,269.999995994568,0|4,3:0|0:3,0:0:0:0:
124,332,221534,53,0,1:0:0:0:
200,216,221688,1,2,0:0:0:0:
84,140,221842,1,8,1:0:0:0:
8,256,221996,1,2,0:0:0:0:
104,236,222149,37,0,1:0:0:0:
104,236,222457,1,2,1:3:0:0:
388,284,222765,21,0,1:0:0:0:
312,168,222919,1,2,0:0:0:0:
428,92,223073,1,8,1:0:0:0:
504,208,223227,1,2,0:0:0:0:
408,188,223380,21,0,1:0:0:0:
408,188,223688,1,2,1:3:0:0:
8,128,223995,5,0,1:0:0:0:
200,168,224149,1,2,0:0:0:0:
124,52,224303,5,8,1:0:0:0:
84,244,224457,1,2,0:0:0:0:
102,152,224611,6,0,B|130:130|130:130|106:130|81:121|81:121|81:145|74:170|74:170|96:171|121:180|121:180|121:156|130:130|130:130|102:152,1,270.00002689362,0|2,1:0|0:0,0:0:0:0:
102,151,224919,6,0,B|30:139|30:139|66:174|88:224|88:224|124:189|175:166|175:166|139:131|116:80|116:80|81:116|30:139|30:139|102:151,1,562.499970197678,2|2,1:3|0:0,0:0:0:0:
312,216,225226,5,0,1:0:0:0:
504,176,225380,1,2,0:0:0:0:
388,100,225534,5,8,1:0:0:0:
428,292,225688,1,2,0:0:0:0:
406,192,225842,6,0,B|434:214|434:214|410:214|385:223|385:223|385:199|378:174|378:174|400:173|425:164|425:164|425:188|434:214|434:214|406:192,1,270.00002689362,0|2,1:0|0:0,0:0:0:0:
406,192,226149,6,0,B|478:180|478:180|442:215|420:265|420:265|384:230|333:207|333:207|369:172|392:121|392:121|427:157|478:180|478:180|406:192,1,562.499970197678,2|2,1:3|0:0,0:0:0:0:
188,304,226457,5,0,1:0:0:0:
180,224,226611,1,0,1:0:0:0:
172,144,226765,1,8,1:0:0:0:
92,152,226919,1,0,1:0:0:0:
12,160,227073,1,2,1:3:0:0:
20,240,227226,1,0,1:0:0:0:
28,320,227380,1,2,1:3:0:0:
108,312,227534,1,0,1:0:0:0:
324,304,227687,5,0,1:0:0:0:
332,224,227841,1,0,1:0:0:0:
340,144,227995,1,8,1:0:0:0:
420,152,228148,1,0,1:0:0:0:
500,160,228302,1,2,1:3:0:0:
492,240,228456,1,2,1:3:0:0:
484,320,228610,1,2,1:3:0:0:
404,312,228764,1,2,1:3:0:0:
256,172,228919,6,0,B|260:180|269:185|269:185|271:172|268:159|268:159|256:156|243:159|243:159|240:172|243:185|243:185|256:187|269:185|269:185|253:176|256:172,15,140.62499254942,0|0|0|0|8|0|0|0|2|2|2|2|2|2|2|2,1:0|1:0|1:0|1:0|1:0|1:0|1:0|1:0|1:3|1:3|1:3|1:3|1:3|1:3|1:3|1:3,0:0:0:0:
256,270,230149,6,2,B|208:270|185:250|177:238|177:238|161:215|150:172|161:128|177:105|177:105|185:93|208:74|256:74|256:74|303:74|326:93|334:105|334:105|350:128|361:172|350:215|334:238|334:238|326:250|303:270|256:270,1,629.999966621399,4|0,1:3|0:0,0:0:0:0:
64,364,232611,38,0,B|64:296|64:296|64:364|64:364|32:364|32:364|128:364|128:364|128:140|128:140|128:364|128:364|192:364|192:364|192:244|192:244|192:364|192:364|256:364|256:364|256:280|256:280|256:364|256:364|320:364|320:364|320:28|320:28|320:364|320:364|384:364|384:364|384:68|384:68|384:364|384:364|448:364|448:364|448:140|448:140|448:364|448:364|480:364|480:364|64:364,1,3599.99980926514,2|0,1:0|0:0,0:0:0:0:
448,364,232918,6,0,B|448:260|448:260|448:364|448:364|480:364|480:364|384:364|384:364|384:312|384:312|384:364|384:364|320:364|320:364|320:288|320:288|320:364|320:364|256:364|256:364|256:332|256:332|256:364|256:364|192:364|192:364|192:88|192:88|192:364|192:364|128:364|128:364|128:176|128:176|128:364|128:364|64:364|64:364|64:40|64:40|64:364|64:364|32:364|32:364|448:364,1,2999.99984105428,2|0,1:3|0:0,0:0:0:0:
64,364,233226,6,0,B|64:260|64:260|64:364|64:364|32:364|32:364|128:364|128:364|128:340|128:340|128:364|128:364|192:364|192:364|192:328|192:328|192:364|192:364|256:364|256:364|256:236|256:236|256:364|256:364|320:364|320:364|320:320|320:320|320:364|320:364|384:364|384:364|384:260|384:260|384:364|384:364|448:364|448:364|448:308|448:308|448:364|448:364|480:364|480:364|64:364,1,1499.99992052714,4|0,1:3|0:0,0:0:0:0:
448,364,233534,6,0,B|448:308|448:308|448:364|448:364|480:364|480:364|384:364|384:364|384:204|384:204|384:364|384:364|320:364|320:364|320:332|320:332|320:364|320:364|256:364|256:364|256:292|256:292|256:364|256:364|192:364|192:364|192:60|192:60|192:364|192:364|128:364|128:364|128:20|128:20|128:364|128:364|64:364|64:364|64:88|64:88|64:364|64:364|32:364|32:364|448:364,1,2999.99984105428,2|0,1:3|0:0,0:0:0:0:
64,364,233841,6,0,B|64:296|64:296|64:364|64:364|32:364|32:364|128:364|128:364|128:216|128:216|128:364|128:364|192:364|192:364|192:248|192:248|192:364|192:364|256:364|256:364|256:152|256:152|256:364|256:364|320:364|320:364|320:224|320:224|320:364|320:364|384:364|384:364|384:148|384:148|384:364|384:364|448:364|448:364|448:212|448:212|448:364|448:364|480:364|480:364|64:364,1,2999.99984105428,4|0,1:3|0:0,0:0:0:0:
448,364,234148,6,0,B|448:260|448:260|448:364|448:364|480:364|480:364|384:364|384:364|384:312|384:312|384:364|384:364|320:364|320:364|320:288|320:288|320:364|320:364|256:364|256:364|256:332|256:332|256:364|256:364|192:364|192:364|192:88|192:88|192:364|192:364|128:364|128:364|128:176|128:176|128:364|128:364|64:364|64:364|64:40|64:40|64:364|64:364|32:364|32:364|448:364,1,2999.99984105428,2|0,1:3|0:0,0:0:0:0:
64,364,234457,6,0,B|64:260|64:260|64:364|64:364|32:364|32:364|128:364|128:364|128:340|128:340|128:364|128:364|192:364|192:364|192:328|192:328|192:364|192:364|256:364|256:364|256:236|256:236|256:364|256:364|320:364|320:364|320:320|320:320|320:364|320:364|384:364|384:364|384:260|384:260|384:364|384:364|448:364|448:364|448:308|448:308|448:364|448:364|480:364|480:364|64:364,1,1499.99992052714,4|0,1:3|0:0,0:0:0:0:
448,364,234764,6,0,B|448:308|448:308|448:364|448:364|480:364|480:364|384:364|384:364|384:204|384:204|384:364|384:364|320:364|320:364|320:332|320:332|320:364|320:364|256:364|256:364|256:292|256:292|256:364|256:364|192:364|192:364|192:60|192:60|192:364|192:364|128:364|128:364|128:20|128:20|128:364|128:364|64:364|64:364|64:88|64:88|64:364|64:364|32:364|32:364|448:364,1,2999.99984105428,2|0,1:3|0:0,0:0:0:0:
64,364,235072,6,0,B|64:296|64:296|64:364|64:364|32:364|32:364|128:364|128:364|128:256|128:256|128:364|128:364|192:364|192:364|192:236|192:236|192:364|192:364|256:364|256:364|256:208|256:208|256:364|256:364|320:364|320:364|320:28|320:28|320:364|320:364|384:364|384:364|384:52|384:52|384:364|384:364|448:364|448:364|448:120|448:120|448:364|448:364|480:364|480:364|64:364,1,3599.99980926514,2|0,1:0|0:0,0:0:0:0:
448,364,235380,6,0,B|448:260|448:260|448:364|448:364|480:364|480:364|384:364|384:364|384:312|384:312|384:364|384:364|320:364|320:364|320:288|320:288|320:364|320:364|256:364|256:364|256:332|256:332|256:364|256:364|192:364|192:364|192:88|192:88|192:364|192:364|128:364|128:364|128:176|128:176|128:364|128:364|64:364|64:364|64:40|64:40|64:364|64:364|32:364|32:364|448:364,1,2999.99984105428,2|0,1:3|0:0,0:0:0:0:
64,364,235687,6,0,B|64:244|64:244|64:364|64:364|32:364|32:364|128:364|128:364|128:340|128:340|128:364|128:364|192:364|192:364|192:328|192:328|192:364|192:364|256:364|256:364|256:256|256:256|256:364|256:364|320:364|320:364|320:320|320:320|320:364|320:364|384:364|384:364|384:260|384:260|384:364|384:364|448:364|448:364|448:308|448:308|448:364|448:364|480:364|480:364|64:364,1,1499.99992052714,4|0,1:3|0:0,0:0:0:0:
448,364,235995,6,0,B|448:308|448:308|448:364|448:364|480:364|480:364|384:364|384:364|384:204|384:204|384:364|384:364|320:364|320:364|320:332|320:332|320:364|320:364|256:364|256:364|256:292|256:292|256:364|256:364|192:364|192:364|192:60|192:60|192:364|192:364|128:364|128:364|128:20|128:20|128:364|128:364|64:364|64:364|64:88|64:88|64:364|64:364|32:364|32:364|448:364,1,2999.99984105428,2|0,1:3|0:0,0:0:0:0:
64,364,236302,6,0,B|64:296|64:296|64:364|64:364|32:364|32:364|128:364|128:364|128:124|128:124|128:364|128:364|192:364|192:364|192:200|192:200|192:364|192:364|256:364|256:364|256:276|256:276|256:364|256:364|320:364|320:364|320:232|320:232|320:364|320:364|384:364|384:364|384:228|384:228|384:364|384:364|448:364|448:364|448:140|448:140|448:364|448:364|480:364|480:364|64:364,1,2999.99984105428,4|0,1:3|0:0,0:0:0:0:
448,364,236609,6,0,B|448:260|448:260|448:364|448:364|480:364|480:364|384:364|384:364|384:312|384:312|384:364|384:364|320:364|320:364|320:288|320:288|320:364|320:364|256:364|256:364|256:332|256:332|256:364|256:364|192:364|192:364|192:88|192:88|192:364|192:364|128:364|128:364|128:176|128:176|128:364|128:364|64:364|64:364|64:40|64:40|64:364|64:364|32:364|32:364|448:364,1,2999.99984105428,2|0,1:3|0:0,0:0:0:0:
64,364,236917,6,0,B|64:260|64:260|64:364|64:364|32:364|32:364|128:364|128:364|128:316|128:316|128:364|128:364|192:364|192:364|192:300|192:300|192:364|192:364|256:364|256:364|256:188|256:188|256:364|256:364|320:364|320:364|320:116|320:116|320:364|320:364|384:364|384:364|384:40|384:40|384:364|384:364|448:364|448:364|448:276|448:276|448:364|448:364|480:364|480:364|64:364,1,2999.99984105428,2|0,1:0|0:0,0:0:0:0:
448,364,237226,6,0,B|448:36|448:36|448:364|448:364|480:364|480:364|384:364|384:364|384:136|384:136|384:364|384:364|320:364|320:364|320:264|320:264|320:364|320:364|256:364|256:364|256:20|256:20|256:364|256:364|192:364|192:364|192:56|192:56|192:364|192:364|128:364|128:364|128:208|128:208|128:364|128:364|64:364|64:364|64:284|64:284|64:364|64:364|32:364|32:364|448:364,1,3599.99980926514,2|0,1:3|0:0,0:0:0:0:
44,108,237534,6,0,B|136:108|136:108|168:-4|168:-4|232:196|232:196|264:108|264:108|484:108,1,719.999961853028,2|0,1:0|0:0,0:0:0:0:
44,108,237841,6,0,B|192:108|192:108|224:-4|224:-4|288:196|288:196|320:108|320:108|484:108,1,719.999961853028,2|0,1:3|0:0,0:0:0:0:
44,108,238149,6,0,B|248:108|248:108|280:-4|280:-4|344:196|344:196|376:108|376:108|484:108,1,719.999961853028,4|0,1:3|0:0,0:0:0:0:
44,108,238457,6,0,B|304:108|304:108|336:-4|336:-4|400:196|400:196|432:108|432:108|484:108,1,719.999961853028,2|0,1:3|0:0,0:0:0:0:
44,276,238764,6,0,B|83:276|83:276|115:188|115:188|179:388|179:388|211:276|211:276|471:276,1,719.999961853028,2|0,1:0|0:0,0:0:0:0:
44,276,239072,6,0,B|139:276|139:276|171:188|171:188|235:388|235:388|267:276|267:276|471:276,1,719.999961853028,2|0,1:3|0:0,0:0:0:0:
44,276,239380,6,0,B|195:276|195:276|227:188|227:188|291:388|291:388|323:276|323:276|471:276,1,719.999961853028,4|0,1:3|0:0,0:0:0:0:
44,276,239687,6,0,B|251:276|251:276|283:188|283:188|347:388|347:388|379:276|379:276|471:276,1,719.999961853028,2|0,1:3|0:0,0:0:0:0:
256,48,239995,38,0,B|256:20|256:20|220:-16|172:24|192:80|236:92|256:120|256:120|276:92|320:80|340:24|292:-16|256:20|256:20|256:48,1,413.099996708222,2|0,1:0|1:0,0:0:0:0:
44,276,241225,38,2,B|468:276,1,423.89997915802,2|4,1:0|1:3,1:0:0:0:
296,32,242456,38,0,B|340:124|256:192|256:192|172:260|216:352,1,359.999980926514,2|0,1:0|0:0,0:0:0:0:
216,32,242763,6,0,B|172:124|256:192|256:192|340:260|296:352,1,359.999980926514,2|0,1:3|0:0,0:0:0:0:
96,152,243071,6,0,B|188:108|256:192|256:192|324:276|416:232,1,359.999980926514,4|0,1:3|0:0,0:0:0:0:
96,232,243378,6,0,B|188:276|256:192|256:192|324:108|416:152,1,359.999980926514,2|0,1:3|0:0,0:0:0:0:
414,232,243686,38,0,B|324:276|256:192|256:192|188:108|96:152,1,359.999980926514,4|0,1:3|0:0,0:0:0:0:
414,151,243993,6,0,B|324:108|256:192|256:192|188:276|96:232,1,359.999980926514,2|0,1:3|0:0,0:0:0:0:
215,350,244301,6,0,B|172:260|256:192|256:192|340:124|296:32,1,359.999980926514,4|0,1:3|0:0,0:0:0:0:
296,350,244608,6,0,B|340:260|256:192|256:192|172:124|216:32,1,359.999980926514,2|0,1:0|0:0,0:0:0:0:
296,32,244917,38,0,B|340:124|256:192|256:192|340:260|296:352,1,359.999980926514,2|0,1:0|0:0,0:0:0:0:
96,232,245225,38,0,B|188:276|256:192|256:192|324:276|416:232,1,359.999980926514,2|0,1:3|0:0,0:0:0:0:
215,32,245532,22,0,B|172:124|256:192|256:192|172:260|216:352,1,359.999980926514,4|0,1:3|0:0,0:0:0:0:
415,151,245840,6,0,B|324:108|256:192|256:192|188:108|96:152,1,359.999980926514,2|0,1:3|0:0,0:0:0:0:
415,232,246148,6,0,B|324:276|256:192|256:192|188:276|96:232,1,359.999980926514,4|0,1:3|0:0,0:0:0:0:
216,32,246456,22,0,B|172:124|256:192|256:192|340:260|296:352,1,359.999980926514,2|0,1:3|0:0,0:0:0:0:
296,32,246763,38,0,B|340:124|256:192|256:192|172:260|216:352,1,359.999980926514,4|0,1:3|0:0,0:0:0:0:
96,151,247071,22,0,B|188:108|256:192|256:192|324:108|416:152,1,359.999980926514,2|0,1:3|0:0,0:0:0:0:
113,308,247379,5,4,1:3:0:0:
97,232,247532,1,2,0:0:0:0:
21,248,247686,1,2,1:0:0:0:
37,324,247840,1,2,0:0:0:0:
312,108,247994,37,4,1:3:0:0:
328,32,248148,1,2,0:0:0:0:
404,48,248302,1,2,3:0:0:0:
388,124,248455,1,2,0:0:0:0:
200,108,248609,53,4,1:3:0:0:
184,32,248763,1,2,0:0:0:0:
108,48,248917,1,2,1:0:0:0:
124,124,249070,1,2,0:0:0:0:
399,308,249225,5,4,1:3:0:0:
415,232,249378,1,2,0:0:0:0:
491,248,249532,1,2,3:0:0:0:
475,324,249686,1,2,0:0:0:0:
68,280,249840,5,4,1:3:0:0:
152,80,249994,1,4,1:3:0:0:
360,80,250148,1,4,1:3:0:0:
444,280,250302,1,4,1:3:0:0:
68,280,250456,6,0,B|96:233|96:233|20:248|20:248|36:324|36:324|112:308|112:308|96:233|96:233|68:280,1,418.604628984319,8|0,1:3|0:0,0:0:0:0:
152,80,250609,2,0,B|180:33|180:33|104:48|104:48|120:124|120:124|196:108|196:108|180:33|180:33|152:80,1,418.604628984319,8|0,1:3|0:0,0:0:0:0:
360,80,250763,2,0,B|332:33|332:33|408:48|408:48|392:124|392:124|316:108|316:108|332:33|332:33|360:80,1,418.604628984319,8|0,1:3|0:0,0:0:0:0:
444,280,250917,2,0,B|416:233|416:233|492:248|492:248|476:324|476:324|400:308|400:308|416:233|416:233|444:280,1,418.604628984319,8|0,1:3|0:0,0:0:0:0:
256,232,251071,5,4,0:3:0:0:
256,232,251225,2,2,B|200:157|142:258|234:419|440:297|350:95|194:75|147:311|256:232,1,418.604628984319,4|2,0:3|0:0,0:0:0:0:
256,232,251379,1,2,1:0:0:0:
256,232,251532,1,4,1:3:0:0:
256,232,251686,1,4,1:3:0:0:
256,232,251994,53,8,1:3:0:0:
44,300,252302,6,0,P|36:180|144:84,1,269.999995994568,2|2,1:0|1:3,0:0:0:0:
156,160,252686,1,0,1:0:0:0:
118,181,252762,1,0,1:0:0:0:
100,222,252839,1,0,1:0:0:0:
110,264,252917,38,0,P|159:159|255:239,1,269.999995994568,0|2,1:0|1:3,0:0:0:0:
180,233,253378,1,0,1:0:0:0:
139,85,253532,38,0,P|88:109|34:193,1,134.999997997284,0|0,1:0|0:0,0:0:0:0:
44,299,253840,54,0,P|27:235|41:170,1,134.999997997284,2|0,1:3|0:0,0:0:0:0:
255,231,254148,38,0,P|162:158|110:264,1,269.999995994568,0|2,1:0|1:3,0:0:0:0:
468,300,254763,38,0,P|476:180|368:84,1,269.999995994568,2|2,1:0|1:3,0:0:0:0:
356,160,255147,1,0,1:0:0:0:
394,181,255223,1,0,1:0:0:0:
412,222,255300,1,0,1:0:0:0:
402,264,255378,38,0,P|352:159|256:239,1,269.999995994568,0|2,1:0|1:3,0:0:0:0:
332,233,255839,1,0,1:0:0:0:
373,85,255993,38,0,P|424:109|478:193,1,134.999997997284,0|0,1:0|0:0,0:0:0:0:
469,300,256302,54,0,P|485:235|471:170,1,134.999997997284,2|0,1:3|0:0,0:0:0:0:
372,85,256609,38,0,P|471:169|468:300,1,269.999995994568,2|0,1:0|0:0,0:0:0:0:
471,170,256917,54,0,P|371:84|243:109,1,269.999995994568,2|0,1:3|0:0,0:0:0:0:
179,224,257225,38,2,P|370:85|469:300,1,539.999991989136,2|2,1:0|1:3,0:3:0:0:
332,224,257686,1,0,0:0:0:0:
332,224,257840,2,0,P|141:85|43:300,1,539.999991989136,2|2,1:0|1:3,0:0:0:0:
180,224,258302,1,0,0:0:0:0:
332,224,258455,6,2,P|43:301|68:131,1,539.999991989136,2|2,1:0|1:3,0:3:0:0:
180,224,258917,1,0,0:0:0:0:
179,224,259071,2,2,P|469:301|444:131,1,539.999991989136,2|2,1:0|1:3,0:3:0:0:
332,224,259532,1,0,0:0:0:0:
172,89,259686,6,0,L|179:224,1,134.999997997284,2|0,1:0|0:0,0:0:0:0:
339,89,259994,2,0,L|333:224,1,134.999997997284,2|0,1:3|0:0,0:0:0:0:
88,56,260302,6,0,L|100:325,1,269.999995994568,2|0,1:0|0:0,0:0:0:0:
424,56,260609,2,0,L|411:325,1,269.999995994568,2|0,1:3|0:0,0:0:0:0:
0,156,260917,22,2,B|16:272|148:288|232:232|112:140|256:108|400:140|280:232|364:288|496:272|512:156,1,639.810381074691,2|0,1:0|1:3,0:1:0:0:
256,256,262147,37,4,1:3:0:0:
256,336,262300,1,4,0:3:0:0:
326,216,262454,1,0,1:3:0:0:
186,216,262608,1,2,0:2:0:0:
364,144,262762,38,0,P|400:184|388:268,1,134.999997997284,4|0,1:3|0:0,0:0:0:0:
148,144,263070,2,0,P|112:184|124:268,1,134.999997997284,2|0,1:3|0:0,0:0:0:0:
402,72,263377,38,0,P|474:152|450:320,1,269.999995994568,4|0,1:3|1:0,0:0:0:0:
393,260,263762,1,0,1:0:0:0:
406,218,263838,1,0,1:0:0:0:
396,176,263915,1,0,1:0:0:0:
365,144,263993,38,0,P|405:218|271:288,1,269.999995994568,4|2,1:3|1:3,0:0:0:0:
256,40,264608,37,4,1:3:0:0:
326,160,264761,1,4,0:3:0:0:
186,160,264915,1,2,1:3:0:0:
256,120,265069,1,2,0:0:0:0:
148,232,265223,38,0,P|112:192|124:108,1,134.999997997284,4|0,1:3|0:0,0:0:0:0:
364,232,265531,2,0,P|400:192|388:108,1,134.999997997284,2|0,1:3|0:0,0:0:0:0:
110,304,265838,38,0,P|38:224|62:56,1,269.999995994568,4|0,1:3|1:0,0:0:0:0:
118,115,266223,1,0,1:0:0:0:
105,157,266299,1,0,1:0:0:0:
116,200,266376,1,0,1:0:0:0:
147,231,266454,38,0,P|107:157|241:87,1,269.999995994568,4|2,1:3|1:3,0:0:0:0:
404,320,267070,38,0,L|312:332,1,89.9999952316285,4|0,0:3|0:0,0:0:0:0:
492,308,267377,54,0,L|215:344,1,269.999995994568,2|0,1:0|0:0,0:0:0:0:
147,231,267685,38,0,L|239:243,1,89.9999952316285,4|0,0:3|0:0,0:0:0:0:
57,219,267993,54,0,L|241:243,1,179.999990463257,2|0,0:3|0:0,0:0:0:0:
392,124,268300,70,0,L|300:136,1,89.9999952316285,4|0,0:3|0:0,0:0:0:0:
480,112,268608,54,0,L|203:148,1,269.999995994568,2|0,1:0|0:0,0:0:0:0:
135,35,268916,38,0,L|227:47,1,89.9999952316285,4|0,0:3|0:0,0:0:0:0:
45,23,269223,54,0,L|229:47,1,179.999990463257,2|0,0:3|0:0,0:0:0:0:
224,342,269531,5,4,0:3:0:0:
235,242,269685,1,2,0:0:0:0:
212,146,269839,1,2,1:0:0:0:
223,46,269993,1,2,0:0:0:0:
235,242,270147,85,4,0:3:0:0:
224,342,270454,1,8,3:0:0:0:
213,442,270762,1,4,3:0:0:0:
256,192,270839,12,4,271993,0:0:0:0:
