osu file format v14

[General]
AudioFilename: 13. Helblinde - Memoria Reborn.mp3
AudioLeadIn: 1500
PreviewTime: 87640
Countdown: 0
SampleSet: None
StackLeniency: 0.7
Mode: 3
LetterboxInBreaks: 0
SpecialStyle: 0
WidescreenStoryboard: 0

[Editor]
DistanceSpacing: 1
BeatDivisor: 4
GridSize: 16
TimelineZoom: 1

[Metadata]
Title:Memoria Reborn
TitleUnicode:Memoria Reborn
Artist:Helblinde
ArtistUnicode:Helblinde
Creator:Fullerene-
Version:Rebirth
Source:
Tags:life starts at 200 bpm j-core gaijincore
BeatmapID:777351
BeatmapSetID:352755

[Difficulty]
HPDrainRate:8
CircleSize:4
OverallDifficulty:5.5
ApproachRate:9
SliderMultiplier:1.4
SliderTickRate:1

[Events]
//Background and Video events
0,0,"bg.png",0,0
//Break Periods
//Storyboard Layer 0 (Background)
//Storyboard Layer 1 (Fail)
//Storyboard Layer 2 (Pass)
//Storyboard Layer 3 (Foreground)
//Storyboard Sound Samples

[TimingPoints]
40.363,300,4,1,0,15,1,0

[HitObjects]
64,0,70,5,0,1:0:0:0:
448,0,70,128,0,145:0:0:0:0:
192,0,115,1,0,1:0:0:0:
64,0,190,1,0,1:0:0:0:
192,0,265,1,0,1:0:0:0:
320,0,340,1,0,1:0:0:0:
448,0,340,1,0,1:0:0:0:
64,0,415,1,0,1:0:0:0:
192,0,490,1,0,1:0:0:0:
320,0,565,1,0,1:0:0:0:
64,0,640,1,0,1:0:0:0:
448,0,640,1,0,1:0:0:0:
192,0,715,1,0,1:0:0:0:
64,0,790,1,0,1:0:0:0:
192,0,865,1,0,1:0:0:0:
320,0,940,128,0,977:0:0:0:0:
448,0,940,1,0,1:0:0:0:
64,0,1015,1,0,1:0:0:0:
192,0,1090,128,0,1127:0:0:0:0:
320,0,1165,1,0,1:0:0:0:
64,0,1240,1,0,1:0:0:0:
448,0,1240,1,0,1:0:0:0:
320,0,1315,1,0,1:0:0:0:
448,0,1390,1,0,1:0:0:0:
320,0,1465,1,0,1:0:0:0:
64,0,1540,1,0,1:0:0:0:
192,0,1540,128,0,1577:0:0:0:0:
448,0,1615,1,0,1:0:0:0:
320,0,1690,1,0,1:0:0:0:
192,0,1765,1,0,1:0:0:0:
64,0,1840,128,0,1877:0:0:0:0:
448,0,1840,1,0,1:0:0:0:
320,0,1915,1,0,1:0:0:0:
448,0,1990,128,0,2027:0:0:0:0:
320,0,2065,1,0,1:0:0:0:
64,0,2140,1,0,1:0:0:0:
192,0,2140,128,0,2177:0:0:0:0:
448,0,2215,1,0,1:0:0:0:
320,0,2290,1,0,1:0:0:0:
192,0,2365,1,0,1:0:0:0:
64,0,2440,1,0,1:0:0:0:
448,0,2440,1,0,1:0:0:0:
320,0,2515,1,0,1:0:0:0:
64,0,2590,1,0,1:0:0:0:
320,0,2665,1,0,1:0:0:0:
192,0,2740,1,0,1:0:0:0:
448,0,2740,1,0,1:0:0:0:
64,0,2815,1,0,1:0:0:0:
320,0,2890,1,0,1:0:0:0:
192,0,2965,1,0,1:0:0:0:
64,0,3040,1,0,1:0:0:0:
448,0,3040,1,0,1:0:0:0:
320,0,3115,1,0,1:0:0:0:
64,0,3190,1,0,1:0:0:0:
320,0,3265,1,0,1:0:0:0:
192,0,3340,1,0,1:0:0:0:
448,0,3340,1,0,1:0:0:0:
64,0,3415,1,0,1:0:0:0:
320,0,3490,1,0,1:0:0:0:
192,0,3565,1,0,1:0:0:0:
64,0,3640,1,0,1:0:0:0:
448,0,3640,1,0,1:0:0:0:
192,0,3715,1,0,1:0:0:0:
448,0,3790,1,0,1:0:0:0:
192,0,3865,1,0,1:0:0:0:
64,0,3940,1,0,1:0:0:0:
320,0,3940,1,0,1:0:0:0:
448,0,4015,1,0,1:0:0:0:
192,0,4090,1,0,1:0:0:0:
320,0,4165,1,0,1:0:0:0:
64,0,4240,1,0,1:0:0:0:
448,0,4240,1,0,1:0:0:0:
192,0,4315,1,0,1:0:0:0:
448,0,4390,1,0,1:0:0:0:
192,0,4465,1,0,1:0:0:0:
64,0,4540,1,0,1:0:0:0:
320,0,4540,1,0,1:0:0:0:
448,0,4615,1,0,1:0:0:0:
192,0,4690,128,0,4727:0:0:0:0:
320,0,4765,1,0,1:0:0:0:
64,0,4840,128,0,4915:0:0:0:0:
448,0,4840,128,0,4877:0:0:0:0:
192,0,4915,1,0,1:0:0:0:
320,0,4990,128,0,5027:0:0:0:0:
192,0,5065,1,0,1:0:0:0:
320,0,5140,1,0,1:0:0:0:
448,0,5140,1,0,1:0:0:0:
64,0,5215,1,0,1:0:0:0:
192,0,5290,1,0,1:0:0:0:
320,0,5365,1,0,1:0:0:0:
64,0,5440,1,0,1:0:0:0:
448,0,5440,1,0,1:0:0:0:
320,0,5515,1,0,1:0:0:0:
192,0,5590,1,0,1:0:0:0:
320,0,5665,1,0,1:0:0:0:
64,0,5740,128,0,5777:0:0:0:0:
192,0,5740,1,0,1:0:0:0:
448,0,5815,1,0,1:0:0:0:
320,0,5890,128,0,5927:0:0:0:0:
192,0,5965,1,0,1:0:0:0:
64,0,6040,1,0,1:0:0:0:
448,0,6040,1,0,1:0:0:0:
192,0,6115,1,0,1:0:0:0:
320,0,6190,1,0,1:0:0:0:
192,0,6265,1,0,1:0:0:0:
320,0,6340,128,0,6377:0:0:0:0:
448,0,6340,1,0,1:0:0:0:
64,0,6415,1,0,1:0:0:0:
192,0,6490,128,0,6527:0:0:0:0:
320,0,6565,1,0,1:0:0:0:
64,0,6640,1,0,1:0:0:0:
448,0,6640,128,0,6677:0:0:0:0:
320,0,6715,1,0,1:0:0:0:
192,0,6790,128,0,6827:0:0:0:0:
320,0,6865,1,0,1:0:0:0:
64,0,6940,1,0,1:0:0:0:
192,0,6940,1,0,1:0:0:0:
448,0,7015,1,0,1:0:0:0:
320,0,7090,1,0,1:0:0:0:
192,0,7165,1,0,1:0:0:0:
64,0,7240,1,0,1:0:0:0:
448,0,7240,1,0,1:0:0:0:
320,0,7315,1,0,1:0:0:0:
192,0,7390,1,0,1:0:0:0:
320,0,7465,1,0,1:0:0:0:
64,0,7540,1,0,1:0:0:0:
448,0,7540,1,0,1:0:0:0:
192,0,7615,1,0,1:0:0:0:
64,0,7690,1,0,1:0:0:0:
192,0,7765,1,0,1:0:0:0:
320,0,7840,1,0,1:0:0:0:
448,0,7840,1,0,1:0:0:0:
64,0,7915,1,0,1:0:0:0:
192,0,7990,1,0,1:0:0:0:
320,0,8065,1,0,1:0:0:0:
64,0,8140,1,0,1:0:0:0:
448,0,8140,1,0,1:0:0:0:
192,0,8215,1,0,1:0:0:0:
320,0,8290,1,0,1:0:0:0:
192,0,8365,1,0,1:0:0:0:
64,0,8440,1,0,1:0:0:0:
448,0,8440,1,0,1:0:0:0:
320,0,8515,1,0,1:0:0:0:
448,0,8590,1,0,1:0:0:0:
320,0,8665,1,0,1:0:0:0:
64,0,8740,1,0,1:0:0:0:
192,0,8740,1,0,1:0:0:0:
448,0,8815,1,0,1:0:0:0:
320,0,8890,1,0,1:0:0:0:
192,0,8965,1,0,1:0:0:0:
64,0,9040,1,0,1:0:0:0:
448,0,9040,1,0,1:0:0:0:
320,0,9115,1,0,1:0:0:0:
448,0,9190,1,0,1:0:0:0:
320,0,9265,1,0,1:0:0:0:
64,0,9640,128,0,9715:0:0:0:0:
448,0,9640,1,0,1:0:0:0:
320,0,9715,1,0,1:0:0:0:
192,0,9790,1,0,1:0:0:0:
320,0,9865,1,0,1:0:0:0:
64,0,9940,1,0,1:0:0:0:
192,0,9940,1,0,1:0:0:0:
448,0,9940,1,0,1:0:0:0:
320,0,10015,1,0,1:0:0:0:
192,0,10090,1,0,1:0:0:0:
64,0,10165,1,0,1:0:0:0:
320,0,10240,1,0,1:0:0:0:
448,0,10240,1,0,1:0:0:0:
64,0,10315,1,0,1:0:0:0:
192,0,10390,1,0,1:0:0:0:
320,0,10465,1,0,1:0:0:0:
64,0,10540,1,0,1:0:0:0:
192,0,10540,1,0,1:0:0:0:
448,0,10540,128,0,10577:0:0:0:0:
320,0,10615,1,0,1:0:0:0:
192,0,10690,128,0,10727:0:0:0:0:
320,0,10765,1,0,1:0:0:0:
64,0,10840,1,0,1:0:0:0:
448,0,10840,1,0,1:0:0:0:
192,0,10915,1,0,1:0:0:0:
320,0,10990,1,0,1:0:0:0:
192,0,11065,1,0,1:0:0:0:
64,0,11140,128,0,11177:0:0:0:0:
320,0,11140,1,0,1:0:0:0:
448,0,11140,1,0,1:0:0:0:
192,0,11215,1,0,1:0:0:0:
320,0,11290,1,0,1:0:0:0:
448,0,11365,1,0,1:0:0:0:
64,0,11440,1,0,1:0:0:0:
192,0,11440,128,0,11477:0:0:0:0:
448,0,11515,1,0,1:0:0:0:
320,0,11590,128,0,11627:0:0:0:0:
192,0,11665,1,0,1:0:0:0:
64,0,11740,1,0,1:0:0:0:
320,0,11740,1,0,1:0:0:0:
448,0,11740,128,0,11777:0:0:0:0:
192,0,11815,1,0,1:0:0:0:
320,0,11890,1,0,1:0:0:0:
192,0,11965,1,0,1:0:0:0:
64,0,12040,1,0,1:0:0:0:
448,0,12040,1,0,1:0:0:0:
320,0,12115,1,0,1:0:0:0:
192,0,12190,1,0,1:0:0:0:
64,0,12265,1,0,1:0:0:0:
192,0,12340,1,0,1:0:0:0:
320,0,12340,1,0,1:0:0:0:
448,0,12340,1,0,1:0:0:0:
64,0,12415,1,0,1:0:0:0:
192,0,12490,1,0,1:0:0:0:
320,0,12565,1,0,1:0:0:0:
64,0,12640,1,0,1:0:0:0:
448,0,12640,1,0,1:0:0:0:
192,0,12715,1,0,1:0:0:0:
320,0,12790,1,0,1:0:0:0:
448,0,12865,1,0,1:0:0:0:
64,0,12940,1,0,1:0:0:0:
192,0,12940,1,0,1:0:0:0:
320,0,12940,1,0,1:0:0:0:
448,0,13015,1,0,1:0:0:0:
320,0,13090,1,0,1:0:0:0:
192,0,13165,1,0,1:0:0:0:
64,0,13240,1,0,1:0:0:0:
448,0,13240,1,0,1:0:0:0:
320,0,13315,1,0,1:0:0:0:
192,0,13390,1,0,1:0:0:0:
64,0,13465,1,0,1:0:0:0:
192,0,13540,1,0,1:0:0:0:
320,0,13540,1,0,1:0:0:0:
448,0,13540,1,0,1:0:0:0:
64,0,13615,1,0,1:0:0:0:
192,0,13690,1,0,1:0:0:0:
320,0,13765,1,0,1:0:0:0:
64,0,13840,1,0,1:0:0:0:
448,0,13840,1,0,1:0:0:0:
192,0,13915,1,0,1:0:0:0:
320,0,13990,1,0,1:0:0:0:
448,0,14065,1,0,1:0:0:0:
64,0,14140,1,0,1:0:0:0:
192,0,14140,1,0,1:0:0:0:
320,0,14140,1,0,1:0:0:0:
448,0,14215,1,0,1:0:0:0:
320,0,14290,128,0,14327:0:0:0:0:
192,0,14365,1,0,1:0:0:0:
64,0,14440,128,0,14477:0:0:0:0:
448,0,14440,128,0,14515:0:0:0:0:
320,0,14515,1,0,1:0:0:0:
192,0,14590,128,0,14627:0:0:0:0:
448,0,14665,1,0,1:0:0:0:
64,0,14740,1,0,1:0:0:0:
192,0,14740,1,0,1:0:0:0:
320,0,14740,1,0,1:0:0:0:
448,0,14815,1,0,1:0:0:0:
192,0,14890,1,0,1:0:0:0:
320,0,14965,1,0,1:0:0:0:
64,0,15040,1,0,1:0:0:0:
448,0,15040,1,0,1:0:0:0:
192,0,15115,1,0,1:0:0:0:
320,0,15190,1,0,1:0:0:0:
64,0,15265,1,0,1:0:0:0:
192,0,15340,1,0,1:0:0:0:
320,0,15340,1,0,1:0:0:0:
448,0,15340,128,0,15377:0:0:0:0:
64,0,15415,1,0,1:0:0:0:
320,0,15490,128,0,15527:0:0:0:0:
192,0,15565,1,0,1:0:0:0:
64,0,15640,1,0,1:0:0:0:
448,0,15640,1,0,1:0:0:0:
320,0,15715,1,0,1:0:0:0:
192,0,15790,1,0,1:0:0:0:
448,0,15865,1,0,1:0:0:0:
64,0,15940,1,0,1:0:0:0:
192,0,15940,1,0,1:0:0:0:
320,0,15940,128,0,15977:0:0:0:0:
448,0,16015,1,0,1:0:0:0:
192,0,16090,128,0,16127:0:0:0:0:
320,0,16165,1,0,1:0:0:0:
64,0,16240,1,0,1:0:0:0:
448,0,16240,128,0,16277:0:0:0:0:
192,0,16315,1,0,1:0:0:0:
320,0,16390,128,0,16427:0:0:0:0:
64,0,16465,1,0,1:0:0:0:
192,0,16540,1,0,1:0:0:0:
320,0,16540,1,0,1:0:0:0:
448,0,16540,1,0,1:0:0:0:
64,0,16615,1,0,1:0:0:0:
320,0,16690,1,0,1:0:0:0:
192,0,16765,1,0,1:0:0:0:
64,0,16840,1,0,1:0:0:0:
448,0,16840,1,0,1:0:0:0:
320,0,16915,1,0,1:0:0:0:
192,0,16990,1,0,1:0:0:0:
64,0,17065,1,0,1:0:0:0:
192,0,17140,1,0,1:0:0:0:
320,0,17140,1,0,1:0:0:0:
448,0,17140,1,0,1:0:0:0:
64,0,17215,1,0,1:0:0:0:
448,0,17290,1,0,1:0:0:0:
320,0,17365,1,0,1:0:0:0:
64,0,17440,1,0,1:0:0:0:
192,0,17440,1,0,1:0:0:0:
320,0,17515,1,0,1:0:0:0:
448,0,17590,1,0,1:0:0:0:
64,0,17665,1,0,1:0:0:0:
192,0,17740,1,0,1:0:0:0:
320,0,17740,1,0,1:0:0:0:
448,0,17740,1,0,1:0:0:0:
64,0,17815,1,0,1:0:0:0:
192,0,17890,1,0,1:0:0:0:
320,0,17965,1,0,1:0:0:0:
64,0,18040,1,0,1:0:0:0:
448,0,18040,1,0,1:0:0:0:
192,0,18115,1,0,1:0:0:0:
320,0,18190,1,0,1:0:0:0:
448,0,18190,1,0,1:0:0:0:
192,0,18265,1,0,1:0:0:0:
64,0,18340,1,0,1:0:0:0:
320,0,18340,1,0,1:0:0:0:
448,0,18340,1,0,1:0:0:0:
192,0,18415,1,0,1:0:0:0:
320,0,18490,1,0,1:0:0:0:
448,0,18490,1,0,1:0:0:0:
192,0,18565,1,0,1:0:0:0:
64,0,18640,1,0,1:0:0:0:
448,0,18640,1,0,1:0:0:0:
192,0,18715,1,0,1:0:0:0:
320,0,18790,1,0,1:0:0:0:
448,0,18790,1,0,1:0:0:0:
192,0,18865,1,0,1:0:0:0:
64,0,18940,1,0,1:0:0:0:
448,0,18940,1,0,1:0:0:0:
64,0,19240,1,0,1:0:0:0:
192,0,19240,1,0,1:0:0:0:
448,0,19240,1,0,1:0:0:0:
320,0,19315,1,0,1:0:0:0:
192,0,19390,1,0,1:0:0:0:
320,0,19465,1,0,1:0:0:0:
64,0,19540,1,0,1:0:0:0:
448,0,19540,1,0,1:0:0:0:
192,0,19615,1,0,1:0:0:0:
320,0,19690,1,0,1:0:0:0:
192,0,19765,1,0,1:0:0:0:
64,0,19840,1,0,1:0:0:0:
320,0,19840,1,0,1:0:0:0:
448,0,19915,1,0,1:0:0:0:
192,0,19990,1,0,1:0:0:0:
320,0,20065,1,0,1:0:0:0:
64,0,20140,1,0,1:0:0:0:
448,0,20140,1,0,1:0:0:0:
192,0,20215,1,0,1:0:0:0:
320,0,20290,1,0,1:0:0:0:
192,0,20365,1,0,1:0:0:0:
64,0,20440,1,0,1:0:0:0:
448,0,20440,1,0,1:0:0:0:
320,0,20515,1,0,1:0:0:0:
192,0,20590,1,0,1:0:0:0:
320,0,20665,1,0,1:0:0:0:
64,0,20740,1,0,1:0:0:0:
448,0,20740,1,0,1:0:0:0:
192,0,20815,1,0,1:0:0:0:
320,0,20890,1,0,1:0:0:0:
192,0,20965,1,0,1:0:0:0:
320,0,21040,1,0,1:0:0:0:
448,0,21040,1,0,1:0:0:0:
64,0,21115,1,0,1:0:0:0:
192,0,21190,1,0,1:0:0:0:
320,0,21265,1,0,1:0:0:0:
64,0,21340,1,0,1:0:0:0:
192,0,21340,1,0,1:0:0:0:
448,0,21415,1,0,1:0:0:0:
320,0,21490,1,0,1:0:0:0:
192,0,21565,1,0,1:0:0:0:
64,0,21640,1,0,1:0:0:0:
448,0,21640,1,0,1:0:0:0:
320,0,21715,1,0,1:0:0:0:
192,0,21790,1,0,1:0:0:0:
320,0,21865,1,0,1:0:0:0:
64,0,21940,1,0,1:0:0:0:
192,0,21940,1,0,1:0:0:0:
448,0,22015,1,0,1:0:0:0:
320,0,22090,1,0,1:0:0:0:
192,0,22165,1,0,1:0:0:0:
64,0,22240,1,0,1:0:0:0:
448,0,22240,1,0,1:0:0:0:
320,0,22315,1,0,1:0:0:0:
448,0,22390,1,0,1:0:0:0:
320,0,22465,1,0,1:0:0:0:
64,0,22540,1,0,1:0:0:0:
192,0,22540,1,0,1:0:0:0:
448,0,22615,1,0,1:0:0:0:
320,0,22690,1,0,1:0:0:0:
192,0,22765,1,0,1:0:0:0:
64,0,22840,1,0,1:0:0:0:
448,0,22840,1,0,1:0:0:0:
192,0,22915,1,0,1:0:0:0:
320,0,22990,1,0,1:0:0:0:
448,0,23065,1,0,1:0:0:0:
64,0,23140,1,0,1:0:0:0:
192,0,23140,1,0,1:0:0:0:
448,0,23215,1,0,1:0:0:0:
320,0,23290,1,0,1:0:0:0:
192,0,23365,1,0,1:0:0:0:
64,0,23440,1,0,1:0:0:0:
448,0,23440,1,0,1:0:0:0:
320,0,23515,1,0,1:0:0:0:
64,0,23590,1,0,1:0:0:0:
192,0,23590,1,0,1:0:0:0:
320,0,23665,1,0,1:0:0:0:
64,0,23740,1,0,1:0:0:0:
448,0,23740,1,0,1:0:0:0:
192,0,23815,1,0,1:0:0:0:
320,0,23890,1,0,1:0:0:0:
448,0,23890,1,0,1:0:0:0:
192,0,23965,1,0,1:0:0:0:
64,0,24040,1,0,1:0:0:0:
320,0,24040,1,0,1:0:0:0:
448,0,24115,1,0,1:0:0:0:
192,0,24190,1,0,1:0:0:0:
448,0,24265,1,0,1:0:0:0:
64,0,24340,1,0,1:0:0:0:
320,0,24340,1,0,1:0:0:0:
192,0,24415,1,0,1:0:0:0:
448,0,24490,1,0,1:0:0:0:
192,0,24565,1,0,1:0:0:0:
64,0,24640,1,0,1:0:0:0:
448,0,24640,1,0,1:0:0:0:
320,0,24715,1,0,1:0:0:0:
192,0,24790,1,0,1:0:0:0:
64,0,24865,1,0,1:0:0:0:
320,0,24940,1,0,1:0:0:0:
448,0,24940,1,0,1:0:0:0:
64,0,25015,1,0,1:0:0:0:
192,0,25090,1,0,1:0:0:0:
320,0,25165,1,0,1:0:0:0:
64,0,25240,1,0,1:0:0:0:
448,0,25240,1,0,1:0:0:0:
192,0,25315,1,0,1:0:0:0:
64,0,25390,1,0,1:0:0:0:
192,0,25465,1,0,1:0:0:0:
320,0,25540,1,0,1:0:0:0:
448,0,25540,1,0,1:0:0:0:
64,0,25615,1,0,1:0:0:0:
192,0,25690,1,0,1:0:0:0:
320,0,25765,1,0,1:0:0:0:
64,0,25840,1,0,1:0:0:0:
448,0,25840,1,0,1:0:0:0:
320,0,25915,1,0,1:0:0:0:
192,0,25990,1,0,1:0:0:0:
448,0,26065,1,0,1:0:0:0:
64,0,26140,1,0,1:0:0:0:
320,0,26140,1,0,1:0:0:0:
448,0,26215,1,0,1:0:0:0:
192,0,26290,1,0,1:0:0:0:
320,0,26365,1,0,1:0:0:0:
64,0,26440,1,0,1:0:0:0:
192,0,26440,1,0,1:0:0:0:
448,0,26515,1,0,1:0:0:0:
320,0,26590,1,0,1:0:0:0:
192,0,26665,1,0,1:0:0:0:
320,0,26740,1,0,1:0:0:0:
448,0,26740,1,0,1:0:0:0:
64,0,26815,1,0,1:0:0:0:
192,0,26890,1,0,1:0:0:0:
320,0,26965,1,0,1:0:0:0:
64,0,27040,1,0,1:0:0:0:
448,0,27040,1,0,1:0:0:0:
192,0,27115,1,0,1:0:0:0:
64,0,27190,1,0,1:0:0:0:
448,0,27265,1,0,1:0:0:0:
192,0,27340,1,0,1:0:0:0:
320,0,27340,1,0,1:0:0:0:
64,0,27415,1,0,1:0:0:0:
448,0,27490,1,0,1:0:0:0:
320,0,27565,1,0,1:0:0:0:
64,0,27640,1,0,1:0:0:0:
192,0,27640,1,0,1:0:0:0:
192,0,27940,1,0,1:0:0:0:
320,0,28240,1,0,1:0:0:0:
448,0,28390,1,0,1:0:0:0:
64,0,28540,1,0,1:0:0:0:
192,0,28540,1,0,1:0:0:0:
64,0,28690,1,0,1:0:0:0:
320,0,28690,1,0,1:0:0:0:
64,0,28840,1,0,1:0:0:0:
448,0,28840,1,0,1:0:0:0:
192,0,28915,1,0,1:0:0:0:
320,0,28915,1,0,1:0:0:0:
448,0,28990,1,0,1:0:0:0:
320,0,29065,1,0,1:0:0:0:
64,0,29140,1,0,1:0:0:0:
192,0,29140,1,0,1:0:0:0:
448,0,29215,1,0,1:0:0:0:
320,0,29290,1,0,1:0:0:0:
64,0,29365,1,0,1:0:0:0:
192,0,29440,1,0,1:0:0:0:
448,0,29440,1,0,1:0:0:0:
64,0,29515,1,0,1:0:0:0:
320,0,29515,1,0,1:0:0:0:
192,0,29590,1,0,1:0:0:0:
320,0,29665,1,0,1:0:0:0:
64,0,29740,1,0,1:0:0:0:
448,0,29740,1,0,1:0:0:0:
192,0,29815,1,0,1:0:0:0:
320,0,29890,1,0,1:0:0:0:
448,0,29965,1,0,1:0:0:0:
64,0,30040,1,0,1:0:0:0:
192,0,30040,1,0,1:0:0:0:
320,0,30115,1,0,1:0:0:0:
448,0,30115,1,0,1:0:0:0:
192,0,30190,1,0,1:0:0:0:
448,0,30265,1,0,1:0:0:0:
64,0,30340,1,0,1:0:0:0:
320,0,30340,1,0,1:0:0:0:
192,0,30415,1,0,1:0:0:0:
64,0,30490,1,0,1:0:0:0:
192,0,30565,1,0,1:0:0:0:
320,0,30640,1,0,1:0:0:0:
448,0,30640,1,0,1:0:0:0:
64,0,30715,1,0,1:0:0:0:
192,0,30715,1,0,1:0:0:0:
320,0,30790,1,0,1:0:0:0:
448,0,30790,1,0,1:0:0:0:
64,0,30865,1,0,1:0:0:0:
192,0,30940,1,0,1:0:0:0:
448,0,30940,1,0,1:0:0:0:
320,0,31015,1,0,1:0:0:0:
64,0,31090,1,0,1:0:0:0:
192,0,31090,1,0,1:0:0:0:
320,0,31165,1,0,1:0:0:0:
64,0,31240,1,0,1:0:0:0:
448,0,31240,1,0,1:0:0:0:
192,0,31315,1,0,1:0:0:0:
320,0,31315,1,0,1:0:0:0:
64,0,31390,1,0,1:0:0:0:
192,0,31465,1,0,1:0:0:0:
320,0,31540,1,0,1:0:0:0:
448,0,31540,1,0,1:0:0:0:
192,0,31615,1,0,1:0:0:0:
448,0,31690,1,0,1:0:0:0:
320,0,31765,1,0,1:0:0:0:
64,0,31840,1,0,1:0:0:0:
192,0,31840,1,0,1:0:0:0:
320,0,31915,1,0,1:0:0:0:
448,0,31915,1,0,1:0:0:0:
192,0,31990,1,0,1:0:0:0:
448,0,32065,1,0,1:0:0:0:
64,0,32140,1,0,1:0:0:0:
320,0,32140,1,0,1:0:0:0:
192,0,32215,1,0,1:0:0:0:
64,0,32290,1,0,1:0:0:0:
192,0,32365,1,0,1:0:0:0:
320,0,32440,1,0,1:0:0:0:
448,0,32440,1,0,1:0:0:0:
64,0,32515,1,0,1:0:0:0:
192,0,32515,1,0,1:0:0:0:
320,0,32590,1,0,1:0:0:0:
448,0,32665,1,0,1:0:0:0:
64,0,32740,1,0,1:0:0:0:
192,0,32740,1,0,1:0:0:0:
448,0,32815,1,0,1:0:0:0:
320,0,32890,1,0,1:0:0:0:
192,0,32965,1,0,1:0:0:0:
64,0,33040,1,0,1:0:0:0:
320,0,33040,1,0,1:0:0:0:
192,0,33115,1,0,1:0:0:0:
448,0,33115,1,0,1:0:0:0:
320,0,33190,1,0,1:0:0:0:
64,0,33265,1,0,1:0:0:0:
192,0,33340,1,0,1:0:0:0:
448,0,33340,1,0,1:0:0:0:
320,0,33415,1,0,1:0:0:0:
448,0,33490,1,0,1:0:0:0:
320,0,33565,1,0,1:0:0:0:
64,0,33640,1,0,1:0:0:0:
192,0,33640,1,0,1:0:0:0:
320,0,33715,1,0,1:0:0:0:
448,0,33715,1,0,1:0:0:0:
64,0,33790,1,0,1:0:0:0:
192,0,33865,1,0,1:0:0:0:
320,0,33940,1,0,1:0:0:0:
448,0,33940,1,0,1:0:0:0:
192,0,34015,1,0,1:0:0:0:
320,0,34090,1,0,1:0:0:0:
448,0,34165,1,0,1:0:0:0:
64,0,34240,1,0,1:0:0:0:
192,0,34240,1,0,1:0:0:0:
320,0,34315,1,0,1:0:0:0:
448,0,34315,1,0,1:0:0:0:
192,0,34390,1,0,1:0:0:0:
320,0,34465,1,0,1:0:0:0:
64,0,34540,1,0,1:0:0:0:
448,0,34540,1,0,1:0:0:0:
192,0,34615,1,0,1:0:0:0:
320,0,34690,1,0,1:0:0:0:
448,0,34765,1,0,1:0:0:0:
64,0,34840,1,0,1:0:0:0:
192,0,34840,1,0,1:0:0:0:
320,0,34915,1,0,1:0:0:0:
448,0,34915,1,0,1:0:0:0:
64,0,34990,1,0,1:0:0:0:
192,0,35065,1,0,1:0:0:0:
320,0,35140,1,0,1:0:0:0:
448,0,35140,1,0,1:0:0:0:
64,0,35215,1,0,1:0:0:0:
192,0,35290,1,0,1:0:0:0:
320,0,35365,1,0,1:0:0:0:
64,0,35440,1,0,1:0:0:0:
448,0,35440,1,0,1:0:0:0:
192,0,35515,1,0,1:0:0:0:
320,0,35515,1,0,1:0:0:0:
64,0,35590,1,0,1:0:0:0:
448,0,35590,1,0,1:0:0:0:
192,0,35665,1,0,1:0:0:0:
320,0,35740,1,0,1:0:0:0:
448,0,35740,1,0,1:0:0:0:
64,0,35815,1,0,1:0:0:0:
192,0,35890,1,0,1:0:0:0:
448,0,35890,1,0,1:0:0:0:
320,0,35965,1,0,1:0:0:0:
64,0,36040,1,0,1:0:0:0:
192,0,36040,1,0,1:0:0:0:
320,0,36115,1,0,1:0:0:0:
448,0,36115,1,0,1:0:0:0:
192,0,36190,1,0,1:0:0:0:
320,0,36265,1,0,1:0:0:0:
64,0,36340,1,0,1:0:0:0:
448,0,36340,1,0,1:0:0:0:
192,0,36415,1,0,1:0:0:0:
320,0,36490,1,0,1:0:0:0:
192,0,36565,1,0,1:0:0:0:
320,0,36640,1,0,1:0:0:0:
448,0,36640,1,0,1:0:0:0:
64,0,36715,1,0,1:0:0:0:
192,0,36715,1,0,1:0:0:0:
448,0,36790,1,0,1:0:0:0:
64,0,36865,1,0,1:0:0:0:
192,0,36940,1,0,1:0:0:0:
448,0,36940,1,0,1:0:0:0:
320,0,37015,1,0,1:0:0:0:
192,0,37090,1,0,1:0:0:0:
320,0,37165,1,0,1:0:0:0:
64,0,37240,1,0,1:0:0:0:
448,0,37240,1,0,1:0:0:0:
192,0,37290,1,0,1:0:0:0:
320,0,37340,1,0,1:0:0:0:
64,0,37390,1,0,1:0:0:0:
192,0,37440,1,0,1:0:0:0:
448,0,37490,1,0,1:0:0:0:
320,0,37540,1,0,1:0:0:0:
192,0,37590,1,0,1:0:0:0:
64,0,37640,1,0,1:0:0:0:
320,0,37690,1,0,1:0:0:0:
448,0,37690,1,0,1:0:0:0:
192,0,37740,1,0,1:0:0:0:
64,0,37790,1,0,1:0:0:0:
320,0,37840,1,0,1:0:0:0:
448,0,37840,1,0,1:0:0:0:
64,0,37890,1,0,1:0:0:0:
192,0,37940,1,0,1:0:0:0:
320,0,37990,1,0,1:0:0:0:
448,0,37990,1,0,1:0:0:0:
64,0,38040,1,0,1:0:0:0:
192,0,38090,1,0,1:0:0:0:
320,0,38140,1,0,1:0:0:0:
448,0,38140,1,0,1:0:0:0:
64,0,38190,1,0,1:0:0:0:
192,0,38240,1,0,1:0:0:0:
320,0,38290,1,0,1:0:0:0:
448,0,38290,1,0,1:0:0:0:
64,0,38340,1,0,1:0:0:0:
192,0,38390,1,0,1:0:0:0:
320,0,38440,128,0,38515:0:0:0:0:
448,0,38440,1,0,1:0:0:0:
320,0,38740,1,0,1:0:0:0:
192,0,39040,1,0,1:0:0:0:
448,0,39190,1,0,1:0:0:0:
64,0,39340,128,0,39377:0:0:0:0:
320,0,39490,128,0,39527:0:0:0:0:
192,0,39640,1,0,1:0:0:0:
320,0,39940,128,0,39977:0:0:0:0:
192,0,40240,128,0,40277:0:0:0:0:
448,0,40390,128,0,40427:0:0:0:0:
64,0,40540,128,0,40577:0:0:0:0:
320,0,40690,1,0,1:0:0:0:
192,0,40840,1,0,1:0:0:0:
320,0,41140,1,0,1:0:0:0:
192,0,41440,1,0,1:0:0:0:
448,0,41590,1,0,1:0:0:0:
64,0,41740,1,0,1:0:0:0:
320,0,41890,1,0,1:0:0:0:
192,0,42040,1,0,1:0:0:0:
320,0,42340,1,0,1:0:0:0:
192,0,42640,1,0,1:0:0:0:
448,0,42790,1,0,1:0:0:0:
64,0,42940,1,0,1:0:0:0:
320,0,43090,1,0,1:0:0:0:
192,0,43240,128,0,43315:0:0:0:0:
448,0,44140,128,0,44177:0:0:0:0:
320,0,44290,128,0,44327:0:0:0:0:
192,0,44740,128,0,44777:0:0:0:0:
64,0,44890,128,0,44927:0:0:0:0:
320,0,45040,128,0,45077:0:0:0:0:
448,0,45190,128,0,45227:0:0:0:0:
64,0,48040,128,0,48115:0:0:0:0:
448,0,48040,1,0,1:0:0:0:
448,0,48640,1,0,1:0:0:0:
320,0,48940,1,0,1:0:0:0:
192,0,49240,1,0,1:0:0:0:
192,0,50140,1,0,1:0:0:0:
320,0,50290,1,0,1:0:0:0:
64,0,50440,128,0,50515:0:0:0:0:
192,0,50440,1,0,1:0:0:0:
192,0,51340,1,0,1:0:0:0:
448,0,51640,1,0,1:0:0:0:
320,0,52240,1,0,1:0:0:0:
192,0,52540,1,0,1:0:0:0:
64,0,52840,1,0,1:0:0:0:
320,0,52840,128,0,52915:0:0:0:0:
192,0,53740,1,0,1:0:0:0:
320,0,54040,1,0,1:0:0:0:
320,0,54640,1,0,1:0:0:0:
448,0,54940,1,0,1:0:0:0:
192,0,55240,128,0,55315:0:0:0:0:
320,0,55240,1,0,1:0:0:0:
64,0,55840,1,0,1:0:0:0:
448,0,56440,1,0,1:0:0:0:
192,0,56740,1,0,1:0:0:0:
320,0,57040,1,0,1:0:0:0:
64,0,57340,1,0,1:0:0:0:
64,0,57640,128,0,57715:0:0:0:0:
192,0,57640,1,0,1:0:0:0:
448,0,58840,1,0,1:0:0:0:
320,0,59440,1,0,1:0:0:0:
192,0,59740,1,0,1:0:0:0:
64,0,60040,1,0,1:0:0:0:
448,0,60040,128,0,60115:0:0:0:0:
320,0,61240,1,0,1:0:0:0:
448,0,61840,1,0,1:0:0:0:
320,0,62140,1,0,1:0:0:0:
192,0,62440,1,0,1:0:0:0:
448,0,62440,128,0,62515:0:0:0:0:
320,0,63640,1,0,1:0:0:0:
192,0,64090,1,0,1:0:0:0:
64,0,64840,1,0,1:0:0:0:
320,0,64840,128,0,64915:0:0:0:0:
192,0,66040,1,0,1:0:0:0:
448,0,66040,128,0,66115:0:0:0:0:
320,0,66640,1,0,1:0:0:0:
192,0,67240,128,0,67690:0:0:0:0:
320,0,67240,1,0,1:0:0:0:
192,0,67840,128,0,68140:0:0:0:0:
320,0,68140,128,0,68440:0:0:0:0:
448,0,68440,128,0,69190:0:0:0:0:
64,0,69340,128,0,69490:0:0:0:0:
192,0,69640,128,0,70540:0:0:0:0:
448,0,69640,1,0,1:0:0:0:
448,0,70540,128,0,70690:0:0:0:0:
320,0,70840,128,0,71740:0:0:0:0:
192,0,71740,128,0,71890:0:0:0:0:
64,0,72040,128,0,72940:0:0:0:0:
448,0,72040,1,0,1:0:0:0:
320,0,72940,128,0,73090:0:0:0:0:
192,0,73240,128,0,74140:0:0:0:0:
320,0,74140,128,0,74290:0:0:0:0:
64,0,74440,128,0,75490:0:0:0:0:
192,0,74440,1,0,1:0:0:0:
192,0,75640,128,0,76240:0:0:0:0:
320,0,76240,128,0,76540:0:0:0:0:
192,0,76540,128,0,76690:0:0:0:0:
192,0,76840,1,0,1:0:0:0:
320,0,76840,1,0,1:0:0:0:
192,0,76990,1,0,1:0:0:0:
320,0,77140,1,0,1:0:0:0:
448,0,77140,1,0,1:0:0:0:
192,0,77290,1,0,1:0:0:0:
320,0,77440,1,0,1:0:0:0:
64,0,77590,1,0,1:0:0:0:
192,0,77740,1,0,1:0:0:0:
448,0,77740,1,0,1:0:0:0:
64,0,77890,1,0,1:0:0:0:
64,0,78040,1,0,1:0:0:0:
192,0,78190,1,0,1:0:0:0:
64,0,78340,1,0,1:0:0:0:
448,0,78340,1,0,1:0:0:0:
320,0,78490,1,0,1:0:0:0:
192,0,78640,1,0,1:0:0:0:
448,0,78790,1,0,1:0:0:0:
320,0,78940,1,0,1:0:0:0:
448,0,78940,1,0,1:0:0:0:
192,0,79090,1,0,1:0:0:0:
64,0,79240,1,0,1:0:0:0:
320,0,79240,1,0,1:0:0:0:
320,0,79390,1,0,1:0:0:0:
64,0,79540,1,0,1:0:0:0:
448,0,79540,1,0,1:0:0:0:
192,0,79690,1,0,1:0:0:0:
320,0,79840,1,0,1:0:0:0:
64,0,79990,1,0,1:0:0:0:
64,0,80140,1,0,1:0:0:0:
192,0,80140,1,0,1:0:0:0:
320,0,80290,1,0,1:0:0:0:
320,0,80440,1,0,1:0:0:0:
192,0,80590,1,0,1:0:0:0:
320,0,80740,1,0,1:0:0:0:
448,0,80740,1,0,1:0:0:0:
64,0,80890,1,0,1:0:0:0:
192,0,81040,1,0,1:0:0:0:
320,0,81190,1,0,1:0:0:0:
64,0,81340,1,0,1:0:0:0:
320,0,81340,1,0,1:0:0:0:
192,0,81490,1,0,1:0:0:0:
64,0,81640,1,0,1:0:0:0:
448,0,81640,1,0,1:0:0:0:
448,0,81790,1,0,1:0:0:0:
192,0,81940,1,0,1:0:0:0:
320,0,81940,1,0,1:0:0:0:
64,0,82090,1,0,1:0:0:0:
192,0,82240,1,0,1:0:0:0:
320,0,82390,1,0,1:0:0:0:
320,0,82540,1,0,1:0:0:0:
448,0,82540,1,0,1:0:0:0:
192,0,82690,1,0,1:0:0:0:
192,0,82840,1,0,1:0:0:0:
64,0,82990,1,0,1:0:0:0:
192,0,83140,1,0,1:0:0:0:
320,0,83140,1,0,1:0:0:0:
448,0,83290,1,0,1:0:0:0:
320,0,83440,1,0,1:0:0:0:
192,0,83590,1,0,1:0:0:0:
64,0,83740,1,0,1:0:0:0:
192,0,83740,1,0,1:0:0:0:
320,0,83890,1,0,1:0:0:0:
64,0,84040,1,0,1:0:0:0:
448,0,84040,1,0,1:0:0:0:
64,0,84190,1,0,1:0:0:0:
192,0,84340,1,0,1:0:0:0:
448,0,84340,1,0,1:0:0:0:
64,0,84790,1,0,1:0:0:0:
320,0,84940,1,0,1:0:0:0:
448,0,84940,1,0,1:0:0:0:
64,0,85090,1,0,1:0:0:0:
64,0,85240,1,0,1:0:0:0:
192,0,85540,1,0,1:0:0:0:
320,0,85540,1,0,1:0:0:0:
64,0,85990,1,0,1:0:0:0:
320,0,86140,1,0,1:0:0:0:
448,0,86140,1,0,1:0:0:0:
192,0,86440,1,0,1:0:0:0:
320,0,86440,1,0,1:0:0:0:
64,0,87640,1,0,1:0:0:0:
448,0,87640,128,0,87790:0:0:0:0:
64,0,87790,1,0,1:0:0:0:
192,0,87940,1,0,1:0:0:0:
320,0,87940,128,0,88090:0:0:0:0:
192,0,88090,1,0,1:0:0:0:
64,0,88240,128,0,88390:0:0:0:0:
320,0,88240,1,0,1:0:0:0:
320,0,88390,1,0,1:0:0:0:
192,0,88540,128,0,88765:0:0:0:0:
448,0,88540,1,0,1:0:0:0:
64,0,88840,128,0,88915:0:0:0:0:
320,0,88840,1,0,1:0:0:0:
448,0,88840,1,0,1:0:0:0:
192,0,88915,1,0,1:0:0:0:
320,0,88990,1,0,1:0:0:0:
448,0,88990,1,0,1:0:0:0:
192,0,89065,1,0,1:0:0:0:
64,0,89140,1,0,1:0:0:0:
320,0,89140,1,0,1:0:0:0:
448,0,89215,1,0,1:0:0:0:
192,0,89290,1,0,1:0:0:0:
64,0,89365,1,0,1:0:0:0:
320,0,89440,1,0,1:0:0:0:
448,0,89440,1,0,1:0:0:0:
192,0,89515,1,0,1:0:0:0:
64,0,89590,1,0,1:0:0:0:
320,0,89590,1,0,1:0:0:0:
448,0,89665,1,0,1:0:0:0:
192,0,89740,1,0,1:0:0:0:
64,0,89815,1,0,1:0:0:0:
320,0,89890,1,0,1:0:0:0:
448,0,89890,1,0,1:0:0:0:
192,0,89965,1,0,1:0:0:0:
64,0,90040,1,0,1:0:0:0:
320,0,90040,1,0,1:0:0:0:
448,0,90115,1,0,1:0:0:0:
192,0,90190,1,0,1:0:0:0:
64,0,90265,1,0,1:0:0:0:
320,0,90340,1,0,1:0:0:0:
448,0,90340,1,0,1:0:0:0:
192,0,90415,1,0,1:0:0:0:
64,0,90490,1,0,1:0:0:0:
320,0,90490,1,0,1:0:0:0:
448,0,90565,1,0,1:0:0:0:
192,0,90640,1,0,1:0:0:0:
64,0,90715,1,0,1:0:0:0:
320,0,90790,1,0,1:0:0:0:
448,0,90790,1,0,1:0:0:0:
192,0,90865,1,0,1:0:0:0:
64,0,90940,1,0,1:0:0:0:
320,0,90940,1,0,1:0:0:0:
448,0,91015,1,0,1:0:0:0:
192,0,91090,1,0,1:0:0:0:
64,0,91165,1,0,1:0:0:0:
192,0,91240,1,0,1:0:0:0:
320,0,91315,1,0,1:0:0:0:
64,0,91390,1,0,1:0:0:0:
448,0,91390,1,0,1:0:0:0:
320,0,91465,1,0,1:0:0:0:
192,0,91540,1,0,1:0:0:0:
448,0,91540,1,0,1:0:0:0:
64,0,91615,1,0,1:0:0:0:
192,0,91690,1,0,1:0:0:0:
320,0,91765,1,0,1:0:0:0:
64,0,91840,1,0,1:0:0:0:
448,0,91840,1,0,1:0:0:0:
320,0,91915,1,0,1:0:0:0:
192,0,91990,1,0,1:0:0:0:
448,0,91990,1,0,1:0:0:0:
64,0,92065,1,0,1:0:0:0:
192,0,92140,1,0,1:0:0:0:
320,0,92215,1,0,1:0:0:0:
64,0,92290,1,0,1:0:0:0:
448,0,92290,1,0,1:0:0:0:
320,0,92365,1,0,1:0:0:0:
192,0,92440,1,0,1:0:0:0:
448,0,92440,1,0,1:0:0:0:
64,0,92515,1,0,1:0:0:0:
192,0,92590,1,0,1:0:0:0:
320,0,92665,1,0,1:0:0:0:
64,0,92740,1,0,1:0:0:0:
448,0,92740,1,0,1:0:0:0:
320,0,92815,1,0,1:0:0:0:
192,0,92890,1,0,1:0:0:0:
448,0,92890,1,0,1:0:0:0:
64,0,92965,1,0,1:0:0:0:
192,0,93040,1,0,1:0:0:0:
320,0,93115,1,0,1:0:0:0:
64,0,93190,1,0,1:0:0:0:
448,0,93190,1,0,1:0:0:0:
320,0,93265,1,0,1:0:0:0:
192,0,93340,1,0,1:0:0:0:
448,0,93340,1,0,1:0:0:0:
64,0,93415,1,0,1:0:0:0:
192,0,93490,1,0,1:0:0:0:
320,0,93565,1,0,1:0:0:0:
448,0,93640,1,0,1:0:0:0:
320,0,93715,1,0,1:0:0:0:
64,0,93790,1,0,1:0:0:0:
192,0,93790,1,0,1:0:0:0:
448,0,93865,1,0,1:0:0:0:
64,0,93940,1,0,1:0:0:0:
320,0,93940,1,0,1:0:0:0:
192,0,94015,1,0,1:0:0:0:
320,0,94090,1,0,1:0:0:0:
448,0,94165,1,0,1:0:0:0:
64,0,94240,1,0,1:0:0:0:
192,0,94240,1,0,1:0:0:0:
448,0,94315,1,0,1:0:0:0:
64,0,94390,1,0,1:0:0:0:
320,0,94390,1,0,1:0:0:0:
192,0,94465,1,0,1:0:0:0:
320,0,94540,1,0,1:0:0:0:
448,0,94615,1,0,1:0:0:0:
64,0,94690,1,0,1:0:0:0:
192,0,94690,1,0,1:0:0:0:
448,0,94765,1,0,1:0:0:0:
64,0,94840,1,0,1:0:0:0:
320,0,94840,1,0,1:0:0:0:
192,0,94915,1,0,1:0:0:0:
320,0,94990,1,0,1:0:0:0:
448,0,95065,1,0,1:0:0:0:
64,0,95140,1,0,1:0:0:0:
192,0,95140,1,0,1:0:0:0:
448,0,95215,1,0,1:0:0:0:
64,0,95290,1,0,1:0:0:0:
320,0,95290,1,0,1:0:0:0:
192,0,95365,1,0,1:0:0:0:
320,0,95440,1,0,1:0:0:0:
448,0,95515,1,0,1:0:0:0:
64,0,95590,1,0,1:0:0:0:
192,0,95590,1,0,1:0:0:0:
448,0,95665,1,0,1:0:0:0:
64,0,95740,1,0,1:0:0:0:
320,0,95740,1,0,1:0:0:0:
192,0,95815,1,0,1:0:0:0:
320,0,95890,1,0,1:0:0:0:
192,0,95965,1,0,1:0:0:0:
64,0,96040,1,0,1:0:0:0:
320,0,96115,1,0,1:0:0:0:
64,0,96190,1,0,1:0:0:0:
448,0,96190,1,0,1:0:0:0:
192,0,96265,1,0,1:0:0:0:
320,0,96340,1,0,1:0:0:0:
448,0,96340,1,0,1:0:0:0:
192,0,96415,1,0,1:0:0:0:
64,0,96490,1,0,1:0:0:0:
320,0,96565,1,0,1:0:0:0:
64,0,96640,1,0,1:0:0:0:
448,0,96640,1,0,1:0:0:0:
192,0,96715,1,0,1:0:0:0:
320,0,96790,1,0,1:0:0:0:
448,0,96790,1,0,1:0:0:0:
192,0,96865,1,0,1:0:0:0:
64,0,96940,1,0,1:0:0:0:
320,0,97015,1,0,1:0:0:0:
64,0,97090,1,0,1:0:0:0:
448,0,97090,1,0,1:0:0:0:
192,0,97165,1,0,1:0:0:0:
320,0,97240,1,0,1:0:0:0:
448,0,97240,1,0,1:0:0:0:
192,0,97315,1,0,1:0:0:0:
320,0,97390,1,0,1:0:0:0:
448,0,97390,1,0,1:0:0:0:
64,0,97465,1,0,1:0:0:0:
192,0,97540,1,0,1:0:0:0:
64,0,97615,1,0,1:0:0:0:
320,0,97690,1,0,1:0:0:0:
448,0,97690,1,0,1:0:0:0:
192,0,97765,1,0,1:0:0:0:
64,0,97840,1,0,1:0:0:0:
192,0,97915,1,0,1:0:0:0:
320,0,97990,1,0,1:0:0:0:
448,0,97990,1,0,1:0:0:0:
64,0,98065,1,0,1:0:0:0:
192,0,98140,1,0,1:0:0:0:
64,0,98215,1,0,1:0:0:0:
320,0,98290,1,0,1:0:0:0:
448,0,98290,1,0,1:0:0:0:
192,0,98365,1,0,1:0:0:0:
64,0,98440,1,0,1:0:0:0:
448,0,98440,1,0,1:0:0:0:
320,0,98515,1,0,1:0:0:0:
64,0,98590,1,0,1:0:0:0:
192,0,98590,1,0,1:0:0:0:
448,0,98665,1,0,1:0:0:0:
192,0,98740,1,0,1:0:0:0:
320,0,98740,1,0,1:0:0:0:
448,0,98815,1,0,1:0:0:0:
64,0,98890,1,0,1:0:0:0:
320,0,98965,1,0,1:0:0:0:
64,0,99040,1,0,1:0:0:0:
192,0,99040,1,0,1:0:0:0:
448,0,99115,1,0,1:0:0:0:
192,0,99190,1,0,1:0:0:0:
320,0,99190,1,0,1:0:0:0:
448,0,99265,1,0,1:0:0:0:
64,0,99340,1,0,1:0:0:0:
320,0,99415,1,0,1:0:0:0:
64,0,99490,1,0,1:0:0:0:
192,0,99490,1,0,1:0:0:0:
448,0,99565,1,0,1:0:0:0:
192,0,99640,1,0,1:0:0:0:
320,0,99640,1,0,1:0:0:0:
448,0,99715,1,0,1:0:0:0:
64,0,99790,1,0,1:0:0:0:
320,0,99865,1,0,1:0:0:0:
64,0,99940,1,0,1:0:0:0:
192,0,99940,1,0,1:0:0:0:
448,0,100015,1,0,1:0:0:0:
192,0,100090,1,0,1:0:0:0:
320,0,100090,1,0,1:0:0:0:
448,0,100165,1,0,1:0:0:0:
64,0,100240,1,0,1:0:0:0:
320,0,100315,1,0,1:0:0:0:
64,0,100390,1,0,1:0:0:0:
192,0,100390,1,0,1:0:0:0:
448,0,100465,1,0,1:0:0:0:
192,0,100540,1,0,1:0:0:0:
320,0,100540,1,0,1:0:0:0:
448,0,100615,1,0,1:0:0:0:
64,0,100690,1,0,1:0:0:0:
320,0,100765,1,0,1:0:0:0:
192,0,100840,1,0,1:0:0:0:
64,0,100915,1,0,1:0:0:0:
192,0,100990,1,0,1:0:0:0:
448,0,100990,1,0,1:0:0:0:
320,0,101065,1,0,1:0:0:0:
64,0,101140,1,0,1:0:0:0:
448,0,101140,1,0,1:0:0:0:
192,0,101215,1,0,1:0:0:0:
320,0,101290,1,0,1:0:0:0:
64,0,101365,1,0,1:0:0:0:
192,0,101440,1,0,1:0:0:0:
448,0,101440,1,0,1:0:0:0:
320,0,101515,1,0,1:0:0:0:
64,0,101590,1,0,1:0:0:0:
448,0,101590,1,0,1:0:0:0:
320,0,101665,1,0,1:0:0:0:
192,0,101740,1,0,1:0:0:0:
64,0,101815,1,0,1:0:0:0:
192,0,101890,1,0,1:0:0:0:
448,0,101890,1,0,1:0:0:0:
320,0,101965,1,0,1:0:0:0:
64,0,102040,1,0,1:0:0:0:
448,0,102040,1,0,1:0:0:0:
192,0,102115,1,0,1:0:0:0:
320,0,102190,1,0,1:0:0:0:
64,0,102265,1,0,1:0:0:0:
192,0,102340,1,0,1:0:0:0:
448,0,102340,1,0,1:0:0:0:
320,0,102415,1,0,1:0:0:0:
64,0,102490,1,0,1:0:0:0:
448,0,102490,1,0,1:0:0:0:
320,0,102565,1,0,1:0:0:0:
192,0,102640,1,0,1:0:0:0:
64,0,102715,1,0,1:0:0:0:
192,0,102790,1,0,1:0:0:0:
448,0,102790,1,0,1:0:0:0:
320,0,102865,1,0,1:0:0:0:
64,0,102940,1,0,1:0:0:0:
448,0,102940,1,0,1:0:0:0:
192,0,103015,1,0,1:0:0:0:
320,0,103090,1,0,1:0:0:0:
192,0,103165,1,0,1:0:0:0:
64,0,103240,1,0,1:0:0:0:
448,0,103315,1,0,1:0:0:0:
192,0,103390,1,0,1:0:0:0:
320,0,103390,1,0,1:0:0:0:
448,0,103465,1,0,1:0:0:0:
64,0,103540,1,0,1:0:0:0:
192,0,103540,1,0,1:0:0:0:
320,0,103615,1,0,1:0:0:0:
64,0,103690,1,0,1:0:0:0:
448,0,103765,1,0,1:0:0:0:
192,0,103840,1,0,1:0:0:0:
320,0,103840,1,0,1:0:0:0:
448,0,103915,1,0,1:0:0:0:
64,0,103990,1,0,1:0:0:0:
192,0,103990,1,0,1:0:0:0:
320,0,104065,1,0,1:0:0:0:
64,0,104140,1,0,1:0:0:0:
448,0,104215,1,0,1:0:0:0:
192,0,104290,1,0,1:0:0:0:
320,0,104290,1,0,1:0:0:0:
448,0,104365,1,0,1:0:0:0:
64,0,104440,1,0,1:0:0:0:
192,0,104440,1,0,1:0:0:0:
320,0,104515,1,0,1:0:0:0:
64,0,104590,1,0,1:0:0:0:
448,0,104665,1,0,1:0:0:0:
192,0,104740,1,0,1:0:0:0:
320,0,104740,1,0,1:0:0:0:
448,0,104815,1,0,1:0:0:0:
64,0,104890,1,0,1:0:0:0:
192,0,104890,1,0,1:0:0:0:
320,0,104965,1,0,1:0:0:0:
64,0,105040,1,0,1:0:0:0:
448,0,105115,1,0,1:0:0:0:
192,0,105190,1,0,1:0:0:0:
320,0,105190,1,0,1:0:0:0:
448,0,105265,1,0,1:0:0:0:
64,0,105340,1,0,1:0:0:0:
192,0,105340,1,0,1:0:0:0:
320,0,105415,1,0,1:0:0:0:
64,0,105490,1,0,1:0:0:0:
192,0,105565,1,0,1:0:0:0:
448,0,105640,1,0,1:0:0:0:
320,0,105715,1,0,1:0:0:0:
64,0,105790,1,0,1:0:0:0:
192,0,105790,1,0,1:0:0:0:
320,0,105865,1,0,1:0:0:0:
64,0,105940,1,0,1:0:0:0:
448,0,105940,1,0,1:0:0:0:
192,0,106015,1,0,1:0:0:0:
448,0,106090,1,0,1:0:0:0:
320,0,106165,1,0,1:0:0:0:
64,0,106240,1,0,1:0:0:0:
192,0,106240,1,0,1:0:0:0:
320,0,106315,1,0,1:0:0:0:
64,0,106390,1,0,1:0:0:0:
448,0,106390,1,0,1:0:0:0:
192,0,106465,1,0,1:0:0:0:
448,0,106540,1,0,1:0:0:0:
320,0,106615,1,0,1:0:0:0:
64,0,106690,1,0,1:0:0:0:
192,0,106690,1,0,1:0:0:0:
320,0,106765,1,0,1:0:0:0:
64,0,106840,1,0,1:0:0:0:
448,0,106840,1,0,1:0:0:0:
192,0,106915,1,0,1:0:0:0:
448,0,106990,1,0,1:0:0:0:
320,0,107065,1,0,1:0:0:0:
64,0,107140,1,0,1:0:0:0:
192,0,107140,1,0,1:0:0:0:
320,0,107215,1,0,1:0:0:0:
64,0,107290,1,0,1:0:0:0:
448,0,107290,1,0,1:0:0:0:
192,0,107365,1,0,1:0:0:0:
320,0,107440,1,0,1:0:0:0:
448,0,107440,1,0,1:0:0:0:
192,0,107515,1,0,1:0:0:0:
320,0,107590,1,0,1:0:0:0:
448,0,107590,1,0,1:0:0:0:
192,0,107665,1,0,1:0:0:0:
64,0,107740,1,0,1:0:0:0:
448,0,107740,1,0,1:0:0:0:
320,0,107815,1,0,1:0:0:0:
64,0,107890,1,0,1:0:0:0:
192,0,107890,1,0,1:0:0:0:
320,0,107965,1,0,1:0:0:0:
64,0,108040,1,0,1:0:0:0:
448,0,108040,1,0,1:0:0:0:
192,0,108115,1,0,1:0:0:0:
320,0,108190,1,0,1:0:0:0:
448,0,108190,1,0,1:0:0:0:
64,0,108265,1,0,1:0:0:0:
192,0,108340,1,0,1:0:0:0:
320,0,108340,1,0,1:0:0:0:
448,0,108415,1,0,1:0:0:0:
64,0,108490,1,0,1:0:0:0:
192,0,108490,1,0,1:0:0:0:
448,0,108565,1,0,1:0:0:0:
64,0,108640,1,0,1:0:0:0:
320,0,108640,1,0,1:0:0:0:
192,0,108715,1,0,1:0:0:0:
64,0,108790,1,0,1:0:0:0:
448,0,108790,1,0,1:0:0:0:
320,0,108865,1,0,1:0:0:0:
64,0,108940,1,0,1:0:0:0:
192,0,108940,1,0,1:0:0:0:
320,0,109015,1,0,1:0:0:0:
192,0,109090,1,0,1:0:0:0:
448,0,109090,1,0,1:0:0:0:
64,0,109165,1,0,1:0:0:0:
320,0,109240,1,0,1:0:0:0:
448,0,109240,1,0,1:0:0:0:
64,0,109315,1,0,1:0:0:0:
192,0,109390,1,0,1:0:0:0:
320,0,109390,1,0,1:0:0:0:
448,0,109465,1,0,1:0:0:0:
64,0,109540,1,0,1:0:0:0:
192,0,109540,1,0,1:0:0:0:
320,0,109615,1,0,1:0:0:0:
64,0,109690,1,0,1:0:0:0:
448,0,109690,1,0,1:0:0:0:
192,0,109765,1,0,1:0:0:0:
320,0,109840,1,0,1:0:0:0:
448,0,109840,1,0,1:0:0:0:
64,0,109915,1,0,1:0:0:0:
192,0,109990,1,0,1:0:0:0:
448,0,109990,1,0,1:0:0:0:
320,0,110065,1,0,1:0:0:0:
64,0,110140,1,0,1:0:0:0:
192,0,110140,1,0,1:0:0:0:
448,0,110215,1,0,1:0:0:0:
192,0,110290,1,0,1:0:0:0:
320,0,110290,1,0,1:0:0:0:
64,0,110365,1,0,1:0:0:0:
320,0,110440,1,0,1:0:0:0:
448,0,110440,1,0,1:0:0:0:
64,0,110515,1,0,1:0:0:0:
192,0,110590,1,0,1:0:0:0:
448,0,110590,1,0,1:0:0:0:
320,0,110665,1,0,1:0:0:0:
64,0,110740,1,0,1:0:0:0:
448,0,110740,1,0,1:0:0:0:
192,0,110815,1,0,1:0:0:0:
64,0,110890,1,0,1:0:0:0:
320,0,110890,1,0,1:0:0:0:
448,0,110965,1,0,1:0:0:0:
192,0,111040,1,0,1:0:0:0:
320,0,111040,1,0,1:0:0:0:
64,0,111115,1,0,1:0:0:0:
192,0,111190,1,0,1:0:0:0:
448,0,111190,1,0,1:0:0:0:
320,0,111265,1,0,1:0:0:0:
64,0,111340,1,0,1:0:0:0:
192,0,111340,1,0,1:0:0:0:
448,0,111415,1,0,1:0:0:0:
64,0,111490,1,0,1:0:0:0:
320,0,111490,1,0,1:0:0:0:
192,0,111565,1,0,1:0:0:0:
320,0,111640,1,0,1:0:0:0:
448,0,111640,1,0,1:0:0:0:
192,0,111715,1,0,1:0:0:0:
64,0,111790,1,0,1:0:0:0:
448,0,111790,1,0,1:0:0:0:
320,0,111865,1,0,1:0:0:0:
64,0,111940,1,0,1:0:0:0:
192,0,111940,1,0,1:0:0:0:
320,0,112015,1,0,1:0:0:0:
64,0,112090,1,0,1:0:0:0:
448,0,112090,1,0,1:0:0:0:
192,0,112165,1,0,1:0:0:0:
320,0,112240,1,0,1:0:0:0:
448,0,112240,1,0,1:0:0:0:
64,0,112315,1,0,1:0:0:0:
192,0,112390,1,0,1:0:0:0:
448,0,112390,1,0,1:0:0:0:
320,0,112465,1,0,1:0:0:0:
64,0,112540,1,0,1:0:0:0:
192,0,112540,1,0,1:0:0:0:
320,0,112615,1,0,1:0:0:0:
64,0,112690,1,0,1:0:0:0:
448,0,112690,1,0,1:0:0:0:
192,0,112765,1,0,1:0:0:0:
320,0,112840,1,0,1:0:0:0:
448,0,112840,1,0,1:0:0:0:
64,0,112915,1,0,1:0:0:0:
192,0,112990,1,0,1:0:0:0:
448,0,112990,1,0,1:0:0:0:
320,0,113065,1,0,1:0:0:0:
64,0,113140,1,0,1:0:0:0:
192,0,113140,1,0,1:0:0:0:
448,0,113215,1,0,1:0:0:0:
64,0,113290,1,0,1:0:0:0:
320,0,113290,1,0,1:0:0:0:
192,0,113365,1,0,1:0:0:0:
320,0,113440,1,0,1:0:0:0:
448,0,113440,1,0,1:0:0:0:
64,0,113515,1,0,1:0:0:0:
192,0,113590,1,0,1:0:0:0:
320,0,113590,1,0,1:0:0:0:
448,0,113665,1,0,1:0:0:0:
64,0,113740,1,0,1:0:0:0:
192,0,113740,1,0,1:0:0:0:
320,0,113815,1,0,1:0:0:0:
64,0,113890,1,0,1:0:0:0:
448,0,113890,1,0,1:0:0:0:
320,0,113965,1,0,1:0:0:0:
192,0,114040,1,0,1:0:0:0:
448,0,114040,1,0,1:0:0:0:
64,0,114115,1,0,1:0:0:0:
192,0,114190,1,0,1:0:0:0:
320,0,114190,1,0,1:0:0:0:
448,0,114265,1,0,1:0:0:0:
64,0,114340,1,0,1:0:0:0:
320,0,114340,1,0,1:0:0:0:
192,0,114415,1,0,1:0:0:0:
64,0,114490,1,0,1:0:0:0:
448,0,114490,1,0,1:0:0:0:
192,0,114565,1,0,1:0:0:0:
320,0,114640,1,0,1:0:0:0:
448,0,114640,1,0,1:0:0:0:
64,0,114715,1,0,1:0:0:0:
192,0,114790,1,0,1:0:0:0:
320,0,114790,1,0,1:0:0:0:
448,0,114865,1,0,1:0:0:0:
64,0,114940,1,0,1:0:0:0:
192,0,114940,1,0,1:0:0:0:
448,0,115015,1,0,1:0:0:0:
192,0,115090,1,0,1:0:0:0:
320,0,115090,1,0,1:0:0:0:
64,0,115165,1,0,1:0:0:0:
192,0,115240,1,0,1:0:0:0:
448,0,115240,1,0,1:0:0:0:
320,0,115315,1,0,1:0:0:0:
64,0,115390,1,0,1:0:0:0:
448,0,115390,1,0,1:0:0:0:
320,0,115465,1,0,1:0:0:0:
64,0,115540,1,0,1:0:0:0:
192,0,115540,1,0,1:0:0:0:
448,0,115615,1,0,1:0:0:0:
192,0,115690,1,0,1:0:0:0:
320,0,115690,1,0,1:0:0:0:
64,0,115765,1,0,1:0:0:0:
320,0,115840,1,0,1:0:0:0:
448,0,115840,1,0,1:0:0:0:
64,0,115915,1,0,1:0:0:0:
192,0,115990,1,0,1:0:0:0:
448,0,115990,1,0,1:0:0:0:
320,0,116065,1,0,1:0:0:0:
64,0,116140,1,0,1:0:0:0:
192,0,116140,1,0,1:0:0:0:
320,0,116215,1,0,1:0:0:0:
64,0,116290,1,0,1:0:0:0:
448,0,116290,1,0,1:0:0:0:
192,0,116365,1,0,1:0:0:0:
64,0,116440,1,0,1:0:0:0:
320,0,116440,1,0,1:0:0:0:
448,0,116515,1,0,1:0:0:0:
192,0,116590,1,0,1:0:0:0:
320,0,116590,1,0,1:0:0:0:
448,0,116665,1,0,1:0:0:0:
64,0,116740,1,0,1:0:0:0:
192,0,116740,1,0,1:0:0:0:
320,0,116815,1,0,1:0:0:0:
64,0,116890,1,0,1:0:0:0:
448,0,116890,1,0,1:0:0:0:
192,0,116965,1,0,1:0:0:0:
64,0,117040,1,0,1:0:0:0:
320,0,117040,1,0,1:0:0:0:
192,0,117115,1,0,1:0:0:0:
320,0,117190,1,0,1:0:0:0:
448,0,117190,1,0,1:0:0:0:
64,0,117265,1,0,1:0:0:0:
192,0,117340,1,0,1:0:0:0:
448,0,117340,1,0,1:0:0:0:
320,0,117415,1,0,1:0:0:0:
64,0,117490,1,0,1:0:0:0:
192,0,117490,1,0,1:0:0:0:
320,0,117565,1,0,1:0:0:0:
192,0,117640,1,0,1:0:0:0:
448,0,117640,1,0,1:0:0:0:
64,0,117715,1,0,1:0:0:0:
320,0,117790,1,0,1:0:0:0:
448,0,117790,1,0,1:0:0:0:
64,0,117865,1,0,1:0:0:0:
192,0,117940,1,0,1:0:0:0:
448,0,117940,1,0,1:0:0:0:
320,0,118015,1,0,1:0:0:0:
64,0,118090,1,0,1:0:0:0:
192,0,118090,1,0,1:0:0:0:
320,0,118165,1,0,1:0:0:0:
64,0,118240,1,0,1:0:0:0:
448,0,118240,1,0,1:0:0:0:
192,0,118315,1,0,1:0:0:0:
320,0,118390,1,0,1:0:0:0:
448,0,118390,1,0,1:0:0:0:
64,0,118465,1,0,1:0:0:0:
192,0,118540,1,0,1:0:0:0:
320,0,118540,1,0,1:0:0:0:
64,0,118615,1,0,1:0:0:0:
192,0,118690,1,0,1:0:0:0:
448,0,118690,1,0,1:0:0:0:
320,0,118765,1,0,1:0:0:0:
64,0,118840,1,0,1:0:0:0:
448,0,118840,1,0,1:0:0:0:
320,0,118915,1,0,1:0:0:0:
64,0,118990,1,0,1:0:0:0:
192,0,118990,1,0,1:0:0:0:
448,0,119065,1,0,1:0:0:0:
192,0,119140,1,0,1:0:0:0:
320,0,119140,1,0,1:0:0:0:
448,0,119215,1,0,1:0:0:0:
64,0,119290,1,0,1:0:0:0:
192,0,119290,1,0,1:0:0:0:
320,0,119365,1,0,1:0:0:0:
64,0,119440,1,0,1:0:0:0:
448,0,119440,1,0,1:0:0:0:
192,0,119515,1,0,1:0:0:0:
320,0,119590,1,0,1:0:0:0:
448,0,119590,1,0,1:0:0:0:
64,0,119665,1,0,1:0:0:0:
192,0,119740,1,0,1:0:0:0:
448,0,119740,1,0,1:0:0:0:
320,0,119815,1,0,1:0:0:0:
64,0,119890,1,0,1:0:0:0:
192,0,119890,1,0,1:0:0:0:
448,0,119965,1,0,1:0:0:0:
64,0,120040,1,0,1:0:0:0:
320,0,120040,1,0,1:0:0:0:
192,0,120115,1,0,1:0:0:0:
64,0,120190,1,0,1:0:0:0:
448,0,120190,1,0,1:0:0:0:
192,0,120265,1,0,1:0:0:0:
320,0,120340,1,0,1:0:0:0:
448,0,120340,1,0,1:0:0:0:
64,0,120415,1,0,1:0:0:0:
192,0,120490,1,0,1:0:0:0:
320,0,120490,1,0,1:0:0:0:
448,0,120565,1,0,1:0:0:0:
64,0,120640,1,0,1:0:0:0:
192,0,120640,1,0,1:0:0:0:
448,0,120715,1,0,1:0:0:0:
64,0,120790,1,0,1:0:0:0:
320,0,120790,1,0,1:0:0:0:
192,0,120865,1,0,1:0:0:0:
64,0,120940,1,0,1:0:0:0:
448,0,120940,1,0,1:0:0:0:
320,0,121015,1,0,1:0:0:0:
192,0,121090,1,0,1:0:0:0:
448,0,121090,1,0,1:0:0:0:
64,0,121165,1,0,1:0:0:0:
320,0,121240,1,0,1:0:0:0:
448,0,121240,1,0,1:0:0:0:
64,0,121315,1,0,1:0:0:0:
192,0,121390,1,0,1:0:0:0:
320,0,121390,1,0,1:0:0:0:
448,0,121465,1,0,1:0:0:0:
64,0,121540,1,0,1:0:0:0:
192,0,121540,1,0,1:0:0:0:
448,0,121615,1,0,1:0:0:0:
64,0,121690,1,0,1:0:0:0:
320,0,121690,1,0,1:0:0:0:
192,0,121765,1,0,1:0:0:0:
320,0,121840,1,0,1:0:0:0:
448,0,121840,1,0,1:0:0:0:
192,0,121915,1,0,1:0:0:0:
64,0,121990,1,0,1:0:0:0:
448,0,121990,1,0,1:0:0:0:
320,0,122065,1,0,1:0:0:0:
64,0,122140,1,0,1:0:0:0:
192,0,122140,1,0,1:0:0:0:
320,0,122215,1,0,1:0:0:0:
64,0,122290,1,0,1:0:0:0:
448,0,122290,1,0,1:0:0:0:
192,0,122365,1,0,1:0:0:0:
320,0,122440,1,0,1:0:0:0:
448,0,122440,1,0,1:0:0:0:
64,0,122515,1,0,1:0:0:0:
192,0,122590,1,0,1:0:0:0:
320,0,122590,1,0,1:0:0:0:
64,0,122665,1,0,1:0:0:0:
320,0,122740,1,0,1:0:0:0:
448,0,122740,1,0,1:0:0:0:
192,0,122815,1,0,1:0:0:0:
64,0,122890,1,0,1:0:0:0:
448,0,122890,1,0,1:0:0:0:
320,0,122965,1,0,1:0:0:0:
64,0,123040,1,0,1:0:0:0:
192,0,123040,1,0,1:0:0:0:
320,0,123115,1,0,1:0:0:0:
192,0,123190,1,0,1:0:0:0:
448,0,123190,1,0,1:0:0:0:
64,0,123265,1,0,1:0:0:0:
320,0,123340,1,0,1:0:0:0:
448,0,123340,1,0,1:0:0:0:
64,0,123415,1,0,1:0:0:0:
192,0,123490,1,0,1:0:0:0:
320,0,123490,1,0,1:0:0:0:
448,0,123565,1,0,1:0:0:0:
64,0,123640,1,0,1:0:0:0:
192,0,123640,1,0,1:0:0:0:
320,0,123715,1,0,1:0:0:0:
192,0,123790,1,0,1:0:0:0:
448,0,123790,1,0,1:0:0:0:
64,0,123865,1,0,1:0:0:0:
320,0,123940,1,0,1:0:0:0:
448,0,123940,1,0,1:0:0:0:
64,0,124015,1,0,1:0:0:0:
192,0,124090,1,0,1:0:0:0:
320,0,124090,1,0,1:0:0:0:
448,0,124165,1,0,1:0:0:0:
64,0,124240,1,0,1:0:0:0:
192,0,124240,1,0,1:0:0:0:
448,0,124315,1,0,1:0:0:0:
64,0,124390,1,0,1:0:0:0:
320,0,124390,1,0,1:0:0:0:
192,0,124465,1,0,1:0:0:0:
64,0,124540,1,0,1:0:0:0:
448,0,124540,1,0,1:0:0:0:
192,0,124615,1,0,1:0:0:0:
320,0,124690,1,0,1:0:0:0:
448,0,124690,1,0,1:0:0:0:
192,0,124765,1,0,1:0:0:0:
64,0,124840,1,0,1:0:0:0:
448,0,124840,1,0,1:0:0:0:
320,0,124915,1,0,1:0:0:0:
192,0,124990,1,0,1:0:0:0:
64,0,125065,1,0,1:0:0:0:
320,0,125140,1,0,1:0:0:0:
448,0,125140,1,0,1:0:0:0:
64,0,125215,1,0,1:0:0:0:
192,0,125290,1,0,1:0:0:0:
320,0,125365,1,0,1:0:0:0:
64,0,125440,1,0,1:0:0:0:
448,0,125440,1,0,1:0:0:0:
192,0,125515,1,0,1:0:0:0:
320,0,125590,1,0,1:0:0:0:
448,0,125665,1,0,1:0:0:0:
64,0,125740,1,0,1:0:0:0:
192,0,125740,1,0,1:0:0:0:
448,0,125815,1,0,1:0:0:0:
320,0,125890,1,0,1:0:0:0:
192,0,125965,1,0,1:0:0:0:
64,0,126040,1,0,1:0:0:0:
448,0,126040,1,0,1:0:0:0:
320,0,126115,1,0,1:0:0:0:
192,0,126190,1,0,1:0:0:0:
320,0,126265,1,0,1:0:0:0:
64,0,126340,1,0,1:0:0:0:
192,0,126415,1,0,1:0:0:0:
320,0,126490,1,0,1:0:0:0:
192,0,126565,1,0,1:0:0:0:
64,0,126640,1,0,1:0:0:0:
448,0,126640,1,0,1:0:0:0:
320,0,126715,1,0,1:0:0:0:
192,0,126790,1,0,1:0:0:0:
320,0,126865,1,0,1:0:0:0:
64,0,126940,1,0,1:0:0:0:
448,0,126940,1,0,1:0:0:0:
192,0,127015,1,0,1:0:0:0:
320,0,127090,1,0,1:0:0:0:
192,0,127165,1,0,1:0:0:0:
64,0,127240,128,0,127315:0:0:0:0:
320,0,127240,1,0,1:0:0:0:
448,0,127240,1,0,1:0:0:0:
192,0,127315,1,0,1:0:0:0:
320,0,127390,1,0,1:0:0:0:
448,0,127465,1,0,1:0:0:0:
64,0,127540,1,0,1:0:0:0:
192,0,127540,1,0,1:0:0:0:
320,0,127615,1,0,1:0:0:0:
192,0,127690,1,0,1:0:0:0:
320,0,127765,1,0,1:0:0:0:
64,0,127840,1,0,1:0:0:0:
448,0,127840,1,0,1:0:0:0:
192,0,127915,1,0,1:0:0:0:
320,0,127990,1,0,1:0:0:0:
448,0,128065,1,0,1:0:0:0:
64,0,128140,128,0,128177:0:0:0:0:
192,0,128140,1,0,1:0:0:0:
320,0,128215,1,0,1:0:0:0:
192,0,128290,128,0,128327:0:0:0:0:
320,0,128365,1,0,1:0:0:0:
64,0,128440,1,0,1:0:0:0:
448,0,128440,1,0,1:0:0:0:
320,0,128515,1,0,1:0:0:0:
192,0,128590,1,0,1:0:0:0:
64,0,128665,1,0,1:0:0:0:
320,0,128740,128,0,128777:0:0:0:0:
448,0,128740,1,0,1:0:0:0:
192,0,128815,1,0,1:0:0:0:
320,0,128890,1,0,1:0:0:0:
192,0,128965,1,0,1:0:0:0:
64,0,129040,128,0,129077:0:0:0:0:
448,0,129040,1,0,1:0:0:0:
320,0,129115,1,0,1:0:0:0:
192,0,129190,128,0,129227:0:0:0:0:
64,0,129265,1,0,1:0:0:0:
320,0,129340,1,0,1:0:0:0:
448,0,129340,128,0,129377:0:0:0:0:
192,0,129415,1,0,1:0:0:0:
320,0,129490,1,0,1:0:0:0:
192,0,129565,1,0,1:0:0:0:
64,0,129640,1,0,1:0:0:0:
448,0,129640,1,0,1:0:0:0:
192,0,129715,1,0,1:0:0:0:
448,0,129790,1,0,1:0:0:0:
320,0,129865,1,0,1:0:0:0:
64,0,129940,1,0,1:0:0:0:
192,0,129940,1,0,1:0:0:0:
448,0,130015,1,0,1:0:0:0:
320,0,130090,1,0,1:0:0:0:
192,0,130165,1,0,1:0:0:0:
64,0,130240,1,0,1:0:0:0:
448,0,130240,1,0,1:0:0:0:
192,0,130315,1,0,1:0:0:0:
448,0,130390,1,0,1:0:0:0:
320,0,130465,1,0,1:0:0:0:
64,0,130540,1,0,1:0:0:0:
192,0,130540,1,0,1:0:0:0:
448,0,130615,1,0,1:0:0:0:
320,0,130690,1,0,1:0:0:0:
192,0,130765,1,0,1:0:0:0:
64,0,130840,1,0,1:0:0:0:
448,0,130840,1,0,1:0:0:0:
320,0,130915,1,0,1:0:0:0:
64,0,130990,1,0,1:0:0:0:
192,0,131065,1,0,1:0:0:0:
320,0,131140,1,0,1:0:0:0:
448,0,131140,1,0,1:0:0:0:
64,0,131215,1,0,1:0:0:0:
192,0,131290,1,0,1:0:0:0:
320,0,131365,1,0,1:0:0:0:
64,0,131440,1,0,1:0:0:0:
448,0,131440,1,0,1:0:0:0:
320,0,131515,1,0,1:0:0:0:
64,0,131590,1,0,1:0:0:0:
192,0,131590,1,0,1:0:0:0:
320,0,131665,1,0,1:0:0:0:
64,0,131740,1,0,1:0:0:0:
448,0,131740,1,0,1:0:0:0:
192,0,131815,1,0,1:0:0:0:
320,0,131890,1,0,1:0:0:0:
448,0,131890,1,0,1:0:0:0:
192,0,131965,1,0,1:0:0:0:
64,0,132040,128,0,132115:0:0:0:0:
448,0,132040,1,0,1:0:0:0:
320,0,132115,1,0,1:0:0:0:
192,0,132190,1,0,1:0:0:0:
448,0,132265,1,0,1:0:0:0:
64,0,132340,1,0,1:0:0:0:
320,0,132340,1,0,1:0:0:0:
448,0,132415,1,0,1:0:0:0:
192,0,132490,1,0,1:0:0:0:
320,0,132565,1,0,1:0:0:0:
64,0,132640,1,0,1:0:0:0:
448,0,132640,1,0,1:0:0:0:
320,0,132715,1,0,1:0:0:0:
192,0,132790,1,0,1:0:0:0:
448,0,132865,1,0,1:0:0:0:
64,0,132940,1,0,1:0:0:0:
320,0,132940,128,0,132977:0:0:0:0:
448,0,133015,1,0,1:0:0:0:
192,0,133090,128,0,133127:0:0:0:0:
320,0,133165,1,0,1:0:0:0:
64,0,133240,1,0,1:0:0:0:
448,0,133240,1,0,1:0:0:0:
192,0,133315,1,0,1:0:0:0:
320,0,133390,1,0,1:0:0:0:
64,0,133465,1,0,1:0:0:0:
192,0,133540,128,0,133577:0:0:0:0:
448,0,133540,1,0,1:0:0:0:
64,0,133615,1,0,1:0:0:0:
320,0,133690,128,0,133727:0:0:0:0:
192,0,133765,1,0,1:0:0:0:
64,0,133840,128,0,133877:0:0:0:0:
448,0,133840,1,0,1:0:0:0:
192,0,133915,1,0,1:0:0:0:
320,0,133990,128,0,134027:0:0:0:0:
64,0,134065,1,0,1:0:0:0:
192,0,134140,1,0,1:0:0:0:
448,0,134140,1,0,1:0:0:0:
64,0,134215,1,0,1:0:0:0:
320,0,134290,1,0,1:0:0:0:
192,0,134365,1,0,1:0:0:0:
64,0,134440,1,0,1:0:0:0:
448,0,134440,1,0,1:0:0:0:
320,0,134515,1,0,1:0:0:0:
448,0,134590,1,0,1:0:0:0:
64,0,134665,1,0,1:0:0:0:
192,0,134740,1,0,1:0:0:0:
320,0,134740,1,0,1:0:0:0:
64,0,134815,1,0,1:0:0:0:
320,0,134890,1,0,1:0:0:0:
192,0,134965,1,0,1:0:0:0:
64,0,135040,1,0,1:0:0:0:
448,0,135040,1,0,1:0:0:0:
320,0,135115,1,0,1:0:0:0:
448,0,135190,1,0,1:0:0:0:
64,0,135265,1,0,1:0:0:0:
192,0,135340,1,0,1:0:0:0:
320,0,135340,1,0,1:0:0:0:
64,0,135415,1,0,1:0:0:0:
192,0,135490,1,0,1:0:0:0:
320,0,135565,1,0,1:0:0:0:
64,0,135640,1,0,1:0:0:0:
448,0,135640,1,0,1:0:0:0:
192,0,135715,1,0,1:0:0:0:
64,0,135790,1,0,1:0:0:0:
448,0,135865,1,0,1:0:0:0:
192,0,135940,1,0,1:0:0:0:
320,0,135940,1,0,1:0:0:0:
448,0,136015,1,0,1:0:0:0:
192,0,136090,1,0,1:0:0:0:
320,0,136165,1,0,1:0:0:0:
64,0,136240,1,0,1:0:0:0:
448,0,136240,1,0,1:0:0:0:
192,0,136390,1,0,1:0:0:0:
64,0,136840,128,0,136915:0:0:0:0:
320,0,136840,1,0,1:0:0:0:
448,0,136840,1,0,1:0:0:0:
192,0,136915,1,0,1:0:0:0:
320,0,136990,1,0,1:0:0:0:
448,0,137065,1,0,1:0:0:0:
64,0,137140,1,0,1:0:0:0:
192,0,137140,1,0,1:0:0:0:
320,0,137215,1,0,1:0:0:0:
448,0,137290,1,0,1:0:0:0:
192,0,137365,1,0,1:0:0:0:
64,0,137440,1,0,1:0:0:0:
448,0,137440,1,0,1:0:0:0:
192,0,137515,1,0,1:0:0:0:
320,0,137590,1,0,1:0:0:0:
448,0,137665,1,0,1:0:0:0:
64,0,137740,1,0,1:0:0:0:
192,0,137740,128,0,137777:0:0:0:0:
320,0,137815,1,0,1:0:0:0:
448,0,137890,128,0,137927:0:0:0:0:
192,0,137965,1,0,1:0:0:0:
64,0,138040,1,0,1:0:0:0:
448,0,138040,1,0,1:0:0:0:
320,0,138115,1,0,1:0:0:0:
192,0,138190,1,0,1:0:0:0:
64,0,138265,1,0,1:0:0:0:
320,0,138340,128,0,138377:0:0:0:0:
448,0,138340,1,0,1:0:0:0:
192,0,138415,1,0,1:0:0:0:
64,0,138490,1,0,1:0:0:0:
320,0,138565,1,0,1:0:0:0:
64,0,138640,128,0,138677:0:0:0:0:
448,0,138640,1,0,1:0:0:0:
320,0,138715,1,0,1:0:0:0:
192,0,138790,128,0,138827:0:0:0:0:
64,0,138865,1,0,1:0:0:0:
320,0,138940,1,0,1:0:0:0:
448,0,138940,128,0,138977:0:0:0:0:
192,0,139015,1,0,1:0:0:0:
64,0,139090,1,0,1:0:0:0:
320,0,139165,1,0,1:0:0:0:
64,0,139240,1,0,1:0:0:0:
448,0,139240,1,0,1:0:0:0:
192,0,139315,1,0,1:0:0:0:
320,0,139390,1,0,1:0:0:0:
64,0,139465,1,0,1:0:0:0:
192,0,139540,1,0,1:0:0:0:
448,0,139540,1,0,1:0:0:0:
320,0,139615,1,0,1:0:0:0:
192,0,139690,1,0,1:0:0:0:
320,0,139765,1,0,1:0:0:0:
64,0,139840,1,0,1:0:0:0:
448,0,139840,1,0,1:0:0:0:
192,0,139915,1,0,1:0:0:0:
320,0,139990,1,0,1:0:0:0:
64,0,140065,1,0,1:0:0:0:
192,0,140140,1,0,1:0:0:0:
448,0,140140,1,0,1:0:0:0:
320,0,140215,1,0,1:0:0:0:
192,0,140290,1,0,1:0:0:0:
320,0,140365,1,0,1:0:0:0:
64,0,140440,1,0,1:0:0:0:
448,0,140440,1,0,1:0:0:0:
192,0,140515,1,0,1:0:0:0:
64,0,141040,1,0,1:0:0:0:
448,0,141040,1,0,1:0:0:0:
192,0,141115,1,0,1:0:0:0:
320,0,141190,1,0,1:0:0:0:
448,0,141190,1,0,1:0:0:0:
64,0,141265,1,0,1:0:0:0:
192,0,141340,1,0,1:0:0:0:
448,0,141340,1,0,1:0:0:0:
320,0,141415,1,0,1:0:0:0:
64,0,141490,1,0,1:0:0:0:
192,0,141490,1,0,1:0:0:0:
320,0,141565,1,0,1:0:0:0:
64,0,141640,1,0,1:0:0:0:
448,0,141640,128,0,141715:0:0:0:0:
192,0,141715,1,0,1:0:0:0:
320,0,141790,1,0,1:0:0:0:
64,0,141865,1,0,1:0:0:0:
192,0,141940,1,0,1:0:0:0:
448,0,141940,1,0,1:0:0:0:
320,0,142015,1,0,1:0:0:0:
64,0,142090,1,0,1:0:0:0:
320,0,142165,1,0,1:0:0:0:
64,0,142240,1,0,1:0:0:0:
448,0,142240,1,0,1:0:0:0:
192,0,142315,1,0,1:0:0:0:
320,0,142390,1,0,1:0:0:0:
64,0,142465,1,0,1:0:0:0:
192,0,142540,1,0,1:0:0:0:
448,0,142540,128,0,142577:0:0:0:0:
320,0,142615,1,0,1:0:0:0:
64,0,142690,128,0,142727:0:0:0:0:
320,0,142765,1,0,1:0:0:0:
64,0,142840,1,0,1:0:0:0:
448,0,142840,1,0,1:0:0:0:
320,0,142915,1,0,1:0:0:0:
192,0,142990,1,0,1:0:0:0:
448,0,143065,1,0,1:0:0:0:
64,0,143140,1,0,1:0:0:0:
320,0,143140,128,0,143177:0:0:0:0:
192,0,143215,1,0,1:0:0:0:
448,0,143290,128,0,143327:0:0:0:0:
192,0,143365,1,0,1:0:0:0:
64,0,143440,128,0,143477:0:0:0:0:
448,0,143440,1,0,1:0:0:0:
320,0,143515,1,0,1:0:0:0:
192,0,143590,128,0,143627:0:0:0:0:
448,0,143665,1,0,1:0:0:0:
64,0,143740,1,0,1:0:0:0:
320,0,143740,1,0,1:0:0:0:
192,0,143815,1,0,1:0:0:0:
448,0,143890,1,0,1:0:0:0:
192,0,143965,1,0,1:0:0:0:
320,0,144040,1,0,1:0:0:0:
448,0,144040,1,0,1:0:0:0:
64,0,144115,1,0,1:0:0:0:
192,0,144190,1,0,1:0:0:0:
320,0,144265,1,0,1:0:0:0:
64,0,144340,1,0,1:0:0:0:
448,0,144340,1,0,1:0:0:0:
192,0,144415,1,0,1:0:0:0:
64,0,144490,1,0,1:0:0:0:
192,0,144565,1,0,1:0:0:0:
320,0,144640,1,0,1:0:0:0:
448,0,144640,1,0,1:0:0:0:
64,0,144715,1,0,1:0:0:0:
192,0,144790,1,0,1:0:0:0:
320,0,144865,1,0,1:0:0:0:
64,0,144940,1,0,1:0:0:0:
448,0,144940,1,0,1:0:0:0:
192,0,145015,1,0,1:0:0:0:
64,0,145090,1,0,1:0:0:0:
192,0,145165,1,0,1:0:0:0:
320,0,145240,1,0,1:0:0:0:
448,0,145240,1,0,1:0:0:0:
64,0,145315,1,0,1:0:0:0:
192,0,145390,1,0,1:0:0:0:
448,0,145465,1,0,1:0:0:0:
64,0,145540,1,0,1:0:0:0:
320,0,145540,1,0,1:0:0:0:
192,0,145615,1,0,1:0:0:0:
64,0,145690,1,0,1:0:0:0:
192,0,145765,1,0,1:0:0:0:
320,0,145840,1,0,1:0:0:0:
448,0,145840,1,0,1:0:0:0:
192,0,145915,1,0,1:0:0:0:
320,0,146140,1,0,1:0:0:0:
448,0,146140,1,0,1:0:0:0:
320,0,146290,1,0,1:0:0:0:
448,0,146290,1,0,1:0:0:0:
64,0,146440,1,0,1:0:0:0:
320,0,146440,1,0,1:0:0:0:
448,0,146440,1,0,1:0:0:0:
192,0,146515,1,0,1:0:0:0:
448,0,146590,1,0,1:0:0:0:
320,0,146665,1,0,1:0:0:0:
64,0,146740,1,0,1:0:0:0:
192,0,146740,1,0,1:0:0:0:
320,0,146815,1,0,1:0:0:0:
448,0,146890,1,0,1:0:0:0:
192,0,146965,1,0,1:0:0:0:
64,0,147040,1,0,1:0:0:0:
320,0,147040,1,0,1:0:0:0:
192,0,147115,1,0,1:0:0:0:
448,0,147190,1,0,1:0:0:0:
320,0,147265,1,0,1:0:0:0:
64,0,147340,1,0,1:0:0:0:
192,0,147340,1,0,1:0:0:0:
320,0,147415,1,0,1:0:0:0:
192,0,147490,1,0,1:0:0:0:
64,0,147565,1,0,1:0:0:0:
320,0,147640,1,0,1:0:0:0:
448,0,147640,1,0,1:0:0:0:
192,0,147715,1,0,1:0:0:0:
320,0,147790,1,0,1:0:0:0:
448,0,147865,1,0,1:0:0:0:
64,0,147940,1,0,1:0:0:0:
192,0,147940,1,0,1:0:0:0:
448,0,148015,1,0,1:0:0:0:
320,0,148090,1,0,1:0:0:0:
192,0,148165,1,0,1:0:0:0:
64,0,148240,1,0,1:0:0:0:
448,0,148240,1,0,1:0:0:0:
192,0,148315,1,0,1:0:0:0:
320,0,148390,1,0,1:0:0:0:
448,0,148465,1,0,1:0:0:0:
64,0,148540,1,0,1:0:0:0:
192,0,148540,1,0,1:0:0:0:
320,0,148615,1,0,1:0:0:0:
448,0,148690,1,0,1:0:0:0:
192,0,148765,1,0,1:0:0:0:
64,0,148840,1,0,1:0:0:0:
320,0,148840,1,0,1:0:0:0:
448,0,148915,1,0,1:0:0:0:
320,0,148990,1,0,1:0:0:0:
448,0,149065,1,0,1:0:0:0:
64,0,149140,1,0,1:0:0:0:
192,0,149140,1,0,1:0:0:0:
320,0,149215,1,0,1:0:0:0:
64,0,149290,1,0,1:0:0:0:
192,0,149365,1,0,1:0:0:0:
320,0,149440,1,0,1:0:0:0:
448,0,149440,1,0,1:0:0:0:
64,0,149515,1,0,1:0:0:0:
192,0,149590,1,0,1:0:0:0:
320,0,149665,1,0,1:0:0:0:
64,0,149740,1,0,1:0:0:0:
448,0,149740,1,0,1:0:0:0:
192,0,149815,1,0,1:0:0:0:
448,0,149890,1,0,1:0:0:0:
320,0,149965,1,0,1:0:0:0:
64,0,150040,1,0,1:0:0:0:
192,0,150040,1,0,1:0:0:0:
448,0,150115,1,0,1:0:0:0:
320,0,150190,1,0,1:0:0:0:
192,0,150265,1,0,1:0:0:0:
64,0,150340,1,0,1:0:0:0:
448,0,150340,1,0,1:0:0:0:
192,0,150415,1,0,1:0:0:0:
320,0,150490,1,0,1:0:0:0:
448,0,150565,1,0,1:0:0:0:
64,0,150640,1,0,1:0:0:0:
192,0,150640,1,0,1:0:0:0:
320,0,150715,1,0,1:0:0:0:
64,0,150790,1,0,1:0:0:0:
192,0,150865,1,0,1:0:0:0:
320,0,150940,1,0,1:0:0:0:
448,0,150940,1,0,1:0:0:0:
64,0,151015,1,0,1:0:0:0:
192,0,151090,1,0,1:0:0:0:
320,0,151165,1,0,1:0:0:0:
64,0,151240,1,0,1:0:0:0:
448,0,151240,1,0,1:0:0:0:
192,0,151315,1,0,1:0:0:0:
64,0,151390,1,0,1:0:0:0:
192,0,151465,1,0,1:0:0:0:
320,0,151540,1,0,1:0:0:0:
448,0,151540,1,0,1:0:0:0:
64,0,151615,1,0,1:0:0:0:
192,0,151690,1,0,1:0:0:0:
448,0,151765,1,0,1:0:0:0:
64,0,151840,1,0,1:0:0:0:
320,0,151840,1,0,1:0:0:0:
192,0,151915,1,0,1:0:0:0:
448,0,151990,1,0,1:0:0:0:
320,0,152065,1,0,1:0:0:0:
64,0,152140,1,0,1:0:0:0:
192,0,152140,1,0,1:0:0:0:
320,0,152215,1,0,1:0:0:0:
448,0,152290,1,0,1:0:0:0:
64,0,152365,1,0,1:0:0:0:
192,0,152440,1,0,1:0:0:0:
448,0,152440,1,0,1:0:0:0:
320,0,152515,1,0,1:0:0:0:
64,0,152590,1,0,1:0:0:0:
192,0,152665,1,0,1:0:0:0:
64,0,152740,1,0,1:0:0:0:
448,0,152740,1,0,1:0:0:0:
320,0,152815,1,0,1:0:0:0:
192,0,152890,1,0,1:0:0:0:
64,0,152965,1,0,1:0:0:0:
320,0,153040,1,0,1:0:0:0:
448,0,153040,1,0,1:0:0:0:
192,0,153115,1,0,1:0:0:0:
64,0,153190,1,0,1:0:0:0:
320,0,153265,1,0,1:0:0:0:
192,0,153340,1,0,1:0:0:0:
448,0,153340,1,0,1:0:0:0:
320,0,153415,1,0,1:0:0:0:
64,0,153490,1,0,1:0:0:0:
192,0,153565,1,0,1:0:0:0:
64,0,153640,1,0,1:0:0:0:
448,0,153640,1,0,1:0:0:0:
320,0,153715,1,0,1:0:0:0:
448,0,153790,1,0,1:0:0:0:
320,0,153865,1,0,1:0:0:0:
64,0,153940,1,0,1:0:0:0:
192,0,153940,1,0,1:0:0:0:
448,0,154015,1,0,1:0:0:0:
320,0,154090,1,0,1:0:0:0:
192,0,154165,1,0,1:0:0:0:
64,0,154240,1,0,1:0:0:0:
448,0,154240,1,0,1:0:0:0:
192,0,154315,1,0,1:0:0:0:
320,0,154390,1,0,1:0:0:0:
64,0,154465,1,0,1:0:0:0:
192,0,154540,1,0,1:0:0:0:
448,0,154540,1,0,1:0:0:0:
320,0,154615,1,0,1:0:0:0:
192,0,154690,1,0,1:0:0:0:
64,0,154765,1,0,1:0:0:0:
320,0,154840,1,0,1:0:0:0:
448,0,154840,1,0,1:0:0:0:
192,0,154915,1,0,1:0:0:0:
320,0,154990,1,0,1:0:0:0:
448,0,155065,1,0,1:0:0:0:
64,0,155140,1,0,1:0:0:0:
192,0,155140,1,0,1:0:0:0:
320,0,155215,1,0,1:0:0:0:
64,0,155290,1,0,1:0:0:0:
448,0,155365,1,0,1:0:0:0:
192,0,155440,1,0,1:0:0:0:
320,0,155440,1,0,1:0:0:0:
448,0,155515,1,0,1:0:0:0:
64,0,155590,1,0,1:0:0:0:
192,0,155665,1,0,1:0:0:0:
320,0,155740,1,0,1:0:0:0:
448,0,155740,1,0,1:0:0:0:
192,0,155815,1,0,1:0:0:0:
64,0,155890,1,0,1:0:0:0:
320,0,155965,1,0,1:0:0:0:
448,0,155965,1,0,1:0:0:0:
64,0,156040,1,0,1:0:0:0:
192,0,156040,1,0,1:0:0:0:
320,0,156115,1,0,1:0:0:0:
64,0,156190,1,0,1:0:0:0:
448,0,156190,1,0,1:0:0:0:
192,0,156265,1,0,1:0:0:0:
320,0,156340,1,0,1:0:0:0:
448,0,156340,1,0,1:0:0:0:
192,0,156415,1,0,1:0:0:0:
64,0,156490,1,0,1:0:0:0:
320,0,156565,1,0,1:0:0:0:
448,0,156565,1,0,1:0:0:0:
64,0,156640,1,0,1:0:0:0:
192,0,156715,1,0,1:0:0:0:
320,0,156790,1,0,1:0:0:0:
448,0,156790,1,0,1:0:0:0:
64,0,156865,1,0,1:0:0:0:
192,0,156940,1,0,1:0:0:0:
448,0,156940,1,0,1:0:0:0:
320,0,157015,1,0,1:0:0:0:
192,0,157090,1,0,1:0:0:0:
64,0,157165,1,0,1:0:0:0:
448,0,157165,1,0,1:0:0:0:
320,0,157240,1,0,1:0:0:0:
192,0,157315,1,0,1:0:0:0:
64,0,157390,1,0,1:0:0:0:
448,0,157390,1,0,1:0:0:0:
192,0,157465,1,0,1:0:0:0:
320,0,157540,1,0,1:0:0:0:
448,0,157540,1,0,1:0:0:0:
64,0,157615,1,0,1:0:0:0:
192,0,157690,1,0,1:0:0:0:
320,0,157765,1,0,1:0:0:0:
448,0,157765,1,0,1:0:0:0:
192,0,157840,1,0,1:0:0:0:
64,0,157915,1,0,1:0:0:0:
320,0,157990,1,0,1:0:0:0:
448,0,157990,1,0,1:0:0:0:
192,0,158065,1,0,1:0:0:0:
64,0,158140,1,0,1:0:0:0:
448,0,158140,1,0,1:0:0:0:
320,0,158215,1,0,1:0:0:0:
192,0,158290,1,0,1:0:0:0:
64,0,158365,1,0,1:0:0:0:
448,0,158365,1,0,1:0:0:0:
320,0,158440,1,0,1:0:0:0:
192,0,158515,1,0,1:0:0:0:
64,0,158590,1,0,1:0:0:0:
320,0,158590,1,0,1:0:0:0:
448,0,158665,1,0,1:0:0:0:
64,0,158740,1,0,1:0:0:0:
192,0,158740,1,0,1:0:0:0:
320,0,158815,1,0,1:0:0:0:
448,0,158890,1,0,1:0:0:0:
64,0,158965,1,0,1:0:0:0:
192,0,158965,1,0,1:0:0:0:
448,0,159040,1,0,1:0:0:0:
320,0,159115,1,0,1:0:0:0:
64,0,159190,1,0,1:0:0:0:
192,0,159190,1,0,1:0:0:0:
448,0,159265,1,0,1:0:0:0:
64,0,159340,1,0,1:0:0:0:
320,0,159340,1,0,1:0:0:0:
192,0,159415,1,0,1:0:0:0:
320,0,159490,1,0,1:0:0:0:
64,0,159565,1,0,1:0:0:0:
448,0,159565,1,0,1:0:0:0:
192,0,159640,1,0,1:0:0:0:
320,0,159715,1,0,1:0:0:0:
64,0,159790,1,0,1:0:0:0:
448,0,159790,1,0,1:0:0:0:
320,0,159865,1,0,1:0:0:0:
64,0,159940,1,0,1:0:0:0:
192,0,159940,1,0,1:0:0:0:
448,0,160015,1,0,1:0:0:0:
320,0,160090,1,0,1:0:0:0:
64,0,160165,1,0,1:0:0:0:
192,0,160165,1,0,1:0:0:0:
320,0,160240,1,0,1:0:0:0:
448,0,160315,1,0,1:0:0:0:
64,0,160390,1,0,1:0:0:0:
192,0,160390,1,0,1:0:0:0:
320,0,160465,1,0,1:0:0:0:
64,0,160540,1,0,1:0:0:0:
448,0,160540,1,0,1:0:0:0:
192,0,160615,1,0,1:0:0:0:
320,0,160690,1,0,1:0:0:0:
64,0,160765,1,0,1:0:0:0:
448,0,160765,1,0,1:0:0:0:
320,0,160840,1,0,1:0:0:0:
192,0,160915,1,0,1:0:0:0:
64,0,160990,1,0,1:0:0:0:
448,0,160990,1,0,1:0:0:0:
320,0,161065,1,0,1:0:0:0:
64,0,161140,1,0,1:0:0:0:
192,0,161140,1,0,1:0:0:0:
320,0,161215,1,0,1:0:0:0:
448,0,161290,1,0,1:0:0:0:
64,0,161365,1,0,1:0:0:0:
192,0,161365,1,0,1:0:0:0:
448,0,161440,1,0,1:0:0:0:
320,0,161515,1,0,1:0:0:0:
64,0,161590,1,0,1:0:0:0:
192,0,161590,1,0,1:0:0:0:
448,0,161665,1,0,1:0:0:0:
64,0,161740,1,0,1:0:0:0:
320,0,161740,1,0,1:0:0:0:
192,0,161815,1,0,1:0:0:0:
320,0,161890,1,0,1:0:0:0:
64,0,161965,1,0,1:0:0:0:
448,0,161965,1,0,1:0:0:0:
192,0,162040,1,0,1:0:0:0:
320,0,162115,1,0,1:0:0:0:
64,0,162190,1,0,1:0:0:0:
448,0,162190,1,0,1:0:0:0:
320,0,162265,1,0,1:0:0:0:
64,0,162340,1,0,1:0:0:0:
192,0,162340,1,0,1:0:0:0:
448,0,162415,1,0,1:0:0:0:
320,0,162490,1,0,1:0:0:0:
64,0,162565,1,0,1:0:0:0:
192,0,162565,1,0,1:0:0:0:
320,0,162640,1,0,1:0:0:0:
448,0,162715,1,0,1:0:0:0:
64,0,162790,1,0,1:0:0:0:
192,0,162790,1,0,1:0:0:0:
320,0,162865,1,0,1:0:0:0:
64,0,162940,1,0,1:0:0:0:
448,0,162940,1,0,1:0:0:0:
192,0,163015,1,0,1:0:0:0:
320,0,163090,1,0,1:0:0:0:
192,0,163165,1,0,1:0:0:0:
448,0,163165,1,0,1:0:0:0:
64,0,163240,1,0,1:0:0:0:
320,0,163315,1,0,1:0:0:0:
192,0,163390,1,0,1:0:0:0:
448,0,163390,1,0,1:0:0:0:
64,0,163465,1,0,1:0:0:0:
320,0,163540,1,0,1:0:0:0:
448,0,163540,1,0,1:0:0:0:
64,0,163615,1,0,1:0:0:0:
192,0,163690,1,0,1:0:0:0:
320,0,163765,1,0,1:0:0:0:
448,0,163765,1,0,1:0:0:0:
192,0,163840,1,0,1:0:0:0:
64,0,163915,1,0,1:0:0:0:
320,0,163990,1,0,1:0:0:0:
448,0,163990,1,0,1:0:0:0:
64,0,164065,1,0,1:0:0:0:
192,0,164140,1,0,1:0:0:0:
448,0,164140,1,0,1:0:0:0:
320,0,164215,1,0,1:0:0:0:
192,0,164290,1,0,1:0:0:0:
64,0,164365,1,0,1:0:0:0:
448,0,164365,1,0,1:0:0:0:
320,0,164440,1,0,1:0:0:0:
192,0,164515,1,0,1:0:0:0:
64,0,164590,1,0,1:0:0:0:
448,0,164590,1,0,1:0:0:0:
192,0,164665,1,0,1:0:0:0:
320,0,164740,1,0,1:0:0:0:
448,0,164740,1,0,1:0:0:0:
64,0,164815,1,0,1:0:0:0:
192,0,164890,1,0,1:0:0:0:
320,0,164965,1,0,1:0:0:0:
448,0,164965,1,0,1:0:0:0:
192,0,165040,1,0,1:0:0:0:
64,0,165115,1,0,1:0:0:0:
320,0,165190,1,0,1:0:0:0:
448,0,165190,1,0,1:0:0:0:
192,0,165265,1,0,1:0:0:0:
64,0,165340,1,0,1:0:0:0:
448,0,165340,1,0,1:0:0:0:
320,0,165415,1,0,1:0:0:0:
64,0,165490,1,0,1:0:0:0:
192,0,165490,1,0,1:0:0:0:
320,0,165565,1,0,1:0:0:0:
448,0,165565,1,0,1:0:0:0:
64,0,165640,1,0,1:0:0:0:
192,0,165640,1,0,1:0:0:0:
448,0,165790,1,0,1:0:0:0:
320,0,165940,1,0,1:0:0:0:
448,0,166090,1,0,1:0:0:0:
192,0,166240,128,0,166315:0:0:0:0:
448,0,166390,1,0,1:0:0:0:
320,0,166540,1,0,1:0:0:0:
448,0,166690,1,0,1:0:0:0:
192,0,166840,128,0,166915:0:0:0:0:
448,0,166990,1,0,1:0:0:0:
320,0,167140,1,0,1:0:0:0:
448,0,167290,1,0,1:0:0:0:
192,0,167440,128,0,167515:0:0:0:0:
448,0,167590,1,0,1:0:0:0:
320,0,167740,128,0,167815:0:0:0:0:
448,0,167890,1,0,1:0:0:0:
64,0,168040,1,0,1:0:0:0:
320,0,168190,1,0,1:0:0:0:
192,0,168340,128,0,168415:0:0:0:0:
320,0,168490,1,0,1:0:0:0:
64,0,168640,1,0,1:0:0:0:
320,0,168790,128,0,168865:0:0:0:0:
192,0,168940,1,0,1:0:0:0:
320,0,169090,1,0,1:0:0:0:
64,0,169240,128,0,169315:0:0:0:0:
448,0,169240,1,0,1:0:0:0:
320,0,169390,1,0,1:0:0:0:
192,0,169540,1,0,1:0:0:0:
320,0,169690,1,0,1:0:0:0:
64,0,169840,1,0,1:0:0:0:
448,0,169840,1,0,1:0:0:0:
320,0,169990,1,0,1:0:0:0:
192,0,170140,1,0,1:0:0:0:
320,0,170290,1,0,1:0:0:0:
64,0,170440,128,0,170515:0:0:0:0:
448,0,170590,1,0,1:0:0:0:
192,0,170740,1,0,1:0:0:0:
448,0,170890,1,0,1:0:0:0:
64,0,171040,128,0,171115:0:0:0:0:
448,0,171190,1,0,1:0:0:0:
192,0,171340,128,0,171415:0:0:0:0:
448,0,171490,128,0,171565:0:0:0:0:
64,0,171640,1,0,1:0:0:0:
320,0,171640,1,0,1:0:0:0:
448,0,171790,1,0,1:0:0:0:
192,0,171940,1,0,1:0:0:0:
448,0,172090,128,0,172165:0:0:0:0:
64,0,172240,1,0,1:0:0:0:
320,0,172240,1,0,1:0:0:0:
448,0,172390,1,0,1:0:0:0:
192,0,172540,128,0,172615:0:0:0:0:
448,0,172690,1,0,1:0:0:0:
320,0,172840,128,0,172915:0:0:0:0:
448,0,172990,1,0,1:0:0:0:
320,0,173140,1,0,1:0:0:0:
448,0,173290,128,0,173365:0:0:0:0:
192,0,173440,1,0,1:0:0:0:
448,0,173590,1,0,1:0:0:0:
192,0,173740,1,0,1:0:0:0:
448,0,173890,128,0,173965:0:0:0:0:
64,0,174040,1,0,1:0:0:0:
320,0,174040,1,0,1:0:0:0:
448,0,174190,1,0,1:0:0:0:
320,0,174340,1,0,1:0:0:0:
448,0,174490,1,0,1:0:0:0:
64,0,174640,1,0,1:0:0:0:
192,0,174640,1,0,1:0:0:0:
448,0,174790,1,0,1:0:0:0:
192,0,174940,1,0,1:0:0:0:
448,0,175090,1,0,1:0:0:0:
192,0,175240,128,0,175315:0:0:0:0:
320,0,175240,1,0,1:0:0:0:
448,0,175390,1,0,1:0:0:0:
320,0,175540,1,0,1:0:0:0:
448,0,175690,128,0,175765:0:0:0:0:
64,0,175840,1,0,1:0:0:0:
448,0,175990,1,0,1:0:0:0:
320,0,176140,128,0,176215:0:0:0:0:
448,0,176290,1,0,1:0:0:0:
64,0,176440,128,0,176515:0:0:0:0:
192,0,176440,1,0,1:0:0:0:
448,0,176590,1,0,1:0:0:0:
320,0,176740,1,0,1:0:0:0:
448,0,176890,1,0,1:0:0:0:
64,0,177040,1,0,1:0:0:0:
448,0,177190,1,0,1:0:0:0:
320,0,177340,1,0,1:0:0:0:
448,0,177490,1,0,1:0:0:0:
64,0,177640,128,0,177715:0:0:0:0:
448,0,177790,1,0,1:0:0:0:
192,0,177940,1,0,1:0:0:0:
448,0,178090,128,0,178165:0:0:0:0:
64,0,178240,1,0,1:0:0:0:
448,0,178390,1,0,1:0:0:0:
192,0,178540,128,0,178615:0:0:0:0:
448,0,178690,1,0,1:0:0:0:
64,0,178840,128,0,178915:0:0:0:0:
448,0,178990,1,0,1:0:0:0:
192,0,179140,1,0,1:0:0:0:
448,0,179290,1,0,1:0:0:0:
64,0,179440,1,0,1:0:0:0:
448,0,179590,1,0,1:0:0:0:
192,0,179740,1,0,1:0:0:0:
448,0,179890,1,0,1:0:0:0:
64,0,180040,1,0,1:0:0:0:
320,0,180040,128,0,180115:0:0:0:0:
192,0,180190,1,0,1:0:0:0:
64,0,180340,1,0,1:0:0:0:
192,0,180490,128,0,180565:0:0:0:0:
320,0,180640,1,0,1:0:0:0:
448,0,180640,1,0,1:0:0:0:
192,0,180790,1,0,1:0:0:0:
64,0,180940,128,0,181015:0:0:0:0:
192,0,181090,1,0,1:0:0:0:
320,0,181240,128,0,181315:0:0:0:0:
448,0,181240,1,0,1:0:0:0:
192,0,181390,1,0,1:0:0:0:
64,0,181540,1,0,1:0:0:0:
192,0,181690,1,0,1:0:0:0:
320,0,181840,1,0,1:0:0:0:
448,0,181840,1,0,1:0:0:0:
192,0,181990,1,0,1:0:0:0:
64,0,182140,1,0,1:0:0:0:
192,0,182290,1,0,1:0:0:0:
64,0,182440,1,0,1:0:0:0:
320,0,182440,1,0,1:0:0:0:
448,0,182440,1,0,1:0:0:0:
64,0,183640,1,0,1:0:0:0:
448,0,183640,128,0,183790:0:0:0:0:
64,0,183790,1,0,1:0:0:0:
64,0,183940,1,0,1:0:0:0:
320,0,183940,128,0,184090:0:0:0:0:
64,0,184090,1,0,1:0:0:0:
64,0,184240,1,0,1:0:0:0:
192,0,184240,128,0,184390:0:0:0:0:
64,0,184390,1,0,1:0:0:0:
320,0,184540,128,0,184765:0:0:0:0:
64,0,184690,1,0,1:0:0:0:
64,0,184840,1,0,1:0:0:0:
192,0,184840,1,0,1:0:0:0:
448,0,184840,128,0,184915:0:0:0:0:
320,0,184915,1,0,1:0:0:0:
64,0,184990,1,0,1:0:0:0:
192,0,184990,1,0,1:0:0:0:
320,0,185065,1,0,1:0:0:0:
192,0,185140,1,0,1:0:0:0:
448,0,185140,1,0,1:0:0:0:
64,0,185215,1,0,1:0:0:0:
320,0,185290,1,0,1:0:0:0:
448,0,185365,1,0,1:0:0:0:
64,0,185440,1,0,1:0:0:0:
192,0,185440,1,0,1:0:0:0:
320,0,185515,1,0,1:0:0:0:
192,0,185590,1,0,1:0:0:0:
448,0,185590,1,0,1:0:0:0:
64,0,185665,1,0,1:0:0:0:
320,0,185740,1,0,1:0:0:0:
448,0,185815,1,0,1:0:0:0:
64,0,185890,1,0,1:0:0:0:
192,0,185890,1,0,1:0:0:0:
320,0,185965,1,0,1:0:0:0:
192,0,186040,1,0,1:0:0:0:
448,0,186040,1,0,1:0:0:0:
64,0,186115,1,0,1:0:0:0:
320,0,186190,1,0,1:0:0:0:
448,0,186265,1,0,1:0:0:0:
64,0,186340,1,0,1:0:0:0:
192,0,186340,1,0,1:0:0:0:
320,0,186415,1,0,1:0:0:0:
192,0,186490,1,0,1:0:0:0:
448,0,186490,1,0,1:0:0:0:
64,0,186565,1,0,1:0:0:0:
320,0,186640,1,0,1:0:0:0:
448,0,186715,1,0,1:0:0:0:
64,0,186790,1,0,1:0:0:0:
192,0,186790,1,0,1:0:0:0:
320,0,186865,1,0,1:0:0:0:
192,0,186940,1,0,1:0:0:0:
448,0,186940,1,0,1:0:0:0:
64,0,187015,1,0,1:0:0:0:
320,0,187090,1,0,1:0:0:0:
448,0,187165,1,0,1:0:0:0:
64,0,187240,1,0,1:0:0:0:
320,0,187240,1,0,1:0:0:0:
192,0,187315,1,0,1:0:0:0:
64,0,187390,1,0,1:0:0:0:
448,0,187390,1,0,1:0:0:0:
192,0,187465,1,0,1:0:0:0:
64,0,187540,1,0,1:0:0:0:
320,0,187540,1,0,1:0:0:0:
448,0,187615,1,0,1:0:0:0:
320,0,187690,1,0,1:0:0:0:
192,0,187765,1,0,1:0:0:0:
64,0,187840,1,0,1:0:0:0:
448,0,187840,1,0,1:0:0:0:
192,0,187915,1,0,1:0:0:0:
64,0,187990,1,0,1:0:0:0:
320,0,187990,1,0,1:0:0:0:
448,0,188065,1,0,1:0:0:0:
320,0,188140,1,0,1:0:0:0:
192,0,188215,1,0,1:0:0:0:
64,0,188290,1,0,1:0:0:0:
448,0,188290,1,0,1:0:0:0:
192,0,188365,1,0,1:0:0:0:
64,0,188440,1,0,1:0:0:0:
320,0,188440,1,0,1:0:0:0:
448,0,188515,1,0,1:0:0:0:
320,0,188590,1,0,1:0:0:0:
192,0,188665,1,0,1:0:0:0:
64,0,188740,1,0,1:0:0:0:
448,0,188740,1,0,1:0:0:0:
192,0,188815,1,0,1:0:0:0:
64,0,188890,1,0,1:0:0:0:
320,0,188890,1,0,1:0:0:0:
448,0,188965,1,0,1:0:0:0:
320,0,189040,1,0,1:0:0:0:
192,0,189115,1,0,1:0:0:0:
64,0,189190,1,0,1:0:0:0:
448,0,189190,1,0,1:0:0:0:
192,0,189265,1,0,1:0:0:0:
64,0,189340,1,0,1:0:0:0:
320,0,189340,1,0,1:0:0:0:
448,0,189415,1,0,1:0:0:0:
320,0,189490,1,0,1:0:0:0:
192,0,189565,1,0,1:0:0:0:
64,0,189640,1,0,1:0:0:0:
448,0,189640,1,0,1:0:0:0:
192,0,189715,1,0,1:0:0:0:
320,0,189790,1,0,1:0:0:0:
448,0,189790,1,0,1:0:0:0:
64,0,189865,1,0,1:0:0:0:
192,0,189940,1,0,1:0:0:0:
448,0,189940,1,0,1:0:0:0:
320,0,190015,1,0,1:0:0:0:
192,0,190090,1,0,1:0:0:0:
64,0,190165,1,0,1:0:0:0:
320,0,190240,1,0,1:0:0:0:
448,0,190240,1,0,1:0:0:0:
64,0,190315,1,0,1:0:0:0:
192,0,190390,1,0,1:0:0:0:
448,0,190390,1,0,1:0:0:0:
320,0,190465,1,0,1:0:0:0:
192,0,190540,1,0,1:0:0:0:
64,0,190615,1,0,1:0:0:0:
320,0,190690,1,0,1:0:0:0:
448,0,190690,1,0,1:0:0:0:
64,0,190765,1,0,1:0:0:0:
192,0,190840,1,0,1:0:0:0:
448,0,190840,1,0,1:0:0:0:
320,0,190915,1,0,1:0:0:0:
192,0,190990,1,0,1:0:0:0:
64,0,191065,1,0,1:0:0:0:
320,0,191140,1,0,1:0:0:0:
448,0,191140,1,0,1:0:0:0:
64,0,191215,1,0,1:0:0:0:
192,0,191290,1,0,1:0:0:0:
448,0,191290,1,0,1:0:0:0:
320,0,191365,1,0,1:0:0:0:
192,0,191440,1,0,1:0:0:0:
64,0,191515,1,0,1:0:0:0:
320,0,191590,1,0,1:0:0:0:
448,0,191590,1,0,1:0:0:0:
64,0,191665,1,0,1:0:0:0:
192,0,191740,1,0,1:0:0:0:
448,0,191740,1,0,1:0:0:0:
320,0,191815,1,0,1:0:0:0:
192,0,191890,1,0,1:0:0:0:
448,0,191965,1,0,1:0:0:0:
64,0,192040,1,0,1:0:0:0:
320,0,192040,1,0,1:0:0:0:
192,0,192115,1,0,1:0:0:0:
64,0,192190,1,0,1:0:0:0:
448,0,192190,1,0,1:0:0:0:
320,0,192265,1,0,1:0:0:0:
64,0,192340,1,0,1:0:0:0:
192,0,192340,1,0,1:0:0:0:
320,0,192415,1,0,1:0:0:0:
448,0,192490,1,0,1:0:0:0:
192,0,192565,1,0,1:0:0:0:
64,0,192640,1,0,1:0:0:0:
448,0,192640,1,0,1:0:0:0:
320,0,192715,1,0,1:0:0:0:
64,0,192790,1,0,1:0:0:0:
192,0,192790,1,0,1:0:0:0:
320,0,192865,1,0,1:0:0:0:
448,0,192940,1,0,1:0:0:0:
192,0,193015,1,0,1:0:0:0:
64,0,193090,1,0,1:0:0:0:
448,0,193090,1,0,1:0:0:0:
320,0,193165,1,0,1:0:0:0:
64,0,193240,1,0,1:0:0:0:
192,0,193240,1,0,1:0:0:0:
320,0,193315,1,0,1:0:0:0:
448,0,193390,1,0,1:0:0:0:
192,0,193465,1,0,1:0:0:0:
64,0,193540,1,0,1:0:0:0:
448,0,193540,1,0,1:0:0:0:
320,0,193615,1,0,1:0:0:0:
64,0,193690,1,0,1:0:0:0:
192,0,193690,1,0,1:0:0:0:
320,0,193765,1,0,1:0:0:0:
448,0,193840,1,0,1:0:0:0:
192,0,193915,1,0,1:0:0:0:
64,0,193990,1,0,1:0:0:0:
448,0,193990,1,0,1:0:0:0:
320,0,194065,1,0,1:0:0:0:
64,0,194140,1,0,1:0:0:0:
192,0,194140,1,0,1:0:0:0:
448,0,194215,1,0,1:0:0:0:
320,0,194290,1,0,1:0:0:0:
192,0,194365,1,0,1:0:0:0:
64,0,194440,1,0,1:0:0:0:
448,0,194440,1,0,1:0:0:0:
192,0,194515,1,0,1:0:0:0:
320,0,194590,1,0,1:0:0:0:
448,0,194590,1,0,1:0:0:0:
64,0,194665,1,0,1:0:0:0:
192,0,194740,1,0,1:0:0:0:
320,0,194740,1,0,1:0:0:0:
64,0,194815,1,0,1:0:0:0:
448,0,194890,1,0,1:0:0:0:
192,0,194965,1,0,1:0:0:0:
320,0,195040,1,0,1:0:0:0:
448,0,195040,1,0,1:0:0:0:
64,0,195115,1,0,1:0:0:0:
192,0,195190,1,0,1:0:0:0:
320,0,195190,1,0,1:0:0:0:
64,0,195265,1,0,1:0:0:0:
448,0,195340,1,0,1:0:0:0:
192,0,195415,1,0,1:0:0:0:
320,0,195490,1,0,1:0:0:0:
448,0,195490,1,0,1:0:0:0:
64,0,195565,1,0,1:0:0:0:
192,0,195640,1,0,1:0:0:0:
320,0,195640,1,0,1:0:0:0:
64,0,195715,1,0,1:0:0:0:
448,0,195790,1,0,1:0:0:0:
192,0,195865,1,0,1:0:0:0:
320,0,195940,1,0,1:0:0:0:
448,0,195940,1,0,1:0:0:0:
64,0,196015,1,0,1:0:0:0:
192,0,196090,1,0,1:0:0:0:
320,0,196090,1,0,1:0:0:0:
64,0,196165,1,0,1:0:0:0:
448,0,196240,1,0,1:0:0:0:
192,0,196315,1,0,1:0:0:0:
320,0,196390,1,0,1:0:0:0:
448,0,196390,1,0,1:0:0:0:
64,0,196465,1,0,1:0:0:0:
192,0,196540,1,0,1:0:0:0:
320,0,196540,1,0,1:0:0:0:
64,0,196615,1,0,1:0:0:0:
448,0,196690,1,0,1:0:0:0:
320,0,196765,1,0,1:0:0:0:
64,0,196840,1,0,1:0:0:0:
192,0,196840,1,0,1:0:0:0:
448,0,196915,1,0,1:0:0:0:
64,0,196990,1,0,1:0:0:0:
320,0,196990,1,0,1:0:0:0:
192,0,197065,1,0,1:0:0:0:
64,0,197140,1,0,1:0:0:0:
448,0,197140,1,0,1:0:0:0:
320,0,197215,1,0,1:0:0:0:
192,0,197290,1,0,1:0:0:0:
448,0,197365,1,0,1:0:0:0:
64,0,197440,1,0,1:0:0:0:
320,0,197440,1,0,1:0:0:0:
192,0,197515,1,0,1:0:0:0:
64,0,197590,1,0,1:0:0:0:
448,0,197590,1,0,1:0:0:0:
192,0,197665,1,0,1:0:0:0:
320,0,197740,1,0,1:0:0:0:
448,0,197815,1,0,1:0:0:0:
64,0,197890,1,0,1:0:0:0:
320,0,197890,1,0,1:0:0:0:
192,0,197965,1,0,1:0:0:0:
64,0,198040,1,0,1:0:0:0:
448,0,198040,1,0,1:0:0:0:
320,0,198115,1,0,1:0:0:0:
192,0,198190,1,0,1:0:0:0:
448,0,198265,1,0,1:0:0:0:
64,0,198340,1,0,1:0:0:0:
320,0,198340,1,0,1:0:0:0:
192,0,198415,1,0,1:0:0:0:
64,0,198490,1,0,1:0:0:0:
448,0,198490,1,0,1:0:0:0:
192,0,198565,1,0,1:0:0:0:
320,0,198640,1,0,1:0:0:0:
448,0,198715,1,0,1:0:0:0:
64,0,198790,1,0,1:0:0:0:
320,0,198790,1,0,1:0:0:0:
192,0,198865,1,0,1:0:0:0:
64,0,198940,1,0,1:0:0:0:
448,0,198940,1,0,1:0:0:0:
320,0,199015,1,0,1:0:0:0:
192,0,199090,1,0,1:0:0:0:
64,0,199165,1,0,1:0:0:0:
320,0,199240,1,0,1:0:0:0:
448,0,199240,1,0,1:0:0:0:
64,0,199315,1,0,1:0:0:0:
192,0,199390,1,0,1:0:0:0:
320,0,199390,1,0,1:0:0:0:
64,0,199465,1,0,1:0:0:0:
320,0,199540,1,0,1:0:0:0:
448,0,199540,1,0,1:0:0:0:
192,0,199615,1,0,1:0:0:0:
448,0,199690,1,0,1:0:0:0:
64,0,199765,1,0,1:0:0:0:
192,0,199840,1,0,1:0:0:0:
320,0,199840,1,0,1:0:0:0:
64,0,199915,1,0,1:0:0:0:
320,0,199990,1,0,1:0:0:0:
448,0,199990,1,0,1:0:0:0:
192,0,200065,1,0,1:0:0:0:
448,0,200140,1,0,1:0:0:0:
64,0,200215,1,0,1:0:0:0:
192,0,200290,1,0,1:0:0:0:
320,0,200290,1,0,1:0:0:0:
64,0,200365,1,0,1:0:0:0:
320,0,200440,1,0,1:0:0:0:
448,0,200440,1,0,1:0:0:0:
192,0,200515,1,0,1:0:0:0:
448,0,200590,1,0,1:0:0:0:
64,0,200665,1,0,1:0:0:0:
192,0,200740,1,0,1:0:0:0:
320,0,200740,1,0,1:0:0:0:
64,0,200815,1,0,1:0:0:0:
320,0,200890,1,0,1:0:0:0:
448,0,200890,1,0,1:0:0:0:
192,0,200965,1,0,1:0:0:0:
448,0,201040,1,0,1:0:0:0:
64,0,201115,1,0,1:0:0:0:
192,0,201190,1,0,1:0:0:0:
320,0,201190,1,0,1:0:0:0:
64,0,201265,1,0,1:0:0:0:
320,0,201340,1,0,1:0:0:0:
448,0,201340,1,0,1:0:0:0:
192,0,201415,1,0,1:0:0:0:
448,0,201490,1,0,1:0:0:0:
64,0,201565,1,0,1:0:0:0:
320,0,201640,1,0,1:0:0:0:
192,0,201715,1,0,1:0:0:0:
64,0,201790,1,0,1:0:0:0:
448,0,201790,1,0,1:0:0:0:
320,0,201865,1,0,1:0:0:0:
192,0,201940,1,0,1:0:0:0:
448,0,201940,1,0,1:0:0:0:
64,0,202015,1,0,1:0:0:0:
192,0,202090,1,0,1:0:0:0:
320,0,202165,1,0,1:0:0:0:
64,0,202240,1,0,1:0:0:0:
448,0,202240,1,0,1:0:0:0:
320,0,202315,1,0,1:0:0:0:
192,0,202390,1,0,1:0:0:0:
448,0,202390,1,0,1:0:0:0:
64,0,202465,1,0,1:0:0:0:
192,0,202540,1,0,1:0:0:0:
320,0,202615,1,0,1:0:0:0:
64,0,202690,1,0,1:0:0:0:
448,0,202690,1,0,1:0:0:0:
320,0,202765,1,0,1:0:0:0:
64,0,202840,128,0,203740:0:0:0:0:
192,0,202840,1,0,1:0:0:0:
192,0,203440,128,0,203965:0:0:0:0:
64,0,204040,1,0,1:0:0:0:
320,0,204040,1,0,1:0:0:0:
448,0,204040,1,0,1:0:0:0:
192,0,204115,1,0,1:0:0:0:
320,0,204190,1,0,1:0:0:0:
448,0,204190,1,0,1:0:0:0:
192,0,204265,1,0,1:0:0:0:
64,0,204340,1,0,1:0:0:0:
448,0,204340,1,0,1:0:0:0:
320,0,204415,1,0,1:0:0:0:
64,0,204490,1,0,1:0:0:0:
192,0,204490,1,0,1:0:0:0:
448,0,204565,1,0,1:0:0:0:
192,0,204640,1,0,1:0:0:0:
320,0,204640,1,0,1:0:0:0:
448,0,204715,1,0,1:0:0:0:
64,0,204790,1,0,1:0:0:0:
320,0,204790,1,0,1:0:0:0:
192,0,204865,1,0,1:0:0:0:
64,0,204940,1,0,1:0:0:0:
448,0,204940,1,0,1:0:0:0:
320,0,205015,1,0,1:0:0:0:
192,0,205090,1,0,1:0:0:0:
448,0,205090,1,0,1:0:0:0:
320,0,205165,1,0,1:0:0:0:
64,0,205240,1,0,1:0:0:0:
192,0,205240,1,0,1:0:0:0:
448,0,205315,1,0,1:0:0:0:
64,0,205390,1,0,1:0:0:0:
320,0,205390,1,0,1:0:0:0:
192,0,205465,1,0,1:0:0:0:
320,0,205540,1,0,1:0:0:0:
448,0,205540,1,0,1:0:0:0:
64,0,205615,1,0,1:0:0:0:
192,0,205690,1,0,1:0:0:0:
448,0,205690,1,0,1:0:0:0:
320,0,205765,1,0,1:0:0:0:
64,0,205840,1,0,1:0:0:0:
192,0,205840,1,0,1:0:0:0:
320,0,205915,1,0,1:0:0:0:
64,0,205990,1,0,1:0:0:0:
448,0,205990,1,0,1:0:0:0:
192,0,206065,1,0,1:0:0:0:
320,0,206140,1,0,1:0:0:0:
448,0,206140,1,0,1:0:0:0:
192,0,206215,1,0,1:0:0:0:
320,0,206290,1,0,1:0:0:0:
448,0,206290,1,0,1:0:0:0:
192,0,206365,1,0,1:0:0:0:
320,0,206440,1,0,1:0:0:0:
448,0,206440,1,0,1:0:0:0:
192,0,206515,1,0,1:0:0:0:
64,0,206590,1,0,1:0:0:0:
448,0,206590,1,0,1:0:0:0:
320,0,206665,1,0,1:0:0:0:
64,0,206740,1,0,1:0:0:0:
192,0,206740,1,0,1:0:0:0:
448,0,206815,1,0,1:0:0:0:
64,0,206890,1,0,1:0:0:0:
320,0,206890,1,0,1:0:0:0:
192,0,206965,1,0,1:0:0:0:
320,0,207040,1,0,1:0:0:0:
448,0,207040,1,0,1:0:0:0:
64,0,207115,1,0,1:0:0:0:
192,0,207190,1,0,1:0:0:0:
448,0,207190,1,0,1:0:0:0:
320,0,207265,1,0,1:0:0:0:
64,0,207340,1,0,1:0:0:0:
448,0,207340,1,0,1:0:0:0:
320,0,207415,1,0,1:0:0:0:
64,0,207490,1,0,1:0:0:0:
192,0,207490,1,0,1:0:0:0:
448,0,207565,1,0,1:0:0:0:
192,0,207640,1,0,1:0:0:0:
320,0,207640,1,0,1:0:0:0:
64,0,207715,1,0,1:0:0:0:
320,0,207790,1,0,1:0:0:0:
448,0,207790,1,0,1:0:0:0:
64,0,207865,1,0,1:0:0:0:
192,0,207940,1,0,1:0:0:0:
448,0,207940,1,0,1:0:0:0:
64,0,208015,1,0,1:0:0:0:
192,0,208090,1,0,1:0:0:0:
320,0,208090,1,0,1:0:0:0:
448,0,208165,1,0,1:0:0:0:
64,0,208240,1,0,1:0:0:0:
192,0,208240,1,0,1:0:0:0:
448,0,208315,1,0,1:0:0:0:
64,0,208390,1,0,1:0:0:0:
320,0,208390,1,0,1:0:0:0:
192,0,208465,1,0,1:0:0:0:
320,0,208540,1,0,1:0:0:0:
448,0,208540,1,0,1:0:0:0:
192,0,208615,1,0,1:0:0:0:
64,0,208690,1,0,1:0:0:0:
448,0,208690,1,0,1:0:0:0:
320,0,208765,1,0,1:0:0:0:
64,0,208840,1,0,1:0:0:0:
192,0,208840,1,0,1:0:0:0:
320,0,208915,1,0,1:0:0:0:
64,0,208990,1,0,1:0:0:0:
448,0,208990,1,0,1:0:0:0:
192,0,209065,1,0,1:0:0:0:
320,0,209140,1,0,1:0:0:0:
448,0,209140,1,0,1:0:0:0:
64,0,209215,1,0,1:0:0:0:
192,0,209290,1,0,1:0:0:0:
320,0,209290,1,0,1:0:0:0:
448,0,209365,1,0,1:0:0:0:
64,0,209440,1,0,1:0:0:0:
192,0,209440,1,0,1:0:0:0:
448,0,209515,1,0,1:0:0:0:
64,0,209590,1,0,1:0:0:0:
320,0,209590,1,0,1:0:0:0:
192,0,209665,1,0,1:0:0:0:
64,0,209740,1,0,1:0:0:0:
448,0,209740,1,0,1:0:0:0:
192,0,209815,1,0,1:0:0:0:
320,0,209890,1,0,1:0:0:0:
448,0,209890,1,0,1:0:0:0:
64,0,209965,1,0,1:0:0:0:
192,0,210040,1,0,1:0:0:0:
320,0,210040,1,0,1:0:0:0:
64,0,210115,1,0,1:0:0:0:
320,0,210190,1,0,1:0:0:0:
448,0,210190,1,0,1:0:0:0:
192,0,210265,1,0,1:0:0:0:
64,0,210340,1,0,1:0:0:0:
448,0,210340,1,0,1:0:0:0:
320,0,210415,1,0,1:0:0:0:
64,0,210490,1,0,1:0:0:0:
192,0,210490,1,0,1:0:0:0:
320,0,210565,1,0,1:0:0:0:
192,0,210640,1,0,1:0:0:0:
448,0,210640,1,0,1:0:0:0:
64,0,210715,1,0,1:0:0:0:
320,0,210790,1,0,1:0:0:0:
448,0,210790,1,0,1:0:0:0:
64,0,210865,1,0,1:0:0:0:
192,0,210940,1,0,1:0:0:0:
320,0,210940,1,0,1:0:0:0:
448,0,211015,1,0,1:0:0:0:
64,0,211090,1,0,1:0:0:0:
192,0,211090,1,0,1:0:0:0:
448,0,211165,1,0,1:0:0:0:
64,0,211240,1,0,1:0:0:0:
320,0,211240,1,0,1:0:0:0:
192,0,211315,1,0,1:0:0:0:
64,0,211390,1,0,1:0:0:0:
448,0,211390,1,0,1:0:0:0:
192,0,211465,1,0,1:0:0:0:
320,0,211540,1,0,1:0:0:0:
448,0,211540,1,0,1:0:0:0:
64,0,211615,1,0,1:0:0:0:
192,0,211690,1,0,1:0:0:0:
320,0,211690,1,0,1:0:0:0:
448,0,211765,1,0,1:0:0:0:
64,0,211840,1,0,1:0:0:0:
192,0,211840,1,0,1:0:0:0:
320,0,211915,1,0,1:0:0:0:
192,0,211990,1,0,1:0:0:0:
448,0,211990,1,0,1:0:0:0:
64,0,212065,1,0,1:0:0:0:
320,0,212140,1,0,1:0:0:0:
448,0,212140,1,0,1:0:0:0:
192,0,212215,1,0,1:0:0:0:
64,0,212290,1,0,1:0:0:0:
448,0,212290,1,0,1:0:0:0:
320,0,212365,1,0,1:0:0:0:
64,0,212440,1,0,1:0:0:0:
192,0,212440,1,0,1:0:0:0:
448,0,212515,1,0,1:0:0:0:
192,0,212590,1,0,1:0:0:0:
320,0,212590,1,0,1:0:0:0:
64,0,212665,1,0,1:0:0:0:
320,0,212740,1,0,1:0:0:0:
448,0,212740,1,0,1:0:0:0:
64,0,212815,1,0,1:0:0:0:
192,0,212890,1,0,1:0:0:0:
448,0,212890,1,0,1:0:0:0:
320,0,212965,1,0,1:0:0:0:
64,0,213040,1,0,1:0:0:0:
192,0,213040,1,0,1:0:0:0:
320,0,213115,1,0,1:0:0:0:
64,0,213190,1,0,1:0:0:0:
448,0,213190,1,0,1:0:0:0:
192,0,213265,1,0,1:0:0:0:
320,0,213340,1,0,1:0:0:0:
448,0,213340,1,0,1:0:0:0:
192,0,213415,1,0,1:0:0:0:
64,0,213490,1,0,1:0:0:0:
320,0,213490,1,0,1:0:0:0:
448,0,213565,1,0,1:0:0:0:
192,0,213640,1,0,1:0:0:0:
320,0,213640,1,0,1:0:0:0:
64,0,213715,1,0,1:0:0:0:
192,0,213790,1,0,1:0:0:0:
448,0,213790,1,0,1:0:0:0:
64,0,213865,1,0,1:0:0:0:
320,0,213940,1,0,1:0:0:0:
448,0,213940,1,0,1:0:0:0:
192,0,214015,1,0,1:0:0:0:
64,0,214090,1,0,1:0:0:0:
448,0,214090,1,0,1:0:0:0:
320,0,214165,1,0,1:0:0:0:
64,0,214240,1,0,1:0:0:0:
192,0,214240,1,0,1:0:0:0:
448,0,214315,1,0,1:0:0:0:
192,0,214390,1,0,1:0:0:0:
320,0,214390,1,0,1:0:0:0:
448,0,214465,1,0,1:0:0:0:
64,0,214540,1,0,1:0:0:0:
320,0,214540,1,0,1:0:0:0:
192,0,214615,1,0,1:0:0:0:
64,0,214690,1,0,1:0:0:0:
448,0,214690,1,0,1:0:0:0:
192,0,214765,1,0,1:0:0:0:
320,0,214840,1,0,1:0:0:0:
448,0,214840,1,0,1:0:0:0:
64,0,214915,1,0,1:0:0:0:
192,0,214990,1,0,1:0:0:0:
320,0,214990,1,0,1:0:0:0:
448,0,215065,1,0,1:0:0:0:
64,0,215140,1,0,1:0:0:0:
192,0,215140,1,0,1:0:0:0:
448,0,215215,1,0,1:0:0:0:
64,0,215290,1,0,1:0:0:0:
320,0,215290,1,0,1:0:0:0:
192,0,215365,1,0,1:0:0:0:
320,0,215440,1,0,1:0:0:0:
448,0,215440,1,0,1:0:0:0:
192,0,215515,1,0,1:0:0:0:
64,0,215590,1,0,1:0:0:0:
448,0,215590,1,0,1:0:0:0:
320,0,215665,1,0,1:0:0:0:
64,0,215740,1,0,1:0:0:0:
192,0,215740,1,0,1:0:0:0:
320,0,215815,1,0,1:0:0:0:
64,0,215890,1,0,1:0:0:0:
192,0,215890,1,0,1:0:0:0:
320,0,215965,1,0,1:0:0:0:
64,0,216040,1,0,1:0:0:0:
192,0,216040,1,0,1:0:0:0:
320,0,216115,1,0,1:0:0:0:
64,0,216190,1,0,1:0:0:0:
448,0,216190,1,0,1:0:0:0:
192,0,216265,1,0,1:0:0:0:
320,0,216340,1,0,1:0:0:0:
448,0,216340,1,0,1:0:0:0:
64,0,216415,1,0,1:0:0:0:
192,0,216490,1,0,1:0:0:0:
320,0,216490,1,0,1:0:0:0:
64,0,216565,1,0,1:0:0:0:
192,0,216640,1,0,1:0:0:0:
448,0,216640,1,0,1:0:0:0:
320,0,216715,1,0,1:0:0:0:
64,0,216790,1,0,1:0:0:0:
448,0,216790,1,0,1:0:0:0:
320,0,216865,1,0,1:0:0:0:
64,0,216940,1,0,1:0:0:0:
192,0,216940,1,0,1:0:0:0:
448,0,217015,1,0,1:0:0:0:
192,0,217090,1,0,1:0:0:0:
320,0,217090,1,0,1:0:0:0:
64,0,217165,1,0,1:0:0:0:
320,0,217240,1,0,1:0:0:0:
448,0,217240,1,0,1:0:0:0:
64,0,217315,1,0,1:0:0:0:
192,0,217390,1,0,1:0:0:0:
448,0,217390,1,0,1:0:0:0:
320,0,217465,1,0,1:0:0:0:
64,0,217540,1,0,1:0:0:0:
192,0,217540,1,0,1:0:0:0:
320,0,217615,1,0,1:0:0:0:
64,0,217690,1,0,1:0:0:0:
448,0,217690,1,0,1:0:0:0:
192,0,217765,1,0,1:0:0:0:
320,0,217840,1,0,1:0:0:0:
448,0,217840,1,0,1:0:0:0:
192,0,217915,1,0,1:0:0:0:
64,0,217990,1,0,1:0:0:0:
448,0,217990,1,0,1:0:0:0:
320,0,218065,1,0,1:0:0:0:
64,0,218140,1,0,1:0:0:0:
192,0,218140,1,0,1:0:0:0:
320,0,218215,1,0,1:0:0:0:
192,0,218290,1,0,1:0:0:0:
448,0,218290,1,0,1:0:0:0:
320,0,218365,1,0,1:0:0:0:
64,0,218440,1,0,1:0:0:0:
192,0,218440,1,0,1:0:0:0:
448,0,218515,1,0,1:0:0:0:
320,0,218590,1,0,1:0:0:0:
192,0,218665,1,0,1:0:0:0:
64,0,218740,1,0,1:0:0:0:
448,0,218740,1,0,1:0:0:0:
320,0,218815,1,0,1:0:0:0:
192,0,218890,1,0,1:0:0:0:
320,0,218965,1,0,1:0:0:0:
64,0,219040,1,0,1:0:0:0:
192,0,219040,1,0,1:0:0:0:
448,0,219115,1,0,1:0:0:0:
320,0,219190,1,0,1:0:0:0:
192,0,219265,1,0,1:0:0:0:
64,0,219340,1,0,1:0:0:0:
448,0,219340,1,0,1:0:0:0:
192,0,219415,1,0,1:0:0:0:
320,0,219490,1,0,1:0:0:0:
448,0,219565,1,0,1:0:0:0:
64,0,219640,1,0,1:0:0:0:
192,0,219640,1,0,1:0:0:0:
320,0,219715,1,0,1:0:0:0:
192,0,219790,1,0,1:0:0:0:
320,0,219865,1,0,1:0:0:0:
64,0,219940,1,0,1:0:0:0:
448,0,219940,1,0,1:0:0:0:
192,0,220015,1,0,1:0:0:0:
320,0,220090,1,0,1:0:0:0:
448,0,220165,1,0,1:0:0:0:
64,0,220240,1,0,1:0:0:0:
192,0,220240,1,0,1:0:0:0:
320,0,220315,1,0,1:0:0:0:
448,0,220390,1,0,1:0:0:0:
192,0,220465,1,0,1:0:0:0:
64,0,220540,1,0,1:0:0:0:
448,0,220540,1,0,1:0:0:0:
320,0,220615,1,0,1:0:0:0:
192,0,220690,1,0,1:0:0:0:
320,0,220765,1,0,1:0:0:0:
64,0,220840,1,0,1:0:0:0:
448,0,220840,1,0,1:0:0:0:
192,0,220915,1,0,1:0:0:0:
320,0,220990,1,0,1:0:0:0:
192,0,221065,1,0,1:0:0:0:
64,0,221140,1,0,1:0:0:0:
448,0,221215,1,0,1:0:0:0:
320,0,221290,1,0,1:0:0:0:
192,0,221365,1,0,1:0:0:0:
64,0,221440,1,0,1:0:0:0:
448,0,221440,1,0,1:0:0:0:
320,0,221515,1,0,1:0:0:0:
192,0,221590,1,0,1:0:0:0:
320,0,221665,1,0,1:0:0:0:
64,0,221740,1,0,1:0:0:0:
448,0,221740,1,0,1:0:0:0:
192,0,221815,1,0,1:0:0:0:
320,0,221890,1,0,1:0:0:0:
192,0,221965,1,0,1:0:0:0:
64,0,222040,1,0,1:0:0:0:
448,0,222040,1,0,1:0:0:0:
320,0,222115,1,0,1:0:0:0:
64,0,222190,1,0,1:0:0:0:
192,0,222190,1,0,1:0:0:0:
448,0,222265,1,0,1:0:0:0:
320,0,222340,1,0,1:0:0:0:
192,0,222415,1,0,1:0:0:0:
64,0,222490,1,0,1:0:0:0:
448,0,222490,1,0,1:0:0:0:
192,0,222565,1,0,1:0:0:0:
320,0,222640,1,0,1:0:0:0:
448,0,222715,1,0,1:0:0:0:
320,0,222790,1,0,1:0:0:0:
192,0,222865,1,0,1:0:0:0:
64,0,222940,1,0,1:0:0:0:
448,0,222940,1,0,1:0:0:0:
320,0,223015,1,0,1:0:0:0:
64,0,223090,1,0,1:0:0:0:
192,0,223090,1,0,1:0:0:0:
320,0,223165,1,0,1:0:0:0:
64,0,223240,1,0,1:0:0:0:
192,0,223240,1,0,1:0:0:0:
448,0,223240,128,0,223315:0:0:0:0:
