osu file format v10

[General]
AudioFilename: Helblinde - Houkago Can Can Time_1.mp3
AudioLeadIn: 0
PreviewTime: 113120
Countdown: 0
SampleSet: Normal
StackLeniency: 0.7
Mode: 0
LetterboxInBreaks: 1
EpilepsyWarning: 1

[Editor]
Bookmarks: 33920,37520
DistanceSpacing: 0.6
BeatDivisor: 4
GridSize: 8

[Metadata]
Title:Houkago Can Can Time
TitleUnicode:
Artist:Helblinde
ArtistUnicode:
Creator:Marcin
Version:Insane
Source:K-On!! Movie
Tags:k-on!! movie marcin19962
BeatmapID:171275
BeatmapSetID:56683

[Difficulty]
HPDrainRate:7
CircleSize:4
OverallDifficulty:8
ApproachRate:9
SliderMultiplier:1.4
SliderTickRate:1

[Events]
//Background and Video events
0,0,"115217302764.jpg"
//Break Periods
2,91720,92120
//Storyboard Layer 0 (Background)
//Storyboard Layer 1 (Fail)
//Storyboard Layer 2 (Pass)
//Storyboard Layer 3 (Foreground)
//Storyboard Sound Samples
//Background Colour Transformations
3,100,163,162,255

[TimingPoints]
1520,300,4,1,0,70,1,0
57920,-200,4,2,0,70,0,0
72320,-100,4,1,0,70,0,0
81920,-66.6666666666667,4,1,0,70,0,0
86720,-100,4,1,0,70,0,0
92720,-100,4,1,0,5,0,0
92795,-100,4,1,0,10,0,0
92870,-100,4,1,0,20,0,0
93320,-100,4,1,0,40,0,0
93470,-100,4,1,0,50,0,0
93620,-100,4,1,0,60,0,0
93770,-100,4,1,0,65,0,0
93920,-100,4,1,0,70,0,1
109520,-100,4,1,0,70,0,0
113120,-66.6666666666667,4,1,0,70,0,1
131120,-66.6666666666667,4,1,0,70,0,0
133520,-66.6666666666667,4,2,0,50,0,0
134720,-66.6666666666667,4,1,0,70,0,0
135920,-66.6666666666667,4,2,0,50,0,0
136370,-66.6666666666667,4,2,0,60,0,0
136820,-66.6666666666667,4,2,0,70,0,0
137270,-66.6666666666667,4,2,0,80,0,0
138320,-66.6666666666667,4,2,0,90,0,0
140870,-66.6666666666667,4,1,0,60,0,0
151520,-66.6666666666667,4,1,0,60,0,1
160970,-66.6666666666667,4,1,0,60,0,0
161120,-66.6666666666667,4,1,0,50,0,1
168470,-66.6666666666667,4,2,0,50,0,0

[Colours]
Combo1 : 128,0,0
Combo2 : 192,192,192
Combo3 : 0,128,0
Combo4 : 255,255,0
Combo5 : 255,0,0
Combo6 : 0,0,255

[HitObjects]
256,192,18320,12,0,19220,0:0:0
48,128,19520,6,0,B|48:48,1,70,4|0,0:0|0:0,0:0:0
120,136,19820,2,0,B|120:216,1,70,8|0,0:0|0:0,0:0:0
192,128,20120,2,0,B|192:32,1,70
264,72,20420,1,8,0:0:0
328,120,20570,1,0,0:0:0
392,72,20720,1,0,0:0:0
344,224,20870,6,0,B|288:272,1,70,0|8,0:0|0:0,0:0:0
184,224,21170,2,0,B|240:272,1,70
376,288,21470,2,0,B|288:288,1,70,0|8,0:0|0:0,0:0:0
152,288,21770,2,0,B|224:288,1,70,8|0,0:0|0:0,0:0:0
72,128,22070,6,0,B|32:152|72:192,1,70,0|8,0:0|0:0,0:0:0
208,184,22370,2,0,B|248:160|208:120,1,70
72,192,22670,2,0,B|144:192,1,70,0|8,0:0|0:0,0:0:0
224,128,22970,2,0,B|128:128,1,70
72,128,23270,1,0,0:0:0
136,168,23420,1,8,0:0:0
176,104,23570,1,0,0:0:0
112,64,23720,1,0,0:0:0
112,224,23870,6,0,B|112:264|160:288,1,70,0|8,0:0|0:0,0:0:0
256,320,24170,1,8,0:0:0
368,280,24320,2,0,B|408:256|408:192,1,70,4|0,0:0|0:0,0:0:0
464,56,24620,6,0,B|392:96,1,70,8|0,0:0|0:0,0:0:0
472,184,24920,2,0,B|384:184,1,70,0|0,0:0|0:0,0:0:0
464,312,25220,2,0,B|384:272,1,70,8|0,0:0|0:0,0:0:0
256,312,25520,2,0,B|256:208,1,70
256,80,25820,2,0,B|256:184,1,70,8|0,0:0|0:0,0:0:0
256,240,26120,1,0,0:0:0
296,88,26270,1,8,0:0:0
208,232,26420,1,8,0:0:0
344,112,26570,1,0,0:0:0
136,248,26720,6,0,B|111:221|111:221|89:254,1,70,0|0,0:0|0:0,0:0:0
176,136,27020,2,0,B|201:163|201:163|223:130,1,70,8|0,0:0|0:0,0:0:0
304,248,27320,2,0,B|279:221|279:221|257:254,1,70
336,128,27620,2,0,B|361:155|361:155|383:122,1,70,8|0,0:0|0:0,0:0:0
144,160,27920,6,0,B|144:104,2,35,2|0|0,0:0|0:0|0:0,0:0:0
272,272,28220,2,0,B|272:336,2,35,8|2|0,0:0|0:0|0:0,0:0:0
408,160,28520,2,0,B|408:112,2,35,8|2|0,0:0|0:0|0:0,0:0:0
272,280,28820,2,0,B|272:328|272:320,2,35,8|0|0,0:0|0:0|0:0,0:0:0
144,160,29120,1,4,0:0:0
256,64,29270,5,0,0:0:0
360,88,29420,1,8,0:0:0
288,168,29570,1,0,0:0:0
288,240,29720,1,0,0:0:0
384,288,29870,1,0,0:0:0
288,336,30020,1,8,0:0:0
208,288,30170,2,0,B|128:288,2,70
208,184,30620,2,8,B|136:184,2,70,8|0|0,0:0|0:0|0:0,0:0:0
208,80,31070,2,0,B|120:80,2,70,0|8|8,0:0|0:0|0:0,0:0:0
96,184,31520,6,0,B|32:120,1,70
168,176,31820,1,8,0:0:0
136,96,31970,1,0,0:0:0
232,168,32120,2,0,B|232:88,2,70,0|0|8,0:0|0:0|0:0,0:0:0
240,264,32570,2,0,B|264:336,1,70,0|0,0:0|0:0,0:0:0
296,248,32870,1,0,0:0:0
360,304,33020,1,8,0:0:0
328,208,33170,2,0,B|416:216,1,70,0|0,0:0|0:0,0:0:0
256,56,33470,5,8,0:0:0
88,184,33620,1,8,0:0:0
256,312,33770,1,8,0:0:0
256,192,33920,1,4,0:0:0
408,112,34070,6,0,B|328:112,1,70,0|8,0:0|0:0,0:0:0
408,112,34370,2,0,B|488:112,1,70
336,112,34670,1,0,0:0:0
408,192,34820,1,8,0:0:0
480,112,34970,1,0,0:0:0
408,32,35120,1,0,0:0:0
264,48,35270,6,0,B|232:40|192:56,2,70,0|8|0,0:0|0:0|0:0,0:0:0
200,144,35720,2,0,B|256:128|296:136,2,70,0|0|8,0:0|0:0|0:0,0:0:0
240,240,36170,1,8,0:0:0
128,104,36320,6,0,B|56:136,1,70
144,240,36620,2,0,B|160:152,1,70
224,152,36920,2,0,B|256:240,1,70
312,248,37220,2,0,B|336:144,1,70
440,304,37520,6,0,B|448:256,1,35
392,88,37820,2,0,B|408:128,1,35
432,192,38120,5,0,0:0:0
464,216,38195,1,0,0:0:0
480,256,38270,1,0,0:0:0
464,296,38345,1,0,0:0:0
432,328,38420,1,0,0:0:0
392,336,38495,1,0,0:0:0
352,328,38570,1,0,0:0:0
320,304,38645,1,0,0:0:0
296,272,38720,1,4,0:0:0
136,96,39020,6,0,B|192:32|296:64,2,140,8|0|8,0:0|0:0|0:0,0:0:0
136,192,39770,2,0,B|128:280,2,70,0|0|0,0:0|0:0|0:0,0:0:0
240,192,40220,1,8,0:0:0
344,192,40370,2,0,B|432:192,2,70,0|0|8,0:0|0:0|0:0,0:0:0
320,296,40820,6,0,B|256:344|256:240|168:312,2,140,8|0|8,0:0|0:0|0:0,0:0:0
392,248,41570,1,0,0:0:0
424,160,41720,1,0,0:0:0
368,80,41870,1,0,0:0:0
272,80,42020,2,0,B|248:104|248:104|272:136,2,70,8|0|0,0:0|0:0|0:0,0:0:0
336,168,42470,2,0,B|360:136|360:136|336:120,2,70,0|8|0,0:0|0:0|0:0,0:0:0
272,80,42920,1,0,0:0:0
200,160,43070,1,8,0:0:0
112,280,43220,6,0,B|136:240|136:240|144:280|144:280|176:240|176:240,2,140,8|0|8,0:0|0:0|0:0,0:0:0
176,238,43970,1,0,0:0:0
248,192,44120,2,0,B|312:144,1,70
376,224,44420,2,0,B|312:280,1,70,8|0,0:0|0:0,0:0:0
192,272,44720,1,0,0:0:0
120,192,44870,1,0,0:0:0
184,104,45020,1,8,0:0:0
376,144,45170,6,0,B|432:112|248:96|432:32|320:24,1,140,0|8,0:0|0:0,0:0:0
248,128,45620,2,0,B|168:128,1,70,8|0,0:0|0:0,0:0:0
368,184,45920,2,0,B|320:240|240:184,2,140,0|8|0,0:0|0:0|0:0,0:0:0
248,112,46670,2,0,B|248:24,2,70,0|8|0,0:0|0:0|0:0,0:0:0
192,200,47120,5,0,0:0:0
256,280,47270,1,8,0:0:0
416,144,47570,1,8,0:0:0
464,240,47720,1,8,0:0:0
448,288,47795,1,8,0:0:0
400,304,47870,1,8,0:0:0
352,296,47945,1,8,0:0:0
320,272,48020,1,0,0:0:0
160,144,48320,6,0,B|200:112|248:160,2,70,0|0|8,0:0|0:0|0:0,0:0:0
160,232,48770,2,0,B|192:264|240:224,2,70
64,184,49220,1,8,0:0:0
56,80,49370,2,0,B|112:104|112:104|160:64|200:88,2,140,0|0|0,0:0|0:0|0:0,0:0:0
64,184,50120,1,0,0:0:0
168,184,50270,1,8,0:0:0
272,184,50420,6,0,B|200:240,1,70,8|0,0:0|0:0,0:0:0
314,302,50720,1,0,0:0:0
344,224,50870,2,0,B|407:173,1,70,0|8,0:0|0:0,0:0:0
424,264,51170,1,0,0:0:0
424,264,51320,1,0,0:0:0
352,304,51470,1,0,0:0:0
272,320,51620,1,8,0:0:0
200,320,51770,2,0,B|120:320,1,70
128,232,52070,2,0,B|96:216|168:184|96:152,2,70,0|8|8,0:0|0:0|0:0,0:0:0
296,104,52820,6,0,B|352:64|352:64|424:120,2,140,8|0|8,0:0|0:0|0:0,0:0:0
224,160,53720,2,0,B|168:200|168:200|96:144,2,140,0|8|0,0:0|0:0|0:0,0:0:0
368,192,54620,2,0,B|368:272,1,70,8|8,0:0|0:0,0:0:0
256,192,55220,12,0,57620,0:0:0
248,256,57920,5,0,0:0:0
256,192,58220,2,0,B|304:192,1,35,8|0,0:0|0:0,0:0:0
336,312,58820,2,0,B|288:312,1,35,0|8,0:0|0:0,0:0:0
384,256,59420,1,8,0:0:0
352,168,60020,6,0,B|400:168,1,35,0|8,0:0|0:0,0:0:0
464,216,60470,2,0,B|416:216,1,35,0|8,0:0|0:0,0:0:0
272,104,61220,2,0,B|320:104,1,35,0|8,0:0|0:0,0:0:0
344,176,61670,2,0,B|296:176,1,35,0|8,0:0|0:0,0:0:0
64,176,62420,5,0,0:0:0
64,176,62570,1,8,0:0:0
152,160,62720,5,0,0:0:0
152,160,62870,1,0,0:0:0
200,216,63020,1,8,0:0:0
200,216,63170,1,0,0:0:0
264,256,63320,1,0,0:0:0
336,256,63470,1,0,0:0:0
376,200,63620,1,0,0:0:0
328,152,63770,1,8,0:0:0
416,112,63920,6,0,B|440:152,2,35,0|0|8,0:0|0:0|0:0,0:0:0
464,72,64370,1,0,0:0:0
392,48,64520,1,0,0:0:0
352,112,64670,1,0,0:0:0
352,184,64820,6,0,B|304:184,1,35,0|8,0:0|0:0,0:0:0
368,264,65420,2,0,B|408:264,1,35,8|0,0:0|0:0,0:0:0
96,72,66170,2,0,B|48:72,1,35,8|0,0:0|0:0,0:0:0
112,152,66620,2,0,B|160:152,1,35,8|0,0:0|0:0,0:0:0
336,240,67220,5,0,0:0:0
320,256,67370,1,8,0:0:0
72,288,67820,1,8,0:0:0
56,272,67970,1,0,0:0:0
208,120,68420,1,0,0:0:0
232,120,68570,1,8,0:0:0
376,224,68870,2,0,B|376:280,1,35,0|8,0:0|0:0,0:0:0
256,192,69170,12,4,71120,0:0:0
208,152,72320,6,0,B|240:88,3,70,4|0|12|0,0:0|0:0|0:0|0:0,0:0:0
248,208,72920,2,0,B|312:168,2,70,0|0|8,0:0|0:0|0:0,0:0:0
344,112,73520,5,0,0:0:0
400,72,73670,1,0,0:0:0
456,112,73820,1,8,0:0:0
440,184,73970,1,0,0:0:0
368,176,74120,1,0,0:0:0
320,232,74270,1,0,0:0:0
376,272,74420,1,8,0:0:0
176,128,74720,6,0,B|136:104|96:136,2,70,0|0|8,0:0|0:0|0:0,0:0:0
176,200,75170,1,0,0:0:0
112,224,75320,1,0,0:0:0
80,160,75470,1,0,0:0:0
144,136,75620,1,8,0:0:0
280,104,75920,5,0,0:0:0
280,104,76070,1,0,0:0:0
352,112,76220,1,8,0:0:0
352,112,76370,1,0,0:0:0
352,184,76520,1,0,0:0:0
400,232,76670,1,0,0:0:0
440,232,76745,1,0,0:0:0
480,232,76820,1,8,0:0:0
440,304,76970,1,0,0:0:0
165,207,77270,5,0,0:0:0
125,143,77420,1,8,0:0:0
197,143,77570,1,0,0:0:0
165,207,77720,1,0,0:0:0
125,143,77870,1,0,0:0:0
96,208,78020,2,0,B|184:208,1,70,8|0,0:0|0:0,0:0:0
328,200,78620,6,0,B|416:200,1,70,8|0,0:0|0:0,0:0:0
432,152,78920,2,0,B|432:80,1,70,0|0,0:0|0:0,0:0:0
432,248,79220,2,0,B|432:328,1,70,8|0,0:0|0:0,0:0:0
208,144,79820,6,0,B|176:176|136:136,2,70,8|0|0,0:0|0:0|0:0,0:0:0
80,80,80270,2,0,B|112:48|152:88,2,70,0|8|0,0:0|0:0|0:0,0:0:0
352,240,81020,6,0,B|320:208|280:248,2,70,8|0|0,0:0|0:0|0:0,0:0:0
416,304,81470,2,0,B|384:336|344:296,2,70,0|8|0,0:0|0:0|0:0,0:0:0
256,192,81920,1,0,0:0:0
144,192,82220,6,8,B|16:192,1,105.000004005432,8|0,0:0|0:0,0:0:0
256,248,82820,2,8,B|256:360,1,105.000004005432,8|0,0:0|0:0,0:0:0
368,192,83420,2,8,B|496:192,1,105.000004005432,8|0,0:0|0:0,0:0:0
256,120,84020,2,8,B|256:-8,1,105.000004005432,8|0,0:0|0:0,0:0:0
152,136,84620,6,8,B|96:152|144:56|40:88,1,105.000004005432,8|0,0:0|0:0,0:0:0
352,136,85220,2,8,B|336:80|432:128|400:24,1,105.000004005432,8|0,0:0|0:0,0:0:0
352,248,85820,2,0,B|408:232|360:328|464:296,1,105.000004005432,8|0,0:0|0:0,0:0:0
112,248,86420,2,8,B|128:304|32:256|64:360,1,105.000004005432,8|0,0:0|0:0,0:0:0
411,316,86720,6,0,B|451:252,1,70,0|8,0:0|0:0,0:0:0
448,256,87020,2,8,B|432:184,1,70,0|8,0:0|0:0,0:0:0
432,187,87320,2,8,B|352:155,1,70,0|8,0:0|0:0,0:0:0
367,161,87620,2,8,B|279:201,1,70,0|8,0:0|0:0,0:0:0
280,264,87920,1,0,0:0:0
216,296,88070,1,8,0:0:0
160,256,88220,1,0,0:0:0
216,296,88370,5,8,0:0:0
280,264,88520,1,0,0:0:0
280,192,88670,1,8,0:0:0
280,120,88820,1,0,0:0:0
280,48,88970,1,8,0:0:0
280,120,89120,1,0,0:0:0
320,120,89195,5,0,0:0:0
336,144,89270,1,8,0:0:0
352,168,89345,1,0,0:0:0
368,192,89420,1,0,0:0:0
376,216,89495,1,0,0:0:0
384,248,89570,2,0,B|368:296,3,35,8|0|0|0,0:0|0:0|0:0|0:0,0:0:0
360,296,89870,5,8,0:0:0
336,312,89945,1,0,0:0:0
312,312,90020,1,0,0:0:0
288,312,90095,1,0,0:0:0
264,312,90170,2,0,B|216:304,3,35,8|0|0|0,0:0|0:0|0:0|0:0,0:0:0
200,296,90470,1,8,0:0:0
184,272,90545,5,0,0:0:0
176,248,90620,1,0,0:0:0
192,224,90695,1,0,0:0:0
216,208,90770,1,8,0:0:0
224,184,90845,1,0,0:0:0
224,160,90920,2,0,B|256:112,3,35,0|0|8|0,0:0|0:0|0:0|0:0,0:0:0
272,128,91220,5,0,0:0:0
296,136,91295,1,0,0:0:0
320,152,91370,1,8,0:0:0
336,176,91445,1,0,0:0:0
352,200,91520,1,4,0:0:0
360,192,92720,6,2,B|336:232,5,35
320,240,93170,2,2,B|296:280,6,35
216,296,93920,6,0,B|184:312|184:312|208:336,1,70,4|0,0:0|0:0,0:0:0
312,248,94220,2,0,B|344:232|344:232|320:208,1,70
208,136,94520,2,0,B|176:152|176:152|200:176,1,70
312,64,94820,2,0,B|344:48|344:48|320:24,1,70
240,280,95120,5,0,0:0:0
320,240,95270,1,0,0:0:0
240,208,95420,1,0,0:0:0
320,168,95570,1,0,0:0:0
240,136,95720,1,0,0:0:0
168,144,95870,2,0,B|96:176|48:144,2,70
176,72,96320,2,0,B|248:40|328:72,3,140
416,168,97520,2,0,B|456:248|392:312,2,140
304,192,98270,1,0,0:0:0
192,272,98420,6,0,B|112:328|120:328,1,70
152,216,98720,2,0,B|72:240,1,70
144,144,99020,2,0,B|56:144,1,70
256,200,99320,6,0,B|352:184,1,70
224,152,99620,2,0,B|176:80,1,70
192,208,99920,2,0,B|72:208,1,70
320,200,100220,1,0,0:0:0
192,208,100370,1,0,0:0:0
264,104,100520,1,0,0:0:0
384,160,100670,1,0,0:0:0
360,56,100820,1,0,0:0:0
264,104,100970,1,0,0:0:0
264,104,101120,1,0,0:0:0
264,240,101270,5,0,0:0:0
312,296,101420,1,0,0:0:0
360,240,101570,1,0,0:0:0
312,184,101720,1,0,0:0:0
312,184,101870,1,0,0:0:0
384,160,102020,1,0,0:0:0
344,96,102170,1,0,0:0:0
272,120,102320,1,0,0:0:0
192,120,102620,6,0,B|128:48|40:136,2,140
320,264,103520,2,0,B|384:336|472:248,2,140
232,264,104420,2,0,B|192:296|160:248,1,70
136,192,104720,2,0,B|96:160|144:120,2,70
216,192,105170,1,0,0:0:0
216,120,105320,1,0,0:0:0
288,120,105470,1,0,0:0:0
288,192,105620,6,0,B|352:152|440:200,1,140
424,256,106220,2,0,B|424:328,1,70,0|8,0:0|0:0,0:0:0
352,256,106820,2,0,B|352:328,1,70,0|8,0:0|0:0,0:0:0
280,256,107420,2,8,B|280:336,1,70,0|8,0:0|0:0,0:0:0
352,104,108020,1,0,0:0:0
352,104,108170,1,8,0:0:0
248,112,108320,6,0,B|208:184|272:192|224:256,3,140,0|8|0|8,0:0|0:0|0:0|0:0,0:0:0
64,152,109520,6,0,B|16:72,1,70,8|0,0:0|0:0,0:0:0
448,232,109820,2,0,B|496:296,1,70,8|0,0:0|0:0,0:0:0
256,192,110720,12,0,112520,0:0:0
256,192,112820,5,0,0:0:0
48,256,113120,2,0,B|256:320|480:248,1,420.000016021729
456,152,114020,1,0,0:0:0
464,48,114320,1,0,0:0:0
376,96,114620,1,0,0:0:0
272,96,114920,2,0,B|232:216|296:320,1,210.000008010865
488,232,115520,2,0,B|136:312|48:112|256:-56|464:120|376:312|-8:232,1,840.000032043458
152,312,117020,2,0,B|256:344|424:296,2,210.000008010865
64,216,117920,2,0,B|104:120|104:120|136:216|136:216|168:120|168:120|216:232|216:232,1,420.000016021729
280,120,118820,5,0,0:0:0
384,192,119120,1,0,0:0:0
440,304,119420,1,0,0:0:0
320,280,119720,1,0,0:0:0
200,240,120020,1,0,0:0:0
176,72,120320,2,0,B|512:208|56:208|432:336,2,420.000016021729
432,240,121820,1,0,0:0:0
488,128,122120,5,0,0:0:0
408,48,122420,1,0,0:0:0
352,48,122570,2,0,B|312:64|312:64|304:40|304:40|240:48,2,105.000004005432
488,128,123320,1,0,0:0:0
376,128,123620,1,0,0:0:0
376,184,123770,2,0,B|352:224|392:232|376:288,2,105.000004005432
240,280,124520,1,0,0:0:0
80,240,124970,1,0,0:0:0
24,240,125120,2,0,B|88:64|88:64|168:272|280:64|280:64|368:288|368:288|464:288|496:176,1,840.000032043458
368,304,126920,5,0,0:0:0
368,200,127220,1,0,0:0:0
368,144,127370,1,0,0:0:0
368,88,127520,1,0,0:0:0
144,80,128120,5,0,0:0:0
144,184,128420,1,0,0:0:0
144,240,128570,1,0,0:0:0
144,296,128720,1,0,0:0:0
256,192,129320,5,0,0:0:0
312,312,129770,1,0,0:0:0
272,336,129920,2,0,B|256:288|168:256|168:256|112:120|352:128|352:128|144:32|-8:160|-32:192,1,735.000028038026
40,216,131120,5,0,0:0:0
64,216,131195,1,0,0:0:0
88,208,131270,1,0,0:0:0
104,184,131345,1,2,0:0:0
120,168,131420,1,0,0:0:0
144,160,131495,1,2,0:0:0
168,168,131570,1,0,0:0:0
192,184,131645,1,0,0:0:0
216,200,131720,1,2,0:0:0
240,200,131795,1,0,0:0:0
264,192,131870,1,2,0:0:0
288,176,131945,1,2,0:0:0
312,160,132020,1,6,0:0:0
256,288,132320,6,0,B|256:176,1,105.000004005432
408,304,132620,2,0,B|480:224,1,105.000004005432
144,304,132920,2,0,B|72:216,1,105.000004005432
256,104,133220,2,0,B|256:224,1,105.000004005432
80,128,133520,5,2,0:0:0
168,64,133670,1,0,0:0:0
256,128,133820,1,2,0:0:0
344,64,133970,1,0,0:0:0
424,136,134120,1,2,0:0:0
360,224,134270,1,0,0:0:0
248,224,134420,1,2,0:0:0
72,128,134720,6,0,B|16:240,1,105.000004005432
144,208,135020,2,0,B|136:312,1,105.000004005432
248,232,135320,2,0,B|248:336,1,105.000004005432
352,224,135620,2,0,B|424:320,1,105.000004005432
456,96,135920,5,0,0:0:0
456,208,136070,1,2,0:0:0
456,320,136220,1,0,0:0:0
344,320,136370,5,0,0:0:0
344,208,136520,1,0,0:0:0
344,320,136670,1,2,0:0:0
232,320,136820,5,0,0:0:0
232,208,136970,1,0,0:0:0
232,320,137120,1,2,0:0:0
120,320,137270,5,0,0:0:0
120,208,137420,1,0,0:0:0
120,320,137570,1,2,0:0:0
120,208,137720,2,0,B|64:248|16:200,1,105.000004005432
216,208,138020,2,0,B|160:248|112:200,1,105.000004005432,2|0,0:0|0:0,0:0:0
312,208,138320,2,0,B|256:248|208:200,1,105.000004005432,0|2,0:0|0:0,0:0:0
456,216,138620,2,0,B|400:264|472:320,2,105.000004005432,0|2|0,0:0|0:0|0:0,0:0:0
120,64,139145,6,0,B|216:64,1,52.5000020027161
144,184,139445,2,0,B|192:136,1,52.5000020027161
264,224,139745,2,0,B|264:288,1,52.5000020027161
400,232,140045,2,0,B|360:176,1,52.5000020027161
352,64,140345,2,0,B|392:120,1,52.5000020027161
240,144,140720,6,2,B|184:184,1,52.5000020027161
168,216,140870,2,0,B|192:272,3,52.5000020027161,2|0|0|0,0:0|0:0|0:0|0:0,0:0:0
216,288,141170,2,0,B|272:288,3,52.5000020027161,2|0|0|0,0:0|0:0|0:0|0:0,0:0:0
320,272,141470,1,2,0:0:0
360,238,141545,1,0,0:0:0
371,186,141620,1,0,0:0:0
334,148,141695,1,0,0:0:0
294,113,141770,1,2,0:0:0
244,96,141845,1,0,0:0:0
191,101,141920,1,0,0:0:0
192,312,142520,6,0,B|248:280|312:320,3,105.000004005432
176,232,143120,2,2,B|176:168,2,52.5000020027161,2|0|2,0:0|0:0|0:0,0:0:0
248,232,143420,2,0,B|248:168,1,52.5000020027161,2|0,0:0|0:0,0:0:0
336,136,143720,2,0,B|384:104|392:184|448:136,3,105.000004005432
336,224,144320,2,0,B|336:288,2,52.5000020027161,2|2|0,0:0|0:0|0:0,0:0:0
408,224,144620,2,0,B|408:280,1,52.5000020027161,2|0,0:0|0:0,0:0:0
208,320,144920,5,0,0:0:0
216,216,145070,1,2,0:0:0
120,256,145220,1,0,0:0:0
136,152,145370,1,2,0:0:0
216,216,145520,1,0,0:0:0
304,264,145670,5,2,0:0:0
224,248,145820,1,2,0:0:0
296,200,145970,1,2,0:0:0
216,184,146120,1,2,0:0:0
280,136,146270,1,2,0:0:0
200,112,146420,1,2,0:0:0
272,72,146570,1,2,0:0:0
192,40,146720,1,2,0:0:0
128,272,147320,5,0,0:0:0
128,272,147470,1,0,0:0:0
200,272,147620,1,0,0:0:0
200,272,147770,1,0,0:0:0
256,208,147920,2,0,B|288:152|288:152|240:104|240:104|288:40,2,210.000008010865,2|2|2,0:0|0:0|0:0,0:0:0
344,184,148670,5,0,0:0:0
344,184,148820,1,0,0:0:0
360,112,148970,1,0,0:0:0
440,48,149120,2,0,B|408:104|408:104|456:152|456:152|408:216,2,210.000008010865,2|2|2,0:0|0:0|0:0,0:0:0
280,136,149870,2,0,B|280:32,1,105.000004005432,0|0,0:0|0:0,0:0:0
280,136,150170,2,0,B|280:256,2,105.000004005432,2|0|2,0:0|0:0|0:0,0:0:0
280,136,150620,2,0,B|424:136,1,105.000004005432,0|2,0:0|0:0,0:0:0
385,136,150920,1,0,0:0:0
496,136,151220,1,4,0:0:0
496,136,151520,1,4,0:0:0
208,264,152120,6,0,B|256:312|312:264,3,105.000004005432,2|0|2|0,0:0|0:0|0:0|0:0,0:0:0
312,192,152720,1,2,0:0:0
312,192,153020,1,2,0:0:0
304,120,153320,2,0,B|256:72|200:120,3,105.000004005432,2|0|2|0,0:0|0:0|0:0|0:0,0:0:0
200,192,153920,1,2,0:0:0
200,192,154220,1,2,0:0:0
296,264,154520,5,2,0:0:0
296,120,154670,1,0,0:0:0
368,280,154820,1,2,0:0:0
360,80,154970,1,0,0:0:0
440,296,155120,1,2,0:0:0
432,48,155270,1,0,0:0:0
432,192,155420,1,2,0:0:0
368,192,155570,1,0,0:0:0
304,192,155720,1,2,0:0:0
240,192,155870,2,0,B|192:224|176:152|104:224,3,105.000004005432,0|2|2|2,0:0|0:0|0:0|0:0,0:0:0
56,120,156920,6,0,B|56:56|120:56,2,105.000004005432,2|0|2,0:0|0:0|0:0,0:0:0
48,240,157370,2,0,B|48:304|120:304,1,105.000004005432,0|2,0:0|0:0,0:0:0
200,192,157820,1,2,0:0:0
200,192,158120,2,0,B|344:192,3,105.000004005432
256,288,158720,1,2,0:0:0
256,288,159020,1,2,0:0:0
256,112,159320,5,0,0:0:0
256,264,159470,1,0,0:0:0
256,344,159620,1,0,0:0:0
256,32,159770,1,0,0:0:0
424,192,159920,5,0,0:0:0
88,192,160070,1,0,0:0:0
344,192,160220,1,0,0:0:0
168,192,160370,1,0,0:0:0
256,192,160520,1,0,0:0:0
256,192,160820,1,0,0:0:0
256,104,161120,1,0,0:0:0
232,280,161720,5,2,0:0:0
280,112,161870,1,0,0:0:0
344,272,162020,1,2,0:0:0
200,184,162170,1,0,0:0:0
368,176,162320,1,2,0:0:0
368,176,162620,1,2,0:0:0
200,184,162920,5,2,0:0:0
32,136,163070,1,0,0:0:0
192,72,163220,1,2,0:0:0
104,216,163370,1,0,0:0:0
96,48,163520,1,2,0:0:0
96,48,163820,1,2,0:0:0
256,56,164120,5,2,0:0:0
192,96,164270,1,0,0:0:0
216,168,164420,1,2,0:0:0
288,168,164570,1,0,0:0:0
312,96,164720,1,2,0:0:0
256,56,164870,1,2,0:0:0
288,168,165020,2,0,B|320:152|320:152|336:168|336:168|352:152|352:152|400:168,3,105.000004005432,2|0|2|0,0:0|0:0|0:0|0:0,0:0:0
424,184,165620,2,0,B|472:232|416:296,1,105.000004005432,2|0,0:0|0:0,0:0:0
430,278,165920,1,2,0:0:0
288,128,166520,6,0,B|312:184|272:232,1,105.000004005432,2|0,0:0|0:0,0:0:0
184,168,166820,2,0,B|144:224|184:296,1,105.000004005432,2|0,0:0|0:0,0:0:0
276,226,167120,2,0,B|296:288|232:336,2,105.000004005432,2|0|2,0:0|0:0|0:0,0:0:0
224,128,167720,5,2,0:0:0
142,132,167870,2,0,B|78:92|14:156,1,105.000004005432,0|2,0:0|0:0,0:0:0
43,132,168170,1,0,0:0:0
224,128,168320,1,2,0:0:0
256,192,168470,12,0,170720,0:0:0
