osu file format v14

[General]
AudioFilename: Helblinde - Grief & Malice.mp3
AudioLeadIn: 0
PreviewTime: 45505
Countdown: 0
SampleSet: Soft
StackLeniency: 0.7
Mode: 2
LetterboxInBreaks: 1
WidescreenStoryboard: 1

[Editor]
DistanceSpacing: 1.3
BeatDivisor: 6
GridSize: 16
TimelineZoom: 3.599999

[Metadata]
Title:Grief & Malice
TitleUnicode:Grief & Malice
Artist:Helblinde
ArtistUnicode:Helblinde
Creator:Kyuare
Version:Madness
Source:魔法少女まどか☆マギカ
Tags:Puella Magi Madoka Magica Maho Shoujo Magical Girl
BeatmapID:723610
BeatmapSetID:325817

[Difficulty]
HPDrainRate:6
CircleSize:4
OverallDifficulty:9.3
ApproachRate:9.3
SliderMultiplier:1.9
SliderTickRate:1

[Events]
//Background and Video events
0,0,"BG.jpg",0,0
//Break Periods
2,154982,163828
//Storyboard Layer 0 (Background)
//Storyboard Layer 1 (Fail)
//Storyboard Layer 2 (Pass)
//Storyboard Layer 3 (Foreground)
//Storyboard Sound Samples

[TimingPoints]
-18,300,4,2,0,65,1,0
7032,-100,4,2,0,5,0,0
7182,-100,4,2,3,60,0,0
8382,-89.2857142857143,4,2,0,60,0,0
8832,-133.333333333333,4,2,0,60,0,0
8982,-100,4,2,3,60,0,0
9732,-100,4,2,0,60,0,0
10182,-100,4,2,3,60,0,0
10332,-100,4,2,0,80,0,0
10482,-100,4,2,3,60,0,0
10519,-100,4,2,0,60,0,0
11082,-100,4,2,3,60,0,0
12132,-100,4,2,0,80,0,0
12282,-100,4,2,3,60,0,0
14532,-100,4,2,0,80,0,0
14569,-100,4,2,3,60,0,0
15432,-100,4,2,0,80,0,0
15469,-100,4,2,3,60,0,0
15732,-100,4,2,0,80,0,0
16182,-100,4,2,50,40,0,0
16782,-71.4285714285714,4,2,3,100,0,0
16932,-83.3333333333333,4,2,3,40,0,0
17382,-83.3333333333333,4,2,3,35,0,0
17532,-83.3333333333333,4,2,3,40,0,0
17982,-83.3333333333333,4,2,3,35,0,0
18132,-83.3333333333333,4,2,3,40,0,0
18582,-83.3333333333333,4,2,3,35,0,0
18732,-83.3333333333333,4,2,3,40,0,0
19182,-83.3333333333333,4,2,3,35,0,0
19332,-83.3333333333333,4,2,3,40,0,0
19782,-83.3333333333333,4,2,3,35,0,0
19932,-83.3333333333333,4,2,3,40,0,0
20382,-83.3333333333333,4,2,3,35,0,0
20532,-83.3333333333333,4,2,3,40,0,0
20682,-79.3650793650794,4,2,3,40,0,0
20982,-83.3333333333333,4,2,3,35,0,0
21132,-83.3333333333333,4,2,3,40,0,0
21582,-83.3333333333333,4,2,3,35,0,0
22182,-83.3333333333333,4,2,3,40,0,0
22932,-83.3333333333333,4,2,3,35,0,0
23382,-83.3333333333333,4,2,3,40,0,0
23682,-83.3333333333333,4,2,3,45,0,0
23982,-85.4700854700855,4,2,3,50,0,0
24132,-85.4700854700855,4,2,3,55,0,0
24282,-85.4700854700855,4,2,3,60,0,0
25182,-83.3333333333333,4,2,3,65,0,0
25782,-83.3333333333333,4,2,90,100,0,0
25857,-83.3333333333333,4,2,3,65,0,0
26382,-133.333333333333,4,2,3,100,0,0
26419,-100,4,2,3,65,0,0
27282,-100,4,2,3,65,0,0
27582,-69.9300699300699,4,2,3,65,0,0
28182,-133.333333333333,4,2,3,65,0,0
29082,-133.333333333333,4,2,3,65,0,0
29382,-133.333333333333,4,2,3,65,0,0
29682,-117.647058823529,4,2,3,65,0,0
29982,-80.6451612903226,4,2,3,65,0,0
30282,-93.4579439252336,4,2,3,65,0,0
30882,-133.333333333333,4,1,33,50,0,0
30957,-133.333333333333,4,2,0,65,0,0
31032,-133.333333333333,4,1,33,50,0,0
31107,-133.333333333333,4,2,3,65,0,0
31182,-133.333333333333,4,2,3,100,0,0
31219,-133.333333333333,4,2,3,65,0,0
32082,-100,4,2,3,65,0,0
33582,-133.333333333333,4,2,3,65,0,0
33882,-100,4,2,3,50,0,0
35982,-100,4,2,0,50,0,0
40407,-100,4,2,20,50,0,0
40782,-100,4,2,0,50,0,0
41382,-100,4,2,0,20,0,0
43182,-100,4,2,0,30,0,0
43482,-100,4,2,0,40,0,0
43782,-100,4,2,0,35,0,0
44082,-100,4,2,0,30,0,0
44232,-100,4,2,0,35,0,0
44382,-100,4,2,0,40,0,0
44532,-100,4,2,0,45,0,0
44682,-100,4,2,0,50,0,0
44832,-100,4,2,0,55,0,0
44982,-100,4,2,0,100,0,0
45282,-100,4,1,0,100,0,0
45507,-100,4,2,85,100,0,1
45732,-83.3333333333333,4,2,10,75,0,1
46182,-83.3333333333333,4,2,15,75,0,1
46332,-83.3333333333333,4,2,10,75,0,1
46782,-83.3333333333333,4,2,15,75,0,1
46819,-83.3333333333333,4,2,10,75,0,1
47232,-83.3333333333333,4,2,15,75,0,1
47382,-83.3333333333333,4,2,10,50,0,1
47682,-83.3333333333333,4,2,10,75,0,1
47982,-83.3333333333333,4,2,15,75,0,1
48019,-83.3333333333333,4,2,10,75,0,1
48582,-83.3333333333333,4,2,15,85,0,1
48732,-83.3333333333333,4,2,10,75,0,1
49182,-83.3333333333333,4,2,10,75,0,1
49782,-83.3333333333333,4,2,15,75,0,1
49819,-83.3333333333333,4,2,10,75,0,1
50382,-83.3333333333333,4,2,15,75,0,1
50419,-83.3333333333333,4,2,10,75,0,1
51282,-83.3333333333333,4,2,10,75,0,1
51582,-83.3333333333333,4,2,15,75,0,1
51732,-83.3333333333333,4,2,10,75,0,1
51882,-83.3333333333333,4,2,0,75,0,1
52182,-83.3333333333333,4,2,15,75,0,1
52332,-83.3333333333333,4,2,10,85,0,1
52782,-83.3333333333333,4,2,85,100,0,1
53082,-83.3333333333333,4,2,10,75,0,1
53382,-83.3333333333333,4,2,15,75,0,1
53419,-83.3333333333333,4,2,10,75,0,1
53982,-83.3333333333333,4,2,15,75,0,1
54019,-83.3333333333333,4,2,10,75,0,1
55182,-83.3333333333333,4,2,15,75,0,1
55219,-83.3333333333333,4,2,10,75,0,1
55782,-83.3333333333333,4,2,15,75,0,1
55819,-83.3333333333333,4,2,10,75,0,1
56382,-83.3333333333333,4,2,10,75,0,1
56982,-83.3333333333333,4,2,15,75,0,1
57019,-84.7457627118644,4,2,10,75,0,1
57582,-83.3333333333333,4,2,15,75,0,1
57619,-84.7457627118644,4,2,10,75,0,1
58182,-83.3333333333333,4,2,10,75,0,1
58782,-83.3333333333333,4,2,15,75,0,1
58819,-83.3333333333333,4,2,10,75,0,1
59382,-83.3333333333333,4,2,10,85,0,1
59982,-83.3333333333333,4,2,85,100,0,1
60057,-83.3333333333333,4,2,10,85,0,1
60582,-83.3333333333333,4,2,15,85,0,1
60619,-83.3333333333333,4,2,10,85,0,1
61182,-83.3333333333333,4,2,15,85,0,1
61219,-83.3333333333333,4,2,10,85,0,1
61482,-84.0336134453781,4,2,10,75,0,1
61632,-83.3333333333333,4,2,10,75,0,1
62232,-83.3333333333333,4,2,10,85,0,1
62382,-83.3333333333333,4,2,15,85,0,1
62532,-83.3333333333333,4,2,10,75,0,1
62982,-83.3333333333333,4,2,15,85,0,1
63132,-83.3333333333333,4,2,10,75,0,1
63582,-95.2380952380952,4,2,10,75,0,1
63882,-83.3333333333333,4,2,10,75,0,1
64182,-83.3333333333333,4,2,15,75,0,1
64332,-83.3333333333333,4,2,10,75,0,1
64782,-83.3333333333333,4,2,15,75,0,1
64932,-83.3333333333333,4,2,10,75,0,1
65532,-83.3333333333333,4,2,10,85,0,1
65682,-83.3333333333333,4,2,15,85,0,1
65982,-83.3333333333333,4,2,10,85,0,1
66282,-83.3333333333333,4,2,15,75,0,1
66582,-83.3333333333333,4,2,10,90,0,1
66882,-83.3333333333333,4,2,15,75,0,1
67032,-80,4,2,10,75,0,1
67407,-83.3333333333333,4,2,10,80,0,1
67632,-83.3333333333333,4,2,15,75,0,1
67782,-83.3333333333333,4,2,10,80,0,1
68082,-83.3333333333333,4,2,15,75,0,1
68232,-83.3333333333333,4,2,10,80,0,1
68382,-83.3333333333333,4,2,15,75,0,1
68532,-83.3333333333333,4,2,10,80,0,1
68682,-83.3333333333333,4,2,15,75,0,1
68832,-83.3333333333333,4,2,10,75,0,1
69132,-83.3333333333333,4,2,10,75,0,1
69582,-83.3333333333333,4,2,15,75,0,1
69732,-83.3333333333333,4,2,10,75,0,1
70182,-83.3333333333333,4,2,15,75,0,1
70332,-83.3333333333333,4,2,10,75,0,1
70782,-83.3333333333333,4,2,10,70,0,1
70932,-83.3333333333333,4,2,10,75,0,1
71382,-83.3333333333333,4,2,15,75,0,1
71532,-83.3333333333333,4,2,10,75,0,1
71682,-83.3333333333333,4,2,10,70,0,1
72582,-83.3333333333333,4,2,10,80,0,0
72732,-83.3333333333333,4,2,0,80,0,0
72882,-83.3333333333333,4,2,0,50,0,0
74682,-83.3333333333333,4,2,3,80,0,0
76182,-83.3333333333333,4,2,10,80,0,0
77982,-133.333333333333,4,2,0,60,0,0
81582,-133.333333333333,4,2,0,65,0,0
84582,-100,4,2,0,65,0,0
85182,-133.333333333333,4,1,1,65,0,0
85257,-133.333333333333,4,2,0,70,0,0
86082,-133.333333333333,4,1,1,65,0,0
86119,-133.333333333333,4,2,0,70,0,0
86982,-133.333333333333,4,1,1,65,0,0
87019,-133.333333333333,4,2,0,70,0,0
87882,-133.333333333333,4,1,1,65,0,0
87919,-100,4,2,0,70,0,0
88482,-100,4,2,0,75,0,0
88782,-100,4,1,1,80,0,0
88819,-100,4,2,0,75,0,0
89382,-83.3333333333333,4,1,1,50,0,0
89982,-83.3333333333333,4,1,1,100,0,0
90057,-83.3333333333333,4,2,0,65,0,0
90282,-83.3333333333333,4,1,1,100,0,0
90357,-83.3333333333333,4,2,0,65,0,0
90582,-83.3333333333333,4,1,1,100,0,0
90657,-83.3333333333333,4,2,0,65,0,0
90882,-83.3333333333333,4,1,1,100,0,0
90957,-83.3333333333333,4,2,0,65,0,0
91182,-80,4,1,1,100,0,0
91782,-83.3333333333333,4,2,0,65,0,0
92382,-83.3333333333333,4,2,85,80,0,0
92457,-83.3333333333333,4,2,3,65,0,0
104382,-83.3333333333333,4,2,3,50,0,0
105582,-83.3333333333333,4,2,3,60,0,0
106782,-83.3333333333333,4,2,3,75,0,0
111282,-133.333333333333,4,2,0,65,0,0
111582,-83.3333333333333,4,2,85,100,0,1
111657,-83.3333333333333,4,2,10,75,0,1
112182,-83.3333333333333,4,2,15,75,0,1
112332,-83.3333333333333,4,2,10,75,0,1
112782,-83.3333333333333,4,2,15,75,0,1
112932,-83.3333333333333,4,2,10,75,0,1
113532,-83.3333333333333,4,2,10,75,0,1
113982,-83.3333333333333,4,2,15,75,0,1
114132,-83.3333333333333,4,2,10,75,0,1
114582,-78.7401574803149,4,2,15,75,0,1
114732,-78.7401574803149,4,2,10,75,0,1
114882,-83.3333333333333,4,2,10,75,0,1
115332,-78.7401574803149,4,2,10,75,0,1
115782,-78.7401574803149,4,2,15,75,0,1
115932,-78.7401574803149,4,2,10,75,0,1
116382,-78.7401574803149,4,2,15,75,0,1
116532,-78.7401574803149,4,2,10,75,0,1
117132,-78.7401574803149,4,2,10,75,0,1
117582,-78.7401574803149,4,2,15,75,0,1
117732,-78.7401574803149,4,2,10,75,0,1
118182,-83.3333333333333,4,2,10,75,0,1
118782,-83.3333333333333,4,2,85,75,0,1
118932,-83.3333333333333,4,2,10,75,0,1
119382,-78.7401574803149,4,2,15,75,0,1
119532,-78.7401574803149,4,2,10,75,0,1
119982,-80.6451612903226,4,2,15,75,0,1
120282,-83.3333333333333,4,2,10,75,0,1
120732,-83.3333333333333,4,2,10,75,0,1
121182,-74.0740740740741,4,2,15,75,0,1
121482,-88.4955752212389,4,2,10,75,0,1
121782,-83.3333333333333,4,2,15,75,0,1
121932,-88.4955752212389,4,2,10,75,0,1
122382,-83.3333333333333,4,2,85,75,0,1
122419,-83.3333333333333,4,2,10,75,0,1
123582,-83.3333333333333,4,2,15,75,0,1
123732,-83.3333333333333,4,2,10,75,0,1
123882,-83.3333333333333,4,2,10,75,0,1
124782,-66.6666666666667,4,2,15,75,0,1
124932,-83.3333333333333,4,2,10,75,0,1
125382,-66.6666666666667,4,2,15,75,0,1
125532,-83.3333333333333,4,2,10,75,0,1
125982,-83.3333333333333,4,2,85,100,0,1
126282,-83.3333333333333,4,2,10,75,0,1
126582,-66.6666666666667,4,2,15,75,0,1
126732,-83.3333333333333,4,2,10,75,0,1
127182,-66.6666666666667,4,2,15,75,0,1
127332,-83.3333333333333,4,2,10,75,0,1
127932,-83.3333333333333,4,2,10,75,0,1
128382,-66.6666666666667,4,2,15,75,0,1
128532,-83.3333333333333,4,2,10,75,0,1
128982,-83.3333333333333,4,2,15,75,0,1
129282,-83.3333333333333,4,2,10,75,0,1
129582,-83.3333333333333,4,2,15,75,0,1
129732,-83.3333333333333,4,2,10,75,0,1
130182,-83.3333333333333,4,2,15,75,0,1
130332,-83.3333333333333,4,2,10,75,0,1
130782,-83.3333333333333,4,2,15,75,0,1
130932,-83.3333333333333,4,2,10,75,0,1
131382,-83.3333333333333,4,2,15,75,0,1
131532,-83.3333333333333,4,2,10,75,0,1
132582,-83.3333333333333,4,2,48,80,0,0
132619,-83.3333333333333,4,2,3,5,0,0
132882,-83.3333333333333,4,2,50,30,0,0
133032,-133.333333333333,4,2,5,80,0,0
133069,-83.3333333333333,4,2,3,5,0,0
133182,-83.3333333333333,4,2,85,65,0,1
133219,-83.3333333333333,4,2,5,65,0,1
136482,-83.3333333333333,4,2,5,50,0,1
136782,-83.3333333333333,4,2,5,65,0,1
141282,-66.6666666666667,4,2,5,65,0,1
141432,-83.3333333333333,4,2,5,65,0,1
152382,-71.4285714285714,4,2,5,65,0,1
152607,-83.3333333333333,4,2,5,65,0,1
153582,-83.3333333333333,4,2,5,30,0,1
154782,-83.3333333333333,4,2,0,60,0,0
164382,-83.3333333333333,4,2,3,30,0,0
169182,-83.3333333333333,4,2,0,50,0,0
171732,-83.3333333333333,4,2,3,40,0,0
173982,-83.3333333333333,4,2,0,60,0,0
177882,-83.3333333333333,4,2,3,50,0,0
182982,-83.3333333333333,4,2,0,80,0,0
183432,-133.333333333333,4,2,3,65,0,0
183582,-66.6666666666667,4,2,85,100,0,1
183619,-66.6666666666667,4,2,3,70,0,1
192282,-66.6666666666667,4,2,0,70,0,1
192582,-66.6666666666667,4,2,3,75,0,1
193182,-66.6666666666667,4,2,85,100,0,1
193219,-66.6666666666667,4,2,3,70,0,1
195132,-80.6451612903226,4,2,0,75,0,1
195432,-66.6666666666667,4,2,3,70,0,1
202182,-66.6666666666667,4,2,3,75,0,1
202782,-83.3333333333333,4,2,85,100,0,0

[Colours]
Combo1 : 186,27,27
Combo2 : 255,223,239
Combo3 : 55,23,29
Combo4 : 58,72,99
Combo5 : 248,254,131

[HitObjects]
256,192,4782,12,0,7032,0:0:0:0:
256,192,7182,5,4,0:0:0:0:
184,192,7482,1,8,0:0:0:0:
112,192,7782,1,8,0:0:0:0:
328,192,8082,1,8,0:0:0:0:
400,192,8382,1,0,0:0:0:0:
328,136,8532,6,0,L|184:72,1,158.333333333333,2|0,0:0|0:0,0:0:0:0:
288,48,8832,2,0,L|360:48,1,71.2500027179719,2|8,0:0|0:0,0:0:0:0:
472,80,9132,2,0,L|377:80,1,95,0|8,0:0|0:0,0:0:0:0:
400,200,9432,1,0,0:0:0:0:
312,296,9582,1,0,0:0:0:0:
232,296,9732,1,2,0:0:0:0:
152,296,9882,1,0,0:0:0:0:
280,336,10032,6,0,P|328:336|384:312,1,95,2|8,0:0|0:0,0:0:0:0:
288,224,10332,2,0,P|240:224|184:248,1,95,2|8,0:0|0:0,0:0:0:0:
184,296,10632,1,0,0:0:0:0:
400,296,10782,1,2,0:0:0:0:
400,256,10932,1,2,0:0:0:0:
320,256,11082,6,0,L|224:256,1,95,8|0,0:0|0:0,0:0:0:0:
368,272,11382,1,8,0:0:0:0:
464,256,11532,1,0,0:0:0:0:
296,224,11682,1,8,0:0:0:0:
432,296,11832,1,0,0:0:0:0:
376,232,11982,2,0,P|400:192|472:192,1,95,8|2,0:0|0:0,0:0:0:0:
512,128,12282,6,0,P|488:168|416:168,1,95,8|0,0:0|0:0,0:0:0:0:
336,192,12582,1,8,0:0:0:0:
224,208,12732,2,0,L|184:296,1,95,0|8,0:0|0:0,0:0:0:0:
472,209,13032,2,0,L|432:295,1,95,0|8,0:0|0:0,0:0:0:0:
145,208,13332,2,0,L|185:296,1,95,0|8,0:0|0:0,0:0:0:0:
72,208,13632,2,0,L|32:296,1,95
312,40,13932,2,0,L|352:128,1,95,0|8,0:0|0:0,0:0:0:0:
320,144,14132,1,0,0:0:0:0:
288,160,14182,1,0,0:0:0:0:
256,176,14232,1,0,0:0:0:0:
224,192,14282,1,0,0:0:0:0:
192,208,14332,1,0,0:0:0:0:
120,176,14382,2,0,L|210:203,1,95,8|2,0:0|0:0,0:0:0:0:
320,192,14682,5,8,0:0:0:0:
424,224,14832,1,0,0:0:0:0:
288,256,14982,1,8,0:0:0:0:
256,192,15132,1,0,0:0:0:0:
408,224,15282,1,8,0:0:0:0:
320,256,15432,1,2,0:0:0:0:
216,256,15582,1,0,0:0:0:0:
144,256,15732,6,2,L|128:160,1,95
368,256,16032,2,0,L|424:180,1,95,2|8,0:0|0:0,0:0:0:0:
224,104,16282,5,8,0:0:0:0:
136,128,16382,1,8,0:0:0:0:
224,144,16482,1,8,0:0:0:0:
128,152,16582,1,8,0:0:0:0:
32,168,16682,1,8,0:0:0:0:
280,224,16782,6,0,L|412:224,1,132.999995941162,4|0,0:0|0:0,0:0:0:0:
175,255,17082,6,0,L|127:151,1,113.999996520996,2|0,0:0|0:0,0:0:0:0:
160,160,17307,1,0,0:0:0:0:
256,160,17382,2,0,B|192:176|192:176|144:160,1,113.999996520996,8|0,0:0|0:0,0:0:0:0:
394,288,17682,6,0,L|426:176,1,113.999996520996,2|0,0:0|0:0,0:0:0:0:
378,160,17907,1,0,0:0:0:0:
269,159,17982,2,0,B|333:175|333:175|381:159,1,113.999996520996,8|0,0:0|0:0,0:0:0:0:
64,160,18282,6,0,L|32:272,1,113.999996520996,2|0,0:0|0:0,0:0:0:0:
80,288,18507,1,0,0:0:0:0:
256,192,18582,6,0,B|312:192|312:192|368:208,1,113.999996520996,8|0,0:0|0:0,0:0:0:0:
146,321,18882,6,0,L|114:209,1,113.999996520996,2|0,0:0|0:0,0:0:0:0:
162,193,19107,1,0,0:0:0:0:
256,192,19182,2,0,B|208:224|208:224|160:192,1,113.999996520996,8|0,0:0|0:0,0:0:0:0:
432,288,19482,6,0,L|464:176,1,113.999996520996,2|0,0:0|0:0,0:0:0:0:
416,160,19707,1,0,0:0:0:0:
162,193,19782,2,0,P|128:160|144:96,1,113.999996520996
352,160,20082,6,0,L|384:48,1,113.999996520996,2|0,0:0|0:0,0:0:0:0:
336,80,20307,1,0,0:0:0:0:
112,176,20382,6,0,L|80:288,1,113.999996520996,8|0,0:0|0:0,0:0:0:0:
256,96,20682,6,0,L|376:96,1,119.699996347046,2|0,0:0|0:0,0:0:0:0:
352,160,20907,1,0,0:0:0:0:
112,176,20982,6,0,L|0:208,1,113.999996520996,8|0,0:0|0:0,0:0:0:0:
40,224,21207,1,0,0:0:0:0:
352,224,21282,6,0,L|464:256,1,113.999996520996,2|0,0:0|0:0,0:0:0:0:
424,272,21507,1,0,0:0:0:0:
120,248,21582,6,0,L|32:320,1,113.999996520996,8|0,0:0|0:0,0:0:0:0:
256,160,21882,2,0,L|328:248,1,113.999996520996,2|0,0:0|0:0,0:0:0:0:
248,224,22107,1,0,0:0:0:0:
176,200,22182,2,0,L|72:248,1,113.999996520996,8|0,0:0|0:0,0:0:0:0:
320,112,22482,2,0,L|400:192,1,113.999996520996,2|0,0:0|0:0,0:0:0:0:
224,112,22782,5,8,0:0:0:0:
104,144,22932,1,0,0:0:0:0:
240,160,23082,1,2,0:0:0:0:
376,176,23232,1,8,0:0:0:0:
160,120,23382,5,8,0:0:0:0:
112,160,23457,1,0,0:0:0:0:
144,192,23532,1,0,0:0:0:0:
200,208,23607,1,0,0:0:0:0:
348,200,23682,1,2,0:0:0:0:
424,200,23832,1,0,0:0:0:0:
272,200,23982,5,8,0:0:0:0:
392,248,24132,1,8,0:0:0:0:
280,248,24282,1,2,0:0:0:0:
168,248,24432,1,8,0:0:0:0:
424,200,24582,6,0,B|424:144|424:144|264:192,1,222.300000848007,8|2,0:0|0:0,0:0:0:0:
448,152,25182,5,8,0:0:0:0:
368,88,25332,1,8,0:0:0:0:
240,104,25482,1,2,0:0:0:0:
136,248,25632,1,8,0:0:0:0:
352,152,25782,1,4,0:0:0:0:
256,104,25932,1,8,0:0:0:0:
352,152,26082,6,0,B|384:104|384:104|384:48,1,113.999996520996,2|0,0:0|0:0,0:0:0:0:
352,24,26307,1,0,0:0:0:0:
128,144,26382,1,4,0:0:0:0:
96,196,26457,1,0,0:0:0:0:
136,248,26532,1,0,0:0:0:0:
208,272,26607,1,0,0:0:0:0:
288,272,26682,2,0,L|380:248,1,95,2|0,0:0|0:0,0:0:0:0:
352,152,26907,1,0,0:0:0:0:
160,144,26982,5,8,0:0:0:0:
248,144,27132,1,8,0:0:0:0:
128,144,27282,2,0,L|32:144,1,95,2|0,0:0|0:0,0:0:0:0:
160,200,27582,2,0,L|296:200,1,135.850001865616,8|0,0:0|0:0,0:0:0:0:
80,232,27882,1,2,0:0:0:0:
192,256,28032,1,0,0:0:0:0:
80,144,28182,5,8,0:0:0:0:
192,144,28332,1,0,0:0:0:0:
512,192,28482,5,2,0:0:0:0:
424,192,28632,1,0,0:0:0:0:
168,264,28782,1,8,0:0:0:0:
120,224,28857,1,0,0:0:0:0:
128,176,28932,1,0,0:0:0:0:
176,144,29007,1,0,0:0:0:0:
416,24,29082,5,2,0:0:0:0:
480,64,29232,1,0,0:0:0:0:
328,64,29382,1,0,0:0:0:0:
464,144,29532,1,0,0:0:0:0:
376,144,29682,2,0,L|232:144,1,121.125002310276,8|0,0:0|0:0,0:0:0:0:
64,144,29982,6,0,L|240:144,1,176.699992989807,2|0,0:0|0:0,0:0:0:0:
408,224,30282,6,0,L|256:224,1,152.474995346832,2|0,0:0|0:0,0:0:0:0:
0,144,30582,1,4,0:0:0:0:
128,144,30732,1,0,0:0:0:0:
224,188,30882,2,0,L|240:220,1,35.625001358986
96,176,31032,2,0,L|64:192,1,35.625001358986
320,192,31182,5,4,0:0:0:0:
388,168,31257,1,0,0:0:0:0:
408,96,31332,1,0,0:0:0:0:
364,40,31407,1,0,0:0:0:0:
64,144,31482,5,2,0:0:0:0:
24,200,31557,1,0,0:0:0:0:
48,264,31632,1,0,0:0:0:0:
112,296,31707,1,0,0:0:0:0:
288,192,31782,5,8,0:0:0:0:
192,144,31932,1,8,0:0:0:0:
96,96,32082,1,2,0:0:0:0:
320,192,32232,1,8,0:0:0:0:
64,96,32382,6,0,L|248:144,1,190,8|2,0:0|0:0,0:0:0:0:
160,120,32832,1,0,0:0:0:0:
304,192,32982,6,0,L|120:240,1,190,8|2,0:0|0:0,0:0:0:0:
268,236,33432,1,0,0:0:0:0:
416,236,33582,2,0,P|484:216|512:192,1,106.875004076958,8|0,0:0|0:0,0:0:0:0:
256,192,33882,5,2,0:0:0:0:
216,160,33957,1,0,0:0:0:0:
200,112,34032,1,0,0:0:0:0:
216,64,34107,1,0,0:0:0:0:
256,48,34182,5,0,0:0:0:0:
160,120,34332,1,8,0:0:0:0:
416,132,34482,1,2,0:0:0:0:
199,287,34782,6,0,B|239:175|239:175|255:191,1,142.5,8|0,0:0|0:0,0:0:0:0:
432,128,35082,5,2,0:0:0:0:
464,160,35157,1,0,0:0:0:0:
456,208,35232,1,0,0:0:0:0:
408,232,35307,1,0,0:0:0:0:
360,216,35382,5,8,0:0:0:0:
512,192,35532,1,8,0:0:0:0:
288,88,35682,1,2,0:0:0:0:
236,128,35757,1,0,0:0:0:0:
240,192,35832,1,0,0:0:0:0:
296,232,35907,1,0,0:0:0:0:
456,208,35982,6,0,L|496:232,1,47.5,4|0,0:0|0:0,0:0:0:0:
240,192,36132,2,0,L|176:192,1,47.5
256,128,36282,5,2,0:0:0:0:
332,128,36357,1,0,0:0:0:0:
408,128,36432,1,0,0:0:0:0:
472,128,36507,2,0,L|480:176,1,47.5
440,192,36657,2,0,L|400:216,1,47.5
336,192,36807,1,0,0:0:0:0:
288,168,36882,5,2,0:0:0:0:
248,168,36957,1,0,0:0:0:0:
184,168,37032,1,0,0:0:0:0:
108,168,37107,1,0,0:0:0:0:
32,192,37182,5,0,0:0:0:0:
96,208,37257,1,0,0:0:0:0:
128,272,37332,1,0,0:0:0:0:
96,336,37407,1,0,0:0:0:0:
160,272,37482,5,2,0:0:0:0:
228,272,37557,1,0,0:0:0:0:
288,272,37632,1,0,0:0:0:0:
336,272,37707,1,0,0:0:0:0:
288,248,37782,5,2,0:0:0:0:
304,192,37857,1,0,0:0:0:0:
372,192,37932,1,0,0:0:0:0:
440,192,38007,1,2,0:0:0:0:
392,120,38082,1,0,0:0:0:0:
312,64,38157,1,0,0:0:0:0:
232,64,38232,1,2,0:0:0:0:
160,96,38307,1,0,0:0:0:0:
192,168,38382,5,0,0:0:0:0:
256,168,38457,1,0,0:0:0:0:
320,168,38532,1,0,0:0:0:0:
256,144,38607,1,0,0:0:0:0:
192,128,38682,1,2,0:0:0:0:
176,176,38757,1,0,0:0:0:0:
208,224,38832,1,0,0:0:0:0:
264,232,38907,1,0,0:0:0:0:
304,232,38982,6,0,L|376:232,1,47.5
400,184,39132,2,0,L|336:184,1,47.5
312,144,39282,1,2,0:0:0:0:
272,184,39357,1,0,0:0:0:0:
296,232,39432,1,0,0:0:0:0:
336,264,39507,1,0,0:0:0:0:
184,168,39582,6,0,L|136:168,1,47.5
112,96,39732,2,0,L|160:144,1,47.5
216,208,39882,1,2,0:0:0:0:
224,256,39957,1,0,0:0:0:0:
192,304,40032,1,0,0:0:0:0:
132,320,40107,1,0,0:0:0:0:
192,304,40182,6,0,L|248:304,1,47.5,2|0,0:0|0:0,0:0:0:0:
280,352,40332,2,0,L|224:352,1,47.5
164,320,40482,6,0,L|268:320,1,95,8|0,0:0|0:0,0:0:0:0:
292,264,40782,5,2,0:0:0:0:
324,264,40857,1,2,0:0:0:0:
368,264,40932,1,2,0:0:0:0:
440,264,41007,1,2,0:0:0:0:
352,236,41082,1,2,0:0:0:0:
268,208,41157,1,2,0:0:0:0:
312,208,41232,1,2,0:0:0:0:
368,208,41307,1,2,0:0:0:0:
432,208,41382,6,2,L|456:168,1,47.5
256,192,41532,2,2,L|232:152,1,47.5
400,160,41682,6,2,L|440:132,1,47.5
231,151,41832,2,2,L|207:111,1,47.5
360,120,41982,6,2,L|408:116,1,47.5
206,110,42132,2,2,L|182:70,1,47.5
320,80,42282,2,2,L|367:80,1,47.5
181,69,42432,2,2,L|134:69,1,47.5
176,152,42582,2,2,L|223:152,1,47.5
168,192,42732,2,2,L|117:192,1,47.5
152,216,42882,2,2,L|199:216,1,47.5
136,256,43032,2,2,L|120:300,1,47.5
256,248,43182,6,2,L|304:248,1,47.5
364,232,43332,6,2,L|340:176,1,47.5
268,208,43482,6,2,L|324:216,1,47.5
364,200,43632,6,2,L|332:144,1,47.5
276,176,43782,1,0,0:0:0:0:
328,176,43857,1,0,0:0:0:0:
364,172,43932,6,2,L|348:128,1,47.5
300,128,44082,5,2,0:0:0:0:
248,128,44157,1,2,0:0:0:0:
200,128,44232,6,2,L|248:112,1,47.5
288,196,44382,6,2,L|248:220,1,47.5
176,264,44532,1,2,0:0:0:0:
165,216,44607,1,2,0:0:0:0:
248,296,44682,1,2,0:0:0:0:
262,343,44757,1,2,0:0:0:0:
172,304,44832,1,2,0:0:0:0:
158,256,44907,1,2,0:0:0:0:
340,208,44982,6,0,P|380:288|368:336,1,142.5,2|0,0:0|0:0,0:0:0:0:
192,316,45282,6,0,B|120:316|120:316|136:248,1,142.5
165,216,45544,1,0,0:0:0:0:
384,192,45582,5,4,0:0:0:0:
512,192,45732,1,0,0:0:0:0:
368,304,45882,1,2,0:0:0:0:
432,248,45957,1,0,0:0:0:0:
496,192,46032,1,8,0:0:0:0:
256,248,46182,2,0,L|144:224,1,113.999996520996,12|8,0:0|0:0,0:0:0:0:
384,192,46482,2,0,B|464:160|464:160|440:144,1,113.999996520996,2|8,0:0|0:0,0:0:0:0:
224,192,46782,2,0,B|144:224|144:224|168:240,1,113.999996520996,8|0,0:0|0:0,0:0:0:0:
480,192,47082,2,0,B|492:136|492:136|448:100,1,113.999996520996,2|8,0:0|0:0,0:0:0:0:
384,100,47307,1,0,0:0:0:0:
224,192,47382,5,4,0:0:0:0:
96,128,47532,1,0,0:0:0:0:
352,152,47682,2,0,L|232:152,1,113.999996520996,2|8,0:0|0:0,0:0:0:0:
328,176,47982,5,12,0:0:0:0:
440,192,48132,1,8,0:0:0:0:
344,168,48282,1,2,0:0:0:0:
232,144,48432,1,8,0:0:0:0:
352,168,48582,1,8,0:0:0:0:
472,192,48732,1,8,0:0:0:0:
224,144,48882,1,2,0:0:0:0:
96,144,49032,1,8,0:0:0:0:
368,168,49182,6,0,L|480:192,1,113.999996520996,4|0,0:0|0:0,0:0:0:0:
416,224,49407,1,0,0:0:0:0:
352,248,49482,1,2,0:0:0:0:
32,320,49632,1,8,0:0:0:0:
256,192,49782,2,0,B|224:144|224:144|184:184,1,113.999996520996,12|8,0:0|0:0,0:0:0:0:
32,192,50082,2,0,B|64:240|64:240|128:216,1,113.999996520996,2|8,0:0|0:0,0:0:0:0:
408,216,50382,2,0,B|376:168|376:168|312:192,1,113.999996520996,8|8,0:0|0:0,0:0:0:0:
40,232,50682,2,0,B|72:280|72:280|112:240,1,113.999996520996,2|8,0:0|0:0,0:0:0:0:
192,192,50982,5,4,0:0:0:0:
128,192,51057,1,0,0:0:0:0:
64,192,51132,1,0,0:0:0:0:
392,144,51282,2,0,L|480:216,1,113.999996520996,2|8,0:0|0:0,0:0:0:0:
344,176,51582,1,12,0:0:0:0:
480,216,51732,1,8,0:0:0:0:
320,224,51882,2,0,L|192:224,1,113.999996520996,2|2,0:0|0:0,0:0:0:0:
344,176,52182,2,0,L|424:96,1,113.999996520996,12|8,0:0|0:0,0:0:0:0:
360,96,52407,1,0,0:0:0:0:
207,135,52482,5,2,0:0:0:0:
204,192,52557,1,0,0:0:0:0:
480,216,52632,5,2,0:0:0:0:
483,273,52707,1,0,0:0:0:0:
287,256,52782,6,0,P|203:192|207:136,1,170.999994781494,4|0,0:0|0:0,0:0:0:0:
352,140,53082,1,2,0:0:0:0:
480,160,53232,1,8,0:0:0:0:
184,176,53382,5,12,0:0:0:0:
72,192,53532,1,8,0:0:0:0:
304,184,53682,1,2,0:0:0:0:
416,216,53832,1,8,0:0:0:0:
272,136,53982,1,8,0:0:0:0:
384,184,54132,1,8,0:0:0:0:
160,112,54282,1,2,0:0:0:0:
40,176,54432,1,8,0:0:0:0:
368,232,54582,5,4,0:0:0:0:
432,208,54657,1,0,0:0:0:0:
464,152,54732,1,0,0:0:0:0:
432,104,54807,1,0,0:0:0:0:
288,96,54882,2,0,L|176:80,1,113.999996520996,2|8,0:0|0:0,0:0:0:0:
288,136,55182,5,12,0:0:0:0:
400,184,55332,1,8,0:0:0:0:
256,192,55482,1,2,0:0:0:0:
360,152,55632,1,8,0:0:0:0:
224,96,55782,1,8,0:0:0:0:
380,168,55932,1,8,0:0:0:0:
160,96,56082,6,0,L|120:136,1,56.9999982604981,2|0,0:0|0:0,0:0:0:0:
360,152,56232,2,0,L|408:184,1,56.9999982604981,8|0,0:0|0:0,0:0:0:0:
224,192,56382,5,4,0:0:0:0:
152,192,56457,1,0,0:0:0:0:
104,192,56532,1,0,0:0:0:0:
72,192,56607,1,0,0:0:0:0:
56,228,56682,1,2,0:0:0:0:
172,228,56832,1,8,0:0:0:0:
288,224,56982,6,0,L|368:304,1,113.999996520996,12|8,0:0|0:0,0:0:0:0:
104,144,57282,2,0,L|0:192,1,113.999996520996,2|8,0:0|0:0,0:0:0:0:
376,80,57582,2,0,L|480:128,1,113.999996520996,8|8,0:0|0:0,0:0:0:0:
80,216,57882,2,0,B|0:192|0:192|16:216,1,112.099996065827,2|8,0:0|0:0,0:0:0:0:
384,232,58182,6,0,L|488:176,1,113.999996520996,4|8,0:0|0:0,0:0:0:0:
256,224,58482,2,0,P|210:136|258:96,1,170.999994781494,2|0,0:0|0:0,0:0:0:0:
384,232,58782,5,8,0:0:0:0:
288,128,58932,1,8,0:0:0:0:
416,232,59082,2,0,P|462:144|414:104,1,170.999994781494,2|0,0:0|0:0,0:0:0:0:
216,240,59382,5,8,0:0:0:0:
320,168,59532,1,8,0:0:0:0:
148,244,59682,1,10,0:0:0:0:
288,224,59832,1,8,0:0:0:0:
80,248,59982,6,0,P|24:240|0:192,1,113.999996520996,4|8,0:0|0:0,0:0:0:0:
312,88,60282,2,0,P|368:96|408:144,1,113.999996520996,2|8,0:0|0:0,0:0:0:0:
256,160,60582,1,8,0:0:0:0:
352,232,60732,1,8,0:0:0:0:
232,296,60882,5,2,0:0:0:0:
144,176,61032,1,8,0:0:0:0:
368,288,61182,6,0,L|256:312,1,113.999996520996,12|8,0:0|0:0,0:0:0:0:
0,208,61482,2,0,L|112:224,1,113.049997757492,2|8,0:0|0:0,0:0:0:0:
336,112,61782,1,4,0:0:0:0:
200,192,61932,1,0,0:0:0:0:
472,192,62082,1,2,0:0:0:0:
224,136,62232,1,8,0:0:0:0:
336,176,62382,5,8,0:0:0:0:
104,136,62532,1,8,0:0:0:0:
336,176,62682,1,2,0:0:0:0:
408,136,62757,1,0,0:0:0:0:
480,96,62832,1,8,0:0:0:0:
368,80,62982,6,0,L|256:60,1,113.999996520996,8|8,0:0|0:0,0:0:0:0:
352,80,63282,1,2,0:0:0:0:
448,96,63432,1,8,0:0:0:0:
160,216,63582,6,0,L|232:148,1,99.7499969558717,4|8,0:0|0:0,0:0:0:0:
512,208,63882,2,8,L|400:232,1,113.999996520996,10|8,0:0|0:0,0:0:0:0:
280,156,64182,2,0,B|336:156|336:156|352:212,1,113.999996520996,12|8,0:0|0:0,0:0:0:0:
112,144,64482,1,2,0:0:0:0:
0,144,64632,1,8,0:0:0:0:
144,172,64782,6,2,L|180:280,1,113.999996520996,8|8,0:0|0:0,0:0:0:0:
480,192,65082,2,0,P|488:248|448:288,1,113.999996520996,2|0,0:0|0:0,0:0:0:0:
96,208,65382,5,4,0:0:0:0:
224,208,65532,1,8,0:0:0:0:
128,208,65682,6,0,P|96:108|132:64,1,170.999994781494,12|0,0:0|0:0,0:0:0:0:
224,160,65982,6,0,L|176:128,1,56.9999982604981,8|0,0:0|0:0,0:0:0:0:
96,120,66132,2,0,L|152:112,1,56.9999982604981,2|0,0:0|0:0,0:0:0:0:
312,208,66282,2,0,L|424:208|360:208,1,170.999994781494,8|0,0:0|0:0,0:0:0:0:
224,352,66582,5,8,0:0:0:0:
280,256,66732,1,8,0:0:0:0:
168,256,66882,1,8,0:0:0:0:
344,256,67032,1,8,0:0:0:0:
112,152,67182,6,0,L|0:192,1,118.75,4|8,0:0|0:0,0:0:0:0:
256,192,67482,1,2,0:0:0:0:
320,160,67557,1,0,0:0:0:0:
336,96,67632,1,12,0:0:0:0:
288,48,67707,1,0,0:0:0:0:
112,152,67782,2,0,L|32:72,1,113.999996520996,8|8,0:0|0:0,0:0:0:0:
432,152,68082,6,0,L|480:256,1,113.999996520996,12|8,0:0|0:0,0:0:0:0:
224,148,68382,2,0,L|304:228,1,113.999996520996,12|0,0:0|0:0,0:0:0:0:
0,192,68682,2,0,L|112:208,1,113.999996520996,12|8,0:0|0:0,0:0:0:0:
352,224,68982,5,4,0:0:0:0:
292,192,69057,1,0,0:0:0:0:
224,176,69132,1,0,0:0:0:0:
352,160,69282,2,0,P|400:128|400:64,1,113.999996520996,2|0,0:0|0:0,0:0:0:0:
288,96,69582,1,8,0:0:0:0:
400,128,69732,1,8,0:0:0:0:
256,144,69882,6,0,P|208:176|208:240,1,113.999996520996,2|0,0:0|0:0,0:0:0:0:
352,208,70182,5,8,0:0:0:0:
224,240,70332,1,8,0:0:0:0:
96,272,70482,2,0,P|40:256|24:208,1,113.999996520996,2|0,0:0|0:0,0:0:0:0:
368,208,70782,5,4,0:0:0:0:
424,176,70857,1,0,0:0:0:0:
464,120,70932,1,8,0:0:0:0:
144,216,71082,2,0,P|238:171|294:259,1,227.999993041992,2|8,0:0|0:0,0:0:0:0:
232,260,71457,1,0,0:0:0:0:
168,264,71532,1,8,0:0:0:0:
320,184,71682,6,0,L|208:168,1,113.999996520996,2|0,0:0|0:0,0:0:0:0:
320,184,71982,2,0,L|404:108,1,113.999996520996,4|0,0:0|0:0,0:0:0:0:
144,208,72282,2,0,P|55:264|56:320,1,170.999994781494,8|0,0:0|0:0,0:0:0:0:
136,328,72582,5,4,0:0:0:0:
248,272,72732,1,2,0:0:0:0:
336,184,72882,1,2,0:0:0:0:
184,272,74382,5,0,3:0:0:0:
352,216,74682,1,8,0:0:0:0:
224,192,75582,6,0,P|128:152|128:80,1,170.999994781494,8|0,0:0|0:0,0:0:0:0:
288,192,75882,2,0,P|384:152|384:80,1,170.999994781494,8|0,0:0|0:0,0:0:0:0:
256,96,76182,1,4,0:0:0:0:
256,192,77982,5,2,0:0:0:0:
176,192,78132,1,0,0:0:0:0:
16,192,78282,2,0,L|104:192,1,71.2500027179719,2|0,0:0|0:0,0:0:0:0:
176,192,78582,1,2,0:0:0:0:
256,192,78732,1,0,0:0:0:0:
416,192,78882,1,2,0:0:0:0:
336,192,79032,1,0,0:0:0:0:
200,192,79182,2,2,L|288:192,1,71.2500027179719
376,192,79482,2,0,L|336:128,1,71.2500027179719
96,192,79782,5,2,0:0:0:0:
176,192,79932,1,0,0:0:0:0:
304,192,80082,2,0,L|216:192,1,71.2500027179719,2|0,0:0|0:0,0:0:0:0:
136,192,80382,2,0,L|224:192,1,71.2500027179719,2|0,0:0|0:0,0:0:0:0:
336,192,80682,6,0,L|240:240,1,106.875004076958,2|0,0:0|0:0,0:0:0:0:
224,272,80982,1,2,0:0:0:0:
357,192,81132,1,2,0:0:0:0:
240,144,81282,1,2,0:0:0:0:
376,192,81432,1,2,0:0:0:0:
256,144,81582,5,2,0:0:0:0:
128,96,81732,1,0,0:0:0:0:
256,96,81882,1,2,0:0:0:0:
376,96,82032,1,0,0:0:0:0:
456,128,82182,2,0,L|424:192,1,71.2500027179719,2|0,0:0|0:0,0:0:0:0:
288,232,82482,6,0,L|224:232|280:232,1,106.875004076958,2|0,0:0|0:0,0:0:0:0:
376,96,82782,2,0,L|304:96,1,71.2500027179719,2|0,0:0|0:0,0:0:0:0:
216,96,83082,2,0,L|288:96,1,71.2500027179719,2|0,0:0|0:0,0:0:0:0:
376,96,83382,6,0,L|312:96|344:144,1,106.875004076958,2|0,0:0|0:0,0:0:0:0:
480,288,83682,2,0,L|512:224,1,71.2500027179719,2|0,0:0|0:0,0:0:0:0:
352,224,83982,2,0,L|424:224,1,71.2500027179719,2|0,0:0|0:0,0:0:0:0:
288,288,84282,6,0,L|224:288|280:288,1,106.875004076958,2|0,0:0|0:0,0:0:0:0:
336,192,84582,2,0,L|440:192,1,95,2|0,0:0|0:0,0:0:0:0:
320,192,84882,5,2,0:0:0:0:
432,192,85032,1,2,0:0:0:0:
312,192,85182,6,0,P|248:176|248:120,1,106.875004076958
336,192,85482,2,0,L|416:192,1,71.2500027179719,2|0,0:0|0:0,0:0:0:0:
280,144,85782,2,0,L|200:144,1,71.2500027179719,2|0,0:0|0:0,0:0:0:0:
336,192,86082,6,0,P|400:176|400:120,1,106.875004076958
332,144,86382,2,0,L|252:144,1,71.2500027179719,2|0,0:0|0:0,0:0:0:0:
384,144,86682,2,0,L|464:144,1,71.2500027179719,2|0,0:0|0:0,0:0:0:0:
224,144,86982,6,0,B|164:108|164:108|200:100,1,106.875004076958
288,144,87282,2,0,L|368:144,1,71.2500027179719,2|0,0:0|0:0,0:0:0:0:
224,96,87582,2,0,L|144:96,1,71.2500027179719,2|0,0:0|0:0,0:0:0:0:
376,144,87882,6,0,P|440:128|440:72,1,106.875004076958
288,144,88182,2,0,L|192:144,1,95,2|2,0:0|0:0,0:0:0:0:
416,96,88482,6,2,L|512:96,1,95
288,144,88782,5,0,0:0:0:0:
160,224,88932,1,0,0:0:0:0:
208,288,89082,6,0,L|303:288,1,95,2|0,0:0|0:0,0:0:0:0:
416,96,89382,1,0,0:0:0:0:
480,192,89532,1,0,0:0:0:0:
360,96,89682,2,0,L|320:96|416:184,1,170.999994781494
376,144,89982,6,0,B|272:192|272:192|224:160,1,170.999994781494
73,192,90282,6,0,B|113:152|113:152|177:144|177:144|225:160,1,170.999994781494
416,184,90582,6,0,B|312:136|312:136|224:136,1,170.999994781494
64,192,90882,6,0,B|168:240|168:240|224:232,1,170.999994781494
408,184,91182,1,0,0:0:0:0:
480,188,91332,1,0,0:0:0:0:
56,240,91482,1,0,0:0:0:0:
136,184,91632,1,0,0:0:0:0:
408,232,91782,1,0,0:0:0:0:
344,232,91857,1,0,0:0:0:0:
288,232,91932,1,0,0:0:0:0:
348,268,92007,1,0,0:0:0:0:
408,296,92082,6,0,L|376:128,1,170.999994781494
88,160,92382,1,4,0:0:0:0:
56,160,92532,1,0,0:0:0:0:
168,184,92682,6,0,L|248:184,1,56.9999982604981,2|0,0:0|0:0,0:0:0:0:
272,264,92832,2,0,L|232:208,1,56.9999982604981
64,160,92982,2,0,L|0:160,2,56.9999982604981,8|0|0,0:0|0:0|0:0,0:0:0:0:
120,160,93207,1,0,0:0:0:0:
256,192,93282,5,2,0:0:0:0:
224,192,93432,1,0,0:0:0:0:
224,264,93507,1,0,0:0:0:0:
384,72,93582,5,8,0:0:0:0:
464,72,93732,1,0,0:0:0:0:
448,72,93807,1,0,0:0:0:0:
256,136,93882,1,2,0:0:0:0:
192,136,93957,1,0,0:0:0:0:
256,248,94032,1,0,0:0:0:0:
320,248,94107,1,0,0:0:0:0:
368,248,94182,1,8,0:0:0:0:
352,192,94257,1,0,0:0:0:0:
288,192,94332,5,0,0:0:0:0:
400,192,94482,1,2,0:0:0:0:
456,192,94557,1,0,0:0:0:0:
488,192,94632,1,0,0:0:0:0:
504,168,94707,1,0,0:0:0:0:
320,136,94782,5,8,0:0:0:0:
192,136,94932,1,0,0:0:0:0:
288,136,95082,2,0,L|376:48,1,113.999996520996,2|0,0:0|0:0,0:0:0:0:
256,136,95382,1,8,0:0:0:0:
328,96,95532,1,0,0:0:0:0:
224,136,95682,2,0,L|120:192,1,113.999996520996,2|0,0:0|0:0,0:0:0:0:
176,224,95907,1,0,0:0:0:0:
224,256,95982,6,0,L|336:280,1,113.999996520996,8|0,0:0|0:0,0:0:0:0:
256,304,96282,6,0,L|144:280,1,113.999996520996,2|0,0:0|0:0,0:0:0:0:
224,192,96582,5,8,0:0:0:0:
160,176,96657,1,0,0:0:0:0:
104,200,96732,1,0,0:0:0:0:
112,256,96807,1,0,0:0:0:0:
256,200,96882,6,0,L|368:136,1,113.999996520996,2|0,0:0|0:0,0:0:0:0:
312,144,97107,1,0,0:0:0:0:
80,200,97182,6,0,L|24:200|48:256,1,113.999996520996,4|0,0:0|0:0,0:0:0:0:
56,272,97407,1,0,0:0:0:0:
80,296,97482,1,2,0:0:0:0:
120,312,97557,1,0,0:0:0:0:
184,320,97632,1,0,0:0:0:0:
264,304,97707,1,0,0:0:0:0:
416,200,97782,5,8,0:0:0:0:
328,144,97932,1,0,0:0:0:0:
360,200,98082,2,0,L|432:304,1,113.999996520996,2|0,0:0|0:0,0:0:0:0:
392,296,98307,1,0,0:0:0:0:
160,232,98382,1,8,0:0:0:0:
96,232,98457,1,0,0:0:0:0:
80,200,98532,1,0,0:0:0:0:
112,160,98607,1,0,0:0:0:0:
288,192,98682,5,2,0:0:0:0:
352,192,98757,1,0,0:0:0:0:
368,160,98832,1,0,0:0:0:0:
336,120,98907,1,0,0:0:0:0:
128,272,98982,5,8,0:0:0:0:
56,272,99057,1,0,0:0:0:0:
16,272,99132,1,0,0:0:0:0:
32,248,99207,1,0,0:0:0:0:
320,224,99282,5,2,0:0:0:0:
384,224,99357,1,0,0:0:0:0:
416,224,99432,1,0,0:0:0:0:
400,256,99507,1,0,0:0:0:0:
92,324,99582,5,4,0:0:0:0:
144,184,100782,5,4,0:0:0:0:
176,176,101832,1,8,0:0:0:0:
320,176,101982,1,8,0:0:0:0:
216,176,102132,1,8,0:0:0:0:
104,176,102282,1,2,0:0:0:0:
200,248,102432,1,8,0:0:0:0:
72,248,102582,1,8,0:0:0:0:
280,248,102732,1,8,0:0:0:0:
40,304,102882,1,2,0:0:0:0:
152,248,103032,1,8,0:0:0:0:
264,184,103182,5,8,0:0:0:0:
352,184,103332,1,8,0:0:0:0:
208,184,103482,1,2,0:0:0:0:
288,184,103632,1,8,0:0:0:0:
144,256,103782,1,8,0:0:0:0:
352,256,103932,1,8,0:0:0:0:
144,256,104082,1,2,0:0:0:0:
32,256,104232,1,8,0:0:0:0:
352,176,104382,5,8,0:0:0:0:
416,144,104457,1,8,0:0:0:0:
448,80,104532,1,8,0:0:0:0:
416,16,104607,1,8,0:0:0:0:
224,96,104682,5,2,0:0:0:0:
160,128,104757,1,8,0:0:0:0:
128,192,104832,1,8,0:0:0:0:
160,256,104907,1,8,0:0:0:0:
352,112,104982,5,8,0:0:0:0:
416,144,105057,1,8,0:0:0:0:
448,208,105132,1,8,0:0:0:0:
400,256,105207,1,8,0:0:0:0:
336,224,105282,6,8,L|296:184,1,56.9999982604981,2|8,0:0|0:0,0:0:0:0:
464,152,105432,2,8,L|504:112,1,56.9999982604981
256,240,105582,5,8,0:0:0:0:
232,280,105619,1,8,0:0:0:0:
192,304,105657,1,8,0:0:0:0:
152,312,105694,1,8,0:0:0:0:
112,296,105732,1,8,0:0:0:0:
80,264,105769,1,8,0:0:0:0:
64,224,105807,1,8,0:0:0:0:
208,184,105882,5,2,0:0:0:0:
248,176,105919,1,8,0:0:0:0:
288,152,105957,1,8,0:0:0:0:
320,120,105994,1,8,0:0:0:0:
344,88,106032,1,8,0:0:0:0:
344,48,106069,1,8,0:0:0:0:
320,8,106107,1,8,0:0:0:0:
164,272,106182,5,8,0:0:0:0:
120,248,106220,1,8,0:0:0:0:
88,208,106257,1,8,0:0:0:0:
68,164,106294,1,8,0:0:0:0:
56,116,106332,1,8,0:0:0:0:
64,68,106369,1,8,0:0:0:0:
88,24,106407,1,8,0:0:0:0:
344,88,106482,5,2,0:0:0:0:
392,112,106519,1,8,0:0:0:0:
432,144,106557,1,8,0:0:0:0:
456,192,106594,1,8,0:0:0:0:
448,240,106632,1,8,0:0:0:0:
424,280,106669,1,8,0:0:0:0:
376,296,106707,1,8,0:0:0:0:
224,192,106782,1,4,0:0:0:0:
256,192,106932,12,2,111282,0:0:0:0:
256,192,111582,5,4,0:0:0:0:
168,192,111732,1,8,0:0:0:0:
400,192,111882,1,2,0:0:0:0:
432,192,112032,1,8,0:0:0:0:
328,192,112182,6,0,L|432:240,1,113.999996520996,8|8,0:0|0:0,0:0:0:0:
200,192,112482,6,0,L|86:192,1,113.999996520996,2|8,0:0|0:0,0:0:0:0:
328,192,112782,6,0,L|280:88,1,113.999996520996,8|8,0:0|0:0,0:0:0:0:
128,192,113082,5,2,0:0:0:0:
64,192,113157,1,0,0:0:0:0:
0,192,113232,1,8,0:0:0:0:
224,80,113382,5,4,0:0:0:0:
128,80,113532,1,8,0:0:0:0:
256,128,113682,1,2,0:0:0:0:
376,168,113832,1,8,0:0:0:0:
512,200,113982,6,0,L|416:264,1,113.999996520996,8|8,0:0|0:0,0:0:0:0:
256,128,114282,6,0,L|352:192,1,113.999996520996,2|8,0:0|0:0,0:0:0:0:
224,120,114582,6,0,L|104:120,1,120.649999079514,8|8,0:0|0:0,0:0:0:0:
328,208,114882,5,2,0:0:0:0:
448,200,115032,1,8,0:0:0:0:
224,144,115182,5,4,0:0:0:0:
104,144,115332,1,8,0:0:0:0:
376,200,115482,1,2,0:0:0:0:
480,200,115632,1,8,0:0:0:0:
328,152,115782,6,0,L|448:152,1,120.649999079514,8|8,0:0|0:0,0:0:0:0:
280,104,116082,2,8,L|400:104,1,120.649999079514,2|8,0:0|0:0,0:0:0:0:
232,56,116382,2,8,L|352:56,1,120.649999079514
192,104,116682,2,0,L|312:120,1,120.649999079514,2|8,0:0|0:0,0:0:0:0:
148,156,116982,5,4,0:0:0:0:
267,171,117132,1,8,0:0:0:0:
104,104,117282,1,2,0:0:0:0:
328,152,117432,1,8,0:0:0:0:
32,144,117582,6,0,L|152:160,1,120.649999079514,8|8,0:0|0:0,0:0:0:0:
272,192,117882,2,0,L|152:208,1,120.649999079514,2|8,0:0|0:0,0:0:0:0:
272,192,118182,2,0,L|280:136,1,56.9999982604981,8|0,0:0|0:0,0:0:0:0:
136,128,118332,2,0,L|80:120,1,56.9999982604981,8|0,0:0|0:0,0:0:0:0:
328,136,118482,2,0,L|384:128,1,56.9999982604981,2|0,0:0|0:0,0:0:0:0:
136,104,118632,2,0,L|128:48,1,56.9999982604981,8|0,0:0|0:0,0:0:0:0:
416,104,118782,5,4,0:0:0:0:
440,128,118857,1,0,0:0:0:0:
396,168,118932,1,0,0:0:0:0:
328,168,119007,1,0,0:0:0:0:
0,192,119082,5,2,0:0:0:0:
20,144,119157,1,0,0:0:0:0:
72,112,119232,1,0,0:0:0:0:
136,104,119307,1,0,0:0:0:0:
272,192,119382,5,8,0:0:0:0:
144,144,119532,1,8,0:0:0:0:
288,128,119682,1,2,0:0:0:0:
168,120,119832,1,8,0:0:0:0:
48,112,119982,2,0,L|224:112,1,176.699992989807,8|0,0:0|0:0,0:0:0:0:
375,64,120282,2,0,L|304:152,1,113.999996520996,2|8,0:0|0:0,0:0:0:0:
364,164,120507,1,0,0:0:0:0:
512,192,120582,5,4,0:0:0:0:
396,188,120732,1,8,0:0:0:0:
288,188,120882,5,2,0:0:0:0:
392,136,121032,1,8,0:0:0:0:
256,136,121182,6,0,B|192:136|192:136|312:92,1,192.375000733852,8|0,0:0|0:0,0:0:0:0:
512,104,121482,2,0,L|360:48,1,161.025000491409,2|0,0:0|0:0,0:0:0:0:
224,48,121782,5,8,0:0:0:0:
296,48,121932,1,8,0:0:0:0:
168,112,122082,1,2,0:0:0:0:
328,136,122232,1,8,0:0:0:0:
112,168,122382,6,0,L|0:192,1,113.999996520996,4|8,0:0|0:0,0:0:0:0:
296,128,122682,5,2,0:0:0:0:
376,152,122757,1,0,0:0:0:0:
428,216,122832,1,0,0:0:0:0:
400,288,122907,1,0,0:0:0:0:
104,136,122982,5,8,0:0:0:0:
48,112,123057,1,0,0:0:0:0:
32,64,123132,1,8,0:0:0:0:
56,16,123207,1,0,0:0:0:0:
111,31,123282,6,0,L|223:47,1,113.999996520996,2|8,0:0|0:0,0:0:0:0:
480,128,123582,1,8,0:0:0:0:
400,160,123732,1,8,0:0:0:0:
2,187,123882,2,0,L|103:136,1,113.999996520996,2|8,0:0|0:0,0:0:0:0:
256,192,124182,6,8,L|176:112,1,113.999996520996
416,80,124482,5,4,0:0:0:0:
480,96,124557,1,0,0:0:0:0:
512,160,124632,1,0,0:0:0:0:
480,224,124707,1,0,0:0:0:0:
324,40,124782,6,0,P|256:24|204:68,1,142.500005435944,8|8,0:0|0:0,0:0:0:0:
512,160,125082,5,2,0:0:0:0:
496,160,125157,1,0,0:0:0:0:
464,160,125232,1,0,0:0:0:0:
408,160,125307,1,0,0:0:0:0:
336,160,125382,1,8,0:0:0:0:
460,216,125532,1,8,0:0:0:0:
320,224,125682,1,2,0:0:0:0:
480,280,125832,1,8,0:0:0:0:
168,160,125982,5,4,0:0:0:0:
104,128,126057,1,0,0:0:0:0:
116,56,126132,1,0,0:0:0:0:
180,32,126207,1,0,0:0:0:0:
432,240,126282,5,2,0:0:0:0:
480,192,126357,1,0,0:0:0:0:
464,128,126432,1,0,0:0:0:0:
400,104,126507,1,0,0:0:0:0:
208,184,126582,5,8,0:0:0:0:
296,184,126732,1,8,0:0:0:0:
152,144,126882,5,2,0:0:0:0:
88,144,126957,1,0,0:0:0:0:
40,144,127032,1,0,0:0:0:0:
16,144,127107,1,0,0:0:0:0:
256,184,127182,5,8,0:0:0:0:
336,184,127257,1,0,0:0:0:0:
384,184,127332,1,8,0:0:0:0:
408,184,127407,1,0,0:0:0:0:
168,128,127482,5,2,0:0:0:0:
104,128,127557,1,0,0:0:0:0:
48,128,127632,1,0,0:0:0:0:
24,128,127707,1,0,0:0:0:0:
256,96,127782,5,4,0:0:0:0:
392,96,127932,1,8,0:0:0:0:
288,144,128082,2,0,B|392:96|392:96|364:48,1,170.999994781494,2|0,0:0|0:0,0:0:0:0:
280,48,128382,1,8,0:0:0:0:
488,96,128532,1,8,0:0:0:0:
280,188,128682,6,0,L|168:168,1,113.999996520996,2|8,0:0|0:0,0:0:0:0:
392,96,128982,6,0,P|392:200|336:232,1,170.999994781494,8|0,0:0|0:0,0:0:0:0:
392,200,129282,1,2,0:0:0:0:
320,192,129432,1,0,0:0:0:0:
392,200,129582,6,0,L|504:216,1,113.999996520996,8|8,0:0|0:0,0:0:0:0:
184,232,129882,2,0,L|56:232,1,113.999996520996,2|8,0:0|0:0,0:0:0:0:
392,144,130182,6,0,L|496:96,1,113.999996520996,8|8,0:0|0:0,0:0:0:0:
184,176,130482,2,0,L|80:128,1,113.999996520996,2|8,0:0|0:0,0:0:0:0:
392,96,130782,6,0,L|480:24,1,113.999996520996,8|8,0:0|0:0,0:0:0:0:
184,128,131082,2,0,L|96:56,1,113.999996520996,2|8,0:0|0:0,0:0:0:0:
392,96,131382,5,8,0:0:0:0:
144,96,131532,1,8,0:0:0:0:
256,80,131682,5,2,0:0:0:0:
368,64,131832,1,8,0:0:0:0:
288,64,131982,1,8,0:0:0:0:
400,64,132132,1,8,0:0:0:0:
192,80,132282,1,10,0:0:0:0:
432,96,132432,1,8,0:0:0:0:
336,96,132582,6,0,B|296:232|296:232|320:216,1,170.999994781494,8|0,0:0|0:0,0:0:0:0:
296,232,132882,2,0,L|240:232,1,56.9999982604981,8|0,0:0|0:0,0:0:0:0:
296,272,133032,2,0,L|328:288,1,35.625001358986,4|0,0:0|0:0,0:0:0:0:
104,272,133182,5,4,0:0:0:0:
32,256,133257,1,0,0:0:0:0:
8,192,133332,1,0,0:0:0:0:
320,112,133482,6,0,L|432:96,1,113.999996520996,4|0,0:0|0:0,0:0:0:0:
208,112,133782,2,0,L|96:96,1,113.999996520996,4|0,0:0|0:0,0:0:0:0:
320,112,134082,5,4,0:0:0:0:
444,80,134232,1,0,0:0:0:0:
168,136,134382,1,4,0:0:0:0:
48,136,134532,1,0,0:0:0:0:
144,112,134682,5,4,0:0:0:0:
224,112,134757,1,0,0:0:0:0:
288,112,134832,1,0,0:0:0:0:
328,72,134907,1,0,0:0:0:0:
144,64,134982,1,4,0:0:0:0:
32,64,135132,1,0,0:0:0:0:
384,160,135282,6,0,L|416:280,1,113.999996520996,4|0,0:0|0:0,0:0:0:0:
320,160,135582,1,4,0:0:0:0:
432,112,135732,1,0,0:0:0:0:
104,88,135882,6,0,L|56:192,1,113.999996520996,4|0,0:0|0:0,0:0:0:0:
152,192,136182,1,4,0:0:0:0:
32,192,136332,1,0,0:0:0:0:
256,192,136482,5,4,0:0:0:0:
328,176,136557,1,0,0:0:0:0:
376,128,136632,1,0,0:0:0:0:
336,72,136707,1,0,0:0:0:0:
56,192,136782,5,4,0:0:0:0:
32,160,136857,1,0,0:0:0:0:
32,112,136932,1,0,0:0:0:0:
104,88,137007,1,0,0:0:0:0:
176,112,137082,6,0,L|290:112,1,113.999996520996,4|0,0:0|0:0,0:0:0:0:
168,280,137382,6,0,L|64:232,1,113.999996520996,4|0,0:0|0:0,0:0:0:0:
224,208,137682,2,0,L|112:192,1,113.999996520996,4|0,0:0|0:0,0:0:0:0:
408,280,137982,6,0,L|512:232,1,113.999996520996,4|0,0:0|0:0,0:0:0:0:
352,208,138282,2,0,L|464:192,1,113.999996520996,4|0,0:0|0:0,0:0:0:0:
144,176,138582,2,0,L|32:160,1,113.999996520996,4|0,0:0|0:0,0:0:0:0:
328,240,138882,5,4,0:0:0:0:
464,191,139032,1,0,0:0:0:0:
256,128,139182,5,4,0:0:0:0:
192,128,139257,1,0,0:0:0:0:
144,176,139332,1,0,0:0:0:0:
160,240,139407,1,0,0:0:0:0:
416,144,139482,5,4,0:0:0:0:
480,168,139557,1,0,0:0:0:0:
512,232,139632,1,0,0:0:0:0:
480,296,139707,1,0,0:0:0:0:
328,240,139782,6,4,L|272:232,1,56.9999982604981,4|0,0:0|0:0,0:0:0:0:
424,200,139932,6,0,L|480:192,1,56.9999982604981,4|0,0:0|0:0,0:0:0:0:
264,192,140082,5,4,0:0:0:0:
224,136,140157,1,0,0:0:0:0:
448,208,140232,5,4,0:0:0:0:
480,296,140307,1,0,0:0:0:0:
192,184,140382,6,0,P|112:240|136:296,1,170.999994781494,4|0,0:0|0:0,0:0:0:0:
328,240,140682,2,0,B|384:240|384:240|392:296|392:296|336:312,1,170.999994781494,4|0,0:0|0:0,0:0:0:0:
168,128,140982,1,4,0:0:0:0:
56,160,141132,6,0,L|72:216,1,56.9999982604981
224,192,141282,2,0,L|384:192,1,142.500005435944,4|0,0:0|0:0,0:0:0:0:
256,256,141582,5,4,0:0:0:0:
176,256,141657,1,0,0:0:0:0:
144,216,141732,1,0,0:0:0:0:
192,96,141882,5,4,0:0:0:0:
256,96,141957,1,0,0:0:0:0:
312,120,142032,1,0,0:0:0:0:
416,176,142182,5,4,0:0:0:0:
280,196,142332,1,0,0:0:0:0:
144,216,142482,1,4,0:0:0:0:
248,160,142632,5,0,0:0:0:0:
96,208,142782,1,4,0:0:0:0:
224,224,142932,1,0,0:0:0:0:
160,288,143082,1,4,0:0:0:0:
384,248,143232,1,0,0:0:0:0:
252,192,143382,1,0,0:0:0:0:
176,176,143532,1,0,0:0:0:0:
296,128,143682,1,0,0:0:0:0:
144,88,143832,1,0,0:0:0:0:
416,248,143982,6,0,B|312:200|312:200|256:200,1,170.999994781494,4|0,0:0|0:0,0:0:0:0:
0,136,144282,6,0,B|104:184|104:184|144:144,1,170.999994781494,4|0,0:0|0:0,0:0:0:0:
312,160,144582,5,4,0:0:0:0:
384,192,144732,1,0,0:0:0:0:
271,208,144882,2,0,L|383:192,1,113.999996520996,4|0,0:0|0:0,0:0:0:0:
168,144,145182,5,4,0:0:0:0:
100,144,145257,1,0,0:0:0:0:
48,208,145332,1,0,0:0:0:0:
344,240,145482,5,4,0:0:0:0:
424,240,145557,1,0,0:0:0:0:
476,184,145632,1,0,0:0:0:0:
256,140,145782,1,4,0:0:0:0:
128,192,145932,1,0,0:0:0:0:
376,267,146082,6,0,P|431:211|384:148,1,170.999994781494,4|0,0:0|0:0,0:0:0:0:
224,184,146382,2,0,P|184:96|232:64,1,170.999994781494,4|0,0:0|0:0,0:0:0:0:
432,192,146682,2,0,P|472:280|416:304,1,170.999994781494,4|0,0:0|0:0,0:0:0:0:
256,264,146982,1,2,0:0:0:0:
344,224,147132,1,2,0:0:0:0:
224,152,147282,1,2,0:0:0:0:
480,192,147432,1,2,0:0:0:0:
200,152,147582,6,0,B|88:128|88:128|96:104|96:104|128:104,1,170.999994781494,4|0,0:0|0:0,0:0:0:0:
352,192,147882,2,0,L|466:192,1,113.999996520996,4|0,0:0|0:0,0:0:0:0:
224,192,148182,1,4,0:0:0:0:
344,224,148332,1,0,0:0:0:0:
224,232,148482,6,0,B|111:232|111:232|127:176,1,170.999994781494,4|0,0:0|0:0,0:0:0:0:
304,216,148782,2,0,B|416:240|416:240|408:160,1,170.999994781494,4|0,0:0|0:0,0:0:0:0:
112,160,149082,2,0,B|96:104|96:104|144:80|144:80|152:140,1,170.999994781494,4|0,0:0|0:0,0:0:0:0:
344,160,149382,5,4,0:0:0:0:
480,160,149532,1,0,0:0:0:0:
216,152,149682,6,0,B|328:176|328:176|288:216,1,170.999994781494,4|0,0:0|0:0,0:0:0:0:
224,224,149982,2,0,L|328:176,1,113.999996520996,4|0,0:0|0:0,0:0:0:0:
256,280,150282,1,4,0:0:0:0:
152,280,150432,1,0,0:0:0:0:
48,280,150582,2,0,L|136:352,1,113.999996520996,4|0,0:0|0:0,0:0:0:0:
480,160,150882,2,0,L|408:248,1,113.999996520996,4|0,0:0|0:0,0:0:0:0:
112,192,151182,1,4,0:0:0:0:
232,192,151332,1,0,0:0:0:0:
352,192,151482,2,0,L|240:168,1,113.999996520996,4|0,0:0|0:0,0:0:0:0:
0,192,151782,2,0,L|112:168,1,113.999996520996,4|0,0:0|0:0,0:0:0:0:
400,192,152082,5,4,0:0:0:0:
144,192,152232,1,0,0:0:0:0:
256,192,152382,6,0,P|184:96|216:40,1,199.499993911743,4|0,0:0|0:0,0:0:0:0:
288,80,152682,6,0,B|248:120|248:120|192:108,1,113.999996520996,4|0,0:0|0:0,0:0:0:0:
288,96,152982,5,4,0:0:0:0:
512,100,153132,1,0,0:0:0:0:
288,112,153282,6,0,B|176:88|176:88|160:64|160:64|176:40,1,170.999994781494,4|0,0:0|0:0,0:0:0:0:
400,80,153582,5,0,0:0:0:0:
448,112,153619,1,0,0:0:0:0:
464,160,153657,1,0,0:0:0:0:
464,208,153694,1,0,0:0:0:0:
464,256,153732,1,0,0:0:0:0:
448,288,153769,1,0,0:0:0:0:
400,320,153807,1,0,0:0:0:0:
224,104,153882,5,0,0:0:0:0:
184,136,153919,1,0,0:0:0:0:
168,184,153957,1,0,0:0:0:0:
168,232,153994,1,0,0:0:0:0:
184,280,154032,1,0,0:0:0:0:
216,312,154069,1,0,0:0:0:0:
256,288,154107,1,0,0:0:0:0:
400,80,154182,5,0,0:0:0:0:
440,112,154219,1,0,0:0:0:0:
456,160,154257,1,0,0:0:0:0:
456,208,154294,1,0,0:0:0:0:
440,256,154332,1,0,0:0:0:0:
408,288,154369,1,0,0:0:0:0:
368,264,154407,1,0,0:0:0:0:
224,72,154482,5,0,0:0:0:0:
176,104,154519,1,0,0:0:0:0:
160,152,154557,1,0,0:0:0:0:
160,200,154594,1,0,0:0:0:0:
160,248,154632,1,0,0:0:0:0:
176,280,154669,1,0,0:0:0:0:
224,312,154707,1,0,0:0:0:0:
400,80,154782,1,4,0:0:0:0:
256,192,164382,5,8,0:0:0:0:
440,192,164682,1,2,0:0:0:0:
288,192,164982,1,8,0:0:0:0:
408,192,165282,1,2,0:0:0:0:
320,192,165432,1,0,0:0:0:0:
256,192,165582,6,0,L|144:160,1,113.999996520996,8|0,0:0|0:0,0:0:0:0:
288,104,165882,1,2,0:0:0:0:
208,112,166032,1,0,0:0:0:0:
146,160,166182,2,0,L|256:192,1,113.999996520996,8|0,0:0|0:0,0:0:0:0:
288,280,166482,1,2,0:0:0:0:
200,272,166632,1,0,0:0:0:0:
112,264,166782,2,0,L|222:233,1,113.999996520996,8|0,0:0|0:0,0:0:0:0:
344,192,167082,1,2,0:0:0:0:
424,200,167232,1,0,0:0:0:0:
486,249,167382,2,0,L|376:280,1,113.999996520996,8|0,0:0|0:0,0:0:0:0:
256,192,167682,1,2,0:0:0:0:
256,192,167982,5,8,0:0:0:0:
168,192,168132,1,0,0:0:0:0:
80,192,168282,2,0,L|200:192,1,113.999996520996,2|0,0:0|0:0,0:0:0:0:
288,192,168582,2,0,L|168:192,1,113.999996520996,8|0,0:0|0:0,0:0:0:0:
256,192,168882,5,2,0:0:0:0:
200,256,169032,1,0,0:0:0:0:
312,192,169182,6,0,P|384:120|304:48,1,227.999993041992,2|0,0:0|0:0,0:0:0:0:
168,192,169632,6,0,P|96:264|176:336,1,227.999993041992,2|0,0:0|0:0,0:0:0:0:
312,192,170082,6,0,P|240:264|168:184,1,227.999993041992,2|0,0:0|0:0,0:0:0:0:
312,192,170532,6,0,P|384:120|304:48,1,227.999993041992,2|0,0:0|0:0,0:0:0:0:
168,192,170982,6,2,P|96:120|176:48,1,227.999993041992
312,48,171432,6,0,P|240:-24|168:56,1,227.999993041992,2|8,0:0|0:0,0:0:0:0:
312,48,171882,6,0,L|336:160,1,113.999996520996,2|0,0:0|0:0,0:0:0:0:
168,192,172182,6,0,L|192:304,1,113.999996520996,2|0,0:0|0:0,0:0:0:0:
324,160,172482,2,0,L|348:272,1,113.999996520996,2|0,0:0|0:0,0:0:0:0:
180,192,172782,2,0,L|204:304,1,113.999996520996,8|0,0:0|0:0,0:0:0:0:
344,188,173082,2,0,L|368:300,1,113.999996520996,2|0,0:0|0:0,0:0:0:0:
200,192,173382,2,0,L|224:304,1,113.999996520996,2|0,0:0|0:0,0:0:0:0:
364,212,173682,2,0,L|388:324,1,113.999996520996,2|0,0:0|0:0,0:0:0:0:
136,192,173982,5,2,0:0:0:0:
88,176,174132,1,0,0:0:0:0:
64,120,174282,1,0,0:0:0:0:
88,64,174432,1,0,0:0:0:0:
224,96,174582,5,0,0:0:0:0:
136,192,174732,1,0,0:0:0:0:
248,192,174882,1,2,0:0:0:0:
136,192,175032,1,0,0:0:0:0:
88,208,175182,1,2,0:0:0:0:
112,264,175332,1,0,0:0:0:0:
184,264,175482,1,0,0:0:0:0:
256,264,175632,1,0,0:0:0:0:
136,192,175782,6,0,L|216:112,1,113.999996520996,2|0,0:0|0:0,0:0:0:0:
320,159,176082,2,0,L|216:111,1,113.999996520996,2|0,0:0|0:0,0:0:0:0:
352,112,176382,5,2,0:0:0:0:
400,160,176532,1,0,0:0:0:0:
352,224,176682,1,0,0:0:0:0:
256,192,176832,5,2,0:0:0:0:
184,248,176982,1,0,0:0:0:0:
232,304,177132,1,0,0:0:0:0:
352,144,177282,1,2,0:0:0:0:
256,144,177432,1,2,0:0:0:0:
160,144,177582,6,0,P|128:96|160:48,1,113.999996520996,2|0,0:0|0:0,0:0:0:0:
320,272,177882,2,0,P|352:224|320:176,1,113.999996520996,2|0,0:0|0:0,0:0:0:0:
160,224,178182,5,8,0:0:0:0:
384,272,178482,1,8,0:0:0:0:
144,224,178782,1,4,0:0:0:0:
256,200,179982,1,4,0:0:0:0:
352,224,181182,1,8,0:0:0:0:
160,224,181482,1,8,0:0:0:0:
384,192,181782,2,0,L|420:84,1,113.999996520996
128,192,182082,2,0,L|92:84,1,113.999996520996
320,256,182382,5,8,0:0:0:0:
192,256,182532,1,8,0:0:0:0:
336,192,182682,5,8,0:0:0:0:
224,192,182832,1,8,0:0:0:0:
448,192,182982,1,2,0:0:0:0:
352,232,183132,1,2,0:0:0:0:
256,256,183282,1,2,0:0:0:0:
368,320,183432,1,8,0:0:0:0:
304,320,183507,1,0,0:0:0:0:
113,192,183582,6,0,B|160:136|160:136|216:176,1,142.500005435944,4|0,0:0|0:0,0:0:0:0:
148,140,183882,1,2,0:0:0:0:
360,168,184032,1,0,0:0:0:0:
113,192,184182,6,0,L|232:112,1,142.500005435944,8|0,0:0|0:0,0:0:0:0:
149,140,184482,1,2,0:0:0:0:
360,168,184632,1,0,0:0:0:0:
152,232,184782,2,0,L|288:188,2,142.500005435944,8|0|2,0:0|0:0|0:0,0:0:0:0:
440,112,185232,6,0,L|480:248,1,142.500005435944,0|8,0:0|0:0,0:0:0:0:
232,192,185532,2,0,L|112:272,2,142.500005435944,0|2|0,0:0|0:0|0:0,0:0:0:0:
510,191,185982,1,8,0:0:0:0:
400,192,186132,1,0,0:0:0:0:
288,192,186282,1,2,0:0:0:0:
512,120,186432,1,0,0:0:0:0:
360,120,186582,1,8,0:0:0:0:
512,64,186732,1,0,0:0:0:0:
256,56,186882,1,2,0:0:0:0:
384,64,187032,1,0,0:0:0:0:
72,256,187182,5,8,0:0:0:0:
320,168,187332,1,0,0:0:0:0:
96,208,187482,1,2,0:0:0:0:
336,224,187632,1,0,0:0:0:0:
120,160,187782,1,8,0:0:0:0:
352,280,187932,1,2,0:0:0:0:
224,192,188082,5,8,0:0:0:0:
368,336,188232,1,8,0:0:0:0:
96,288,188382,6,0,L|8:176,1,142.500005435944,4|0,0:0|0:0,0:0:0:0:
120,144,188682,1,2,0:0:0:0:
376,184,188832,1,0,0:0:0:0:
480,184,188982,6,0,L|376:88,1,142.500005435944,8|0,0:0|0:0,0:0:0:0:
360,152,189282,1,2,0:0:0:0:
448,232,189432,1,0,0:0:0:0:
312,232,189582,2,0,L|448:160,1,142.500005435944,8|0,0:0|0:0,0:0:0:0:
144,224,189882,1,2,0:0:0:0:
232,192,190032,5,4,0:0:0:0:
312,152,190182,1,8,0:0:0:0:
192,152,190332,1,4,0:0:0:0:
72,152,190482,1,2,0:0:0:0:
192,192,190632,1,0,0:0:0:0:
120,224,190782,6,0,L|256:264,1,142.500005435944,8|0,0:0|0:0,0:0:0:0:
512,64,191082,2,0,L|380:116,1,142.500005435944,2|0,0:0|0:0,0:0:0:0:
312,152,191382,6,0,L|448:112,1,142.500005435944,4|0,0:0|0:0,0:0:0:0:
336,112,191682,1,2,0:0:0:0:
224,112,191832,1,0,0:0:0:0:
464,144,191982,1,8,0:0:0:0:
368,144,192132,1,0,0:0:0:0:
144,96,192282,5,2,0:0:0:0:
96,112,192357,1,2,0:0:0:0:
80,160,192432,1,2,0:0:0:0:
96,208,192507,1,2,0:0:0:0:
256,256,192582,5,12,0:0:0:0:
168,212,192732,1,8,0:0:0:0:
292,200,192882,1,8,0:0:0:0:
80,160,193032,1,8,0:0:0:0:
321,144,193182,6,0,L|465:144,1,142.500005435944,4|0,0:0|0:0,0:0:0:0:
360,168,193482,1,2,0:0:0:0:
256,192,193632,1,0,0:0:0:0:
384,224,193782,2,0,L|224:224,1,142.500005435944,8|0,0:0|0:0,0:0:0:0:
360,208,194082,1,2,0:0:0:0:
480,192,194232,1,0,0:0:0:0:
112,224,194382,2,0,L|272:224,1,142.500005435944,8|0,0:0|0:0,0:0:0:0:
160,208,194682,1,8,0:0:0:0:
56,192,194832,6,0,B|24:128|24:128|160:88,1,213.750008153916,4|0,0:0|0:0,0:0:0:0:
512,104,195132,6,0,L|336:104,1,176.699992989807,4|0,0:0|0:0,0:0:0:0:
168,192,195432,1,4,0:0:0:0:
32,192,195582,1,8,0:0:0:0:
280,192,195732,5,0,0:0:0:0:
400,192,195882,1,2,0:0:0:0:
168,192,196032,1,0,0:0:0:0:
416,144,196182,6,0,L|312:48,2,142.500005435944,8|0|2,0:0|0:0|0:0,0:0:0:0:
200,192,196632,1,0,0:0:0:0:
432,96,196782,5,4,0:0:0:0:
288,104,196932,1,0,0:0:0:0:
152,112,197082,1,2,0:0:0:0:
432,96,197232,6,0,L|472:232,1,142.500005435944,0|8,0:0|0:0,0:0:0:0:
320,112,197532,6,0,L|280:248,1,142.500005435944,0|2,0:0|0:0,0:0:0:0:
408,256,197832,1,0,0:0:0:0:
264,64,197982,5,8,0:0:0:0:
192,96,198057,1,0,0:0:0:0:
144,152,198132,1,0,0:0:0:0:
136,216,198207,1,0,0:0:0:0:
160,256,198282,1,2,0:0:0:0:
288,288,198432,1,8,0:0:0:0:
288,192,198582,1,0,0:0:0:0:
136,200,198732,1,8,0:0:0:0:
400,112,198882,5,2,0:0:0:0:
464,128,198957,1,0,0:0:0:0:
496,192,199032,1,0,0:0:0:0:
464,256,199107,1,0,0:0:0:0:
288,112,199182,6,0,L|144:112,1,142.500005435944,4|0,0:0|0:0,0:0:0:0:
368,160,199482,1,2,0:0:0:0:
256,192,199632,6,0,L|432:192,1,142.500005435944,8|0,0:0|0:0,0:0:0:0:
256,232,199932,1,8,0:0:0:0:
336,272,200082,6,0,L|192:272,1,142.500005435944,2|0,0:0|0:0,0:0:0:0:
448,200,200382,1,4,0:0:0:0:
340,196,200532,1,0,0:0:0:0:
232,196,200682,1,2,0:0:0:0:
480,160,200832,1,8,0:0:0:0:
348,160,200982,1,0,0:0:0:0:
216,160,201132,1,8,0:0:0:0:
512,120,201282,6,0,B|480:56|480:56|408:56,1,142.500005435944,4|0,0:0|0:0,0:0:0:0:
128,104,201582,5,8,0:0:0:0:
224,104,201732,1,8,0:0:0:0:
104,160,201882,1,4,0:0:0:0:
192,160,202032,1,8,0:0:0:0:
80,216,202182,5,8,0:0:0:0:
288,112,202332,1,8,0:0:0:0:
160,112,202482,1,4,0:0:0:0:
32,112,202632,1,8,0:0:0:0:
288,192,202782,1,4,0:0:0:0:
