osu file format v14

[General]
AudioFilename: Helblinde - Life starts -Grief & Malice.mp3
AudioLeadIn: 0
PreviewTime: 111440
Countdown: 0
SampleSet: Soft
StackLeniency: 0.7
Mode: 2
LetterboxInBreaks: 1
WidescreenStoryboard: 0

[Editor]
Bookmarks: 40940,107765,154790,164390
DistanceSpacing: 0.8
BeatDivisor: 8
GridSize: 8
TimelineZoom: 3.099998

[Metadata]
Title:Grief & Malice
TitleUnicode:Grief & Malice
Artist:Helblinde
ArtistUnicode:Helblinde
Creator:Black Sheep
Version:Deluge
Source:鬯イ逍イ�ウ蜍滂スー螟ァ�・�ウ邵コ�セ邵コ�ゥ邵コ驫€�ス郢晄ァュ縺千ケァ�ォ
Tags:Kyuare bpm200 madoka magica
BeatmapID:636667
BeatmapSetID:273405

[Difficulty]
HPDrainRate:6
CircleSize:4
OverallDifficulty:9.3
ApproachRate:9.3
SliderMultiplier:1.9
SliderTickRate:1

[Events]
//Background and Video events
0,0,"BG.jpg",0,0
//Break Periods
2,154990,163836
//Storyboard Layer 0 (Background)
//Storyboard Layer 1 (Fail)
//Storyboard Layer 2 (Pass)
//Storyboard Layer 3 (Foreground)
//Storyboard Sound Samples

[TimingPoints]
-10,300,4,2,1,65,1,0
7040,-100,4,2,1,5,0,0
7190,-100,4,3,1,60,0,0
9290,-100,4,2,0,80,0,0
9440,-100,4,3,1,60,0,0
9740,-100,4,2,0,80,0,0
9777,-100,4,3,1,60,0,0
10490,-100,4,2,0,80,0,0
10527,-100,4,3,1,60,0,0
11990,-100,4,2,0,80,0,0
13790,-100,4,3,1,60,0,0
14540,-100,4,2,0,80,0,0
14577,-100,4,3,1,60,0,0
15440,-100,4,2,0,80,0,0
15477,-100,4,3,1,60,0,0
15740,-100,4,2,0,80,0,0
16790,-71.4285714285714,4,2,1,80,0,0
16940,-83.3333333333333,4,2,2,65,0,0
17390,-83.3333333333333,4,2,2,60,0,0
17540,-83.3333333333333,4,2,2,65,0,0
17990,-83.3333333333333,4,2,2,60,0,0
18140,-83.3333333333333,4,2,2,65,0,0
18590,-83.3333333333333,4,2,2,60,0,0
18740,-83.3333333333333,4,2,2,65,0,0
19190,-83.3333333333333,4,2,2,60,0,0
19340,-83.3333333333333,4,2,2,65,0,0
19790,-83.3333333333333,4,2,2,60,0,0
19940,-83.3333333333333,4,2,2,65,0,0
20390,-83.3333333333333,4,2,2,60,0,0
20540,-83.3333333333333,4,2,2,65,0,0
20990,-83.3333333333333,4,2,2,60,0,0
21140,-83.3333333333333,4,2,2,65,0,0
21590,-83.3333333333333,4,2,2,65,0,0
22190,-83.3333333333333,4,2,2,65,0,0
22940,-83.3333333333333,4,2,2,65,0,0
23390,-83.3333333333333,4,2,2,60,0,0
23690,-83.3333333333333,4,2,1,65,0,0
23990,-85.4700854700855,4,2,2,65,0,0
24140,-85.4700854700855,4,2,2,70,0,0
24290,-85.4700854700855,4,2,2,80,0,0
25190,-83.3333333333333,4,2,2,65,0,0
26090,-83.3333333333333,4,2,2,65,0,0
26165,-83.3333333333333,4,3,1,65,0,0
26390,-133.333333333333,4,2,1,65,0,0
26990,-133.333333333333,4,3,1,65,0,0
27290,-100,4,3,1,65,0,0
27590,-69.9300699300699,4,3,1,65,0,0
28190,-133.333333333333,4,3,1,65,0,0
29090,-133.333333333333,4,3,0,65,0,0
29390,-133.333333333333,4,3,1,65,0,0
29690,-117.647058823529,4,2,3,65,0,0
29915,-117.647058823529,4,3,1,65,0,0
30290,-95.2380952380952,4,2,3,65,0,0
30890,-133.333333333333,4,3,1,65,0,0
30965,-133.333333333333,4,2,1,65,0,0
31115,-133.333333333333,4,2,1,65,0,0
31790,-133.333333333333,4,3,1,65,0,0
32090,-100,4,3,1,65,0,0
33590,-133.333333333333,4,2,1,65,0,0
33890,-100,4,2,1,65,0,0
35990,-100,4,2,1,50,0,0
36140,-100,4,2,1,60,0,0
40790,-100,4,2,1,65,0,0
45290,-100,4,2,2,65,0,0
45590,-83.3333333333333,4,2,3,65,0,1
47240,-83.3333333333333,4,2,3,65,0,1
50990,-83.3333333333333,4,3,1,65,0,1
51141,-83.3333333333333,4,2,3,65,0,1
51890,-83.3333333333333,4,2,1,65,0,1
52190,-83.3333333333333,4,2,3,65,0,1
56390,-83.3333333333333,4,2,1,65,0,1
56690,-83.3333333333333,4,2,3,65,0,1
57890,-84.7457627118644,4,2,3,65,0,1
58190,-83.3333333333333,4,2,3,65,0,1
59390,-83.3333333333333,4,2,3,75,0,1
59990,-83.3333333333333,4,2,3,65,0,1
61490,-84.0336134453781,4,2,3,65,0,1
61640,-83.3333333333333,4,2,3,65,0,1
62240,-83.3333333333333,4,2,3,75,0,1
62540,-83.3333333333333,4,2,3,65,0,1
63590,-95.2380952380952,4,2,3,65,0,1
63890,-83.3333333333333,4,2,3,65,0,1
65990,-83.3333333333333,4,2,3,75,0,1
66290,-83.3333333333333,4,2,3,65,0,1
66590,-83.3333333333333,4,2,3,80,0,1
67040,-80,4,2,3,65,0,1
67415,-83.3333333333333,4,2,3,70,0,1
68390,-58.8235294117647,4,2,3,80,0,1
68540,-83.3333333333333,4,2,3,80,0,1
68990,-83.3333333333333,4,2,1,65,0,1
69140,-83.3333333333333,4,2,3,65,0,1
70790,-83.3333333333333,4,2,1,65,0,1
70940,-83.3333333333333,4,2,3,65,0,1
71690,-83.3333333333333,4,2,3,60,0,1
72590,-83.3333333333333,4,2,1,80,0,0
74690,-83.3333333333333,4,2,3,80,0,0
77990,-133.333333333333,4,2,1,60,0,0
81590,-133.333333333333,4,2,1,65,0,0
84590,-100,4,2,1,65,0,0
85190,-133.333333333333,4,1,1,65,0,0
88190,-100,4,1,1,65,0,0
89390,-83.3333333333333,4,1,1,65,0,0
90065,-83.3333333333333,4,2,1,65,0,0
90290,-83.3333333333333,4,1,1,65,0,0
90365,-83.3333333333333,4,2,1,65,0,0
90590,-83.3333333333333,4,1,1,65,0,0
90665,-83.3333333333333,4,2,1,65,0,0
90890,-83.3333333333333,4,1,1,65,0,0
90965,-83.3333333333333,4,2,1,65,0,0
91190,-80,4,1,1,65,0,0
91790,-83.3333333333333,4,2,2,65,0,0
92390,-83.3333333333333,4,2,3,65,0,0
92390,-83.3333333333333,4,2,2,65,0,0
105590,-83.3333333333333,4,2,3,60,0,0
106790,-83.3333333333333,4,2,3,75,0,0
111290,-133.333333333333,4,2,1,65,0,0
111590,-83.3333333333333,4,2,3,65,0,1
118190,-83.3333333333333,4,2,3,75,0,1
118940,-83.3333333333333,4,2,3,65,0,1
121190,-88.4955752212389,4,2,3,65,0,1
121790,-83.3333333333333,4,2,3,75,0,1
122540,-83.3333333333333,4,2,3,65,0,1
124790,-66.6666666666667,4,2,3,65,0,1
124940,-83.3333333333333,4,2,3,65,0,1
125990,-83.3333333333333,4,2,3,75,0,1
126440,-83.3333333333333,4,2,3,65,0,1
132590,-83.3333333333333,4,2,3,80,0,0
133040,-133.333333333333,4,2,1,65,0,0
133190,-83.3333333333333,4,2,3,65,0,1
141290,-66.6666666666667,4,2,3,65,0,1
141440,-83.3333333333333,4,2,3,65,0,1
146990,-66.6666666666667,4,2,3,65,0,1
147140,-83.3333333333333,4,2,3,65,0,1
152390,-71.4285714285714,4,2,3,65,0,1
152615,-83.3333333333333,4,2,3,65,0,1
154790,-83.3333333333333,4,2,1,60,0,0
155090,-83.3333333333333,4,2,3,60,0,0
156290,-83.3333333333333,4,2,3,60,0,0
156890,-83.3333333333333,4,2,3,60,0,0
158390,-133.333333333333,4,2,3,60,0,0
158690,-83.3333333333333,4,2,3,60,0,0
163190,-133.333333333333,4,2,3,60,0,0
163490,-83.3333333333333,4,2,3,60,0,0
178790,-83.3333333333333,4,2,3,65,0,0
183140,-83.3333333333333,4,3,1,65,0,0
183440,-133.333333333333,4,2,3,65,0,0
183590,-66.6666666666667,4,2,3,70,0,1
192590,-66.6666666666667,4,2,3,75,0,1
193190,-66.6666666666667,4,2,3,70,0,1
195140,-100,4,2,1,75,0,1
195440,-66.6666666666667,4,2,3,70,0,1
202190,-66.6666666666667,4,2,3,75,0,1
202790,-83.3333333333333,4,2,3,65,0,0
203090,-83.3333333333333,4,2,3,60,0,0
208190,-133.333333333333,4,2,3,60,0,0
208190,-133.333333333333,4,2,3,60,0,0
208640,-83.3333333333333,4,2,3,60,0,0
210590,-133.333333333333,4,2,3,60,0,0
211040,-83.3333333333333,4,2,3,60,0,0
212990,-133.333333333333,4,2,3,60,0,0
213440,-83.3333333333333,4,2,3,60,0,0
220190,-83.3333333333333,4,2,3,65,0,0
220340,-83.3333333333333,4,2,3,60,0,0

[Colours]
Combo1 : 155,2,6
Combo2 : 255,149,202
Combo3 : 55,23,29
Combo4 : 255,255,128
Combo5 : 0,0,62

[HitObjects]
256,192,4790,12,0,7040,0:0:0:0:
256,200,7190,5,0,0:0:0:0:
184,200,7490,1,0,0:0:0:0:
112,200,7790,1,0,0:0:0:0:
328,200,8090,1,0,0:0:0:0:
400,200,8390,1,0,0:0:0:0:
328,136,8540,5,0,0:0:0:0:
472,136,8690,1,0,0:0:0:0:
328,200,8840,1,0,0:0:0:0:
400,136,8990,1,0,0:0:0:0:
472,80,9140,6,0,L|377:80,1,95,0|2,0:0|2:2,0:0:0:0:
400,200,9440,1,0,0:0:0:0:
312,296,9590,1,0,0:0:0:0:
232,296,9740,1,2,0:0:0:0:
152,296,9890,1,0,0:0:0:0:
296,296,10040,6,0,P|344:296|400:272,1,95
296,224,10340,6,0,P|248:224|192:248,1,95,0|2,0:0|0:0,0:0:0:0:
184,296,10640,1,0,0:0:0:0:
400,296,10790,1,0,0:0:0:0:
368,296,11090,6,0,L|240:296,1,95
344,296,11390,1,0,0:0:0:0:
432,296,11540,1,0,0:0:0:0:
296,224,11690,1,0,0:0:0:0:
432,296,11840,1,0,0:0:0:0:
376,232,11990,6,0,P|400:192|472:192,1,95,2|0,0:0|0:0,0:0:0:0:
512,128,12290,6,0,P|488:168|416:168,1,95,2|0,0:0|0:0,0:0:0:0:
336,192,12590,1,2,0:0:0:0:
224,208,12740,6,0,L|184:296,1,95
176,72,13040,6,0,L|136:160,1,95
320,192,13340,6,0,L|280:280,1,95
200,40,13640,6,0,L|160:128,1,95
312,40,13940,6,0,L|352:128,1,95
320,192,14165,5,0,0:0:0:0:
256,232,14240,1,0,0:0:0:0:
176,232,14315,1,0,0:0:0:0:
120,176,14390,6,0,L|210:203,1,95,0|2,0:0|0:0,0:0:0:0:
320,192,14690,1,0,0:0:0:0:
424,224,14840,5,0,0:0:0:0:
320,256,14990,1,0,0:0:0:0:
288,256,15140,1,0,0:0:0:0:
408,224,15290,1,0,0:0:0:0:
288,256,15440,1,2,0:0:0:0:
216,256,15590,1,0,0:0:0:0:
144,256,15740,6,0,L|72:192,1,95,2|0,0:0|0:0,0:0:0:0:
256,192,16040,6,0,L|328:128,1,95
224,104,16340,6,0,L|216:152,1,47.5
288,192,16490,6,0,L|336:240,1,47.5
184,232,16640,6,0,L|136:272,1,47.5
320,224,16790,2,0,L|472:224,1,132.999995941162
480,224,17015,1,0,0:0:0:0:
392,224,17090,2,0,L|264:224,1,113.999996520996,8|0,0:0|0:0,0:0:0:0:
192,192,17390,6,0,B|136:192|136:192|88:160,1,113.999996520996,2|0,0:0|0:0,0:0:0:0:
160,144,17615,1,0,0:0:0:0:
232,128,17690,6,0,B|288:128|288:128|320:176,1,113.999996520996,8|0,0:0|0:0,0:0:0:0:
192,192,17990,6,0,B|136:192|136:192|112:248,1,113.999996520996,2|0,0:0|0:0,0:0:0:0:
184,248,18215,1,0,0:0:0:0:
256,248,18290,6,0,B|240:304|240:304|192:336,1,113.999996520996,8|0,0:0|0:0,0:0:0:0:
408,176,18590,6,0,B|464:176|464:176|496:232,1,113.999996520996,2|0,0:0|0:0,0:0:0:0:
424,232,18815,1,0,0:0:0:0:
352,240,18890,6,0,B|384:288|384:288|384:352,1,113.999996520996,8|0,0:0|0:0,0:0:0:0:
144,336,19190,6,0,B|100:298|100:298|100:242,1,113.999996520996,2|0,0:0|0:0,0:0:0:0:
144,240,19415,1,0,0:0:0:0:
288,352,19490,6,0,B|333:314|333:314|333:258,1,113.999996520996,8|0,0:0|0:0,0:0:0:0:
296,248,19715,1,0,0:0:0:0:
32,208,19790,6,0,B|72:168|72:168|136:168,1,113.999996520996,2|0,0:0|0:0,0:0:0:0:
192,208,20015,1,0,0:0:0:0:
264,248,20090,6,0,B|224:288|224:288|160:288,1,113.999996520996,8|0,0:0|0:0,0:0:0:0:
144,288,20315,1,0,0:0:0:0:
360,184,20390,2,0,L|472:160,1,113.999996520996,2|0,0:0|0:0,0:0:0:0:
456,136,20615,1,0,0:0:0:0:
312,168,20690,2,0,L|192:136,1,113.999996520996,8|0,0:0|0:0,0:0:0:0:
224,120,20915,1,0,0:0:0:0:
392,192,20990,2,0,L|496:112,1,113.999996520996,2|0,0:0|0:0,0:0:0:0:
456,136,21215,1,0,0:0:0:0:
264,160,21290,2,0,L|160:104,1,113.999996520996,8|0,0:0|0:0,0:0:0:0:
224,120,21515,1,0,0:0:0:0:
424,200,21590,6,0,L|512:272,1,113.999996520996,2|0,0:0|0:0,0:0:0:0:
248,136,21890,6,0,L|184:248,1,113.999996520996,8|0,0:0|0:0,0:0:0:0:
328,176,22190,6,0,L|440:232,1,113.999996520996,2|0,0:0|0:0,0:0:0:0:
144,104,22490,6,0,L|120:224,1,113.999996520996,8|0,0:0|0:0,0:0:0:0:
200,96,22790,5,0,0:0:0:0:
104,144,22940,1,2,0:0:0:0:
240,136,23090,1,8,0:0:0:0:
296,168,23240,1,0,0:0:0:0:
160,120,23390,5,2,0:0:0:0:
112,160,23465,1,0,0:0:0:0:
144,192,23540,1,0,0:0:0:0:
200,208,23615,1,0,0:0:0:0:
352,200,23690,1,8,0:0:0:0:
424,200,23840,1,0,0:0:0:0:
272,200,23990,1,2,0:0:0:0:
384,152,24140,5,2,0:0:0:0:
272,200,24290,5,8,0:0:0:0:
240,136,24440,1,0,0:0:0:0:
376,152,24590,6,0,B|376:96|376:96|200:144,1,222.300000848007
464,64,25190,5,2,0:0:0:0:
408,200,25340,5,0,0:0:0:0:
288,144,25490,1,8,0:0:0:0:
176,144,25640,1,2,0:0:0:0:
352,152,25790,1,2,0:0:0:0:
224,144,25940,1,0,0:0:0:0:
352,152,26090,6,0,B|384:104|384:104|384:48,1,113.999996520996,8|0,0:0|0:0,0:0:0:0:
352,24,26315,1,0,0:0:0:0:
128,144,26390,1,0,0:0:0:0:
96,176,26465,1,0,0:0:0:0:
112,208,26540,1,0,0:0:0:0:
144,216,26615,1,0,0:0:0:0:
184,200,26690,6,0,L|264:200,1,71.2500027179719,8|0,0:0|0:0,0:0:0:0:
320,144,26915,1,0,0:0:0:0:
176,144,26990,5,2,0:0:0:0:
248,144,27140,1,2,0:0:0:0:
128,144,27290,6,0,L|40:192,1,95
184,200,27590,6,0,L|320:200,1,135.850001865616,2|0,0:0|0:0,0:0:0:0:
80,232,27890,1,0,0:0:0:0:
176,144,28040,1,0,0:0:0:0:
128,200,28190,5,2,0:0:0:0:
248,144,28340,1,0,0:0:0:0:
128,200,28490,1,2,0:0:0:0:
256,200,28640,1,0,0:0:0:0:
168,264,28790,1,0,0:0:0:0:
120,224,28865,1,0,0:0:0:0:
128,200,28940,1,0,0:0:0:0:
176,144,29015,1,0,0:0:0:0:
416,24,29090,1,8,0:0:0:0:
480,64,29240,5,0,0:0:0:0:
328,64,29390,5,0,0:0:0:0:
464,144,29540,1,2,0:0:0:0:
360,144,29690,6,0,L|216:144,1,121.125002310276,8|2,0:0|0:0,0:0:0:0:
56,144,29990,6,0,L|184:144,1,121.125002310276,8|2,0:0|0:0,0:0:0:0:
328,64,30290,6,0,L|160:64,1,149.624995433808,8|0,0:0|0:0,0:0:0:0:
32,144,30590,5,4,0:0:0:0:
128,144,30740,1,0,0:0:0:0:
168,144,30890,6,0,L|168:208,1,35.625001358986,8|0,0:0|0:0,0:0:0:0:
128,144,31040,2,0,L|88:168,1,35.625001358986,2|0,0:0|0:0,0:0:0:0:
320,192,31190,5,4,0:0:0:0:
376,160,31265,1,0,0:0:0:0:
400,104,31340,1,0,0:0:0:0:
368,72,31415,1,0,0:0:0:0:
144,144,31490,5,8,0:0:0:0:
120,200,31565,1,0,0:0:0:0:
144,256,31640,1,0,0:0:0:0:
200,280,31715,1,0,0:0:0:0:
256,192,31790,5,8,0:0:0:0:
144,144,31940,1,2,0:0:0:0:
256,192,32090,1,2,0:0:0:0:
144,256,32240,1,0,0:0:0:0:
184,304,32390,6,0,B|224:216|224:216|320:216,1,190,2|0,0:0|0:0,0:0:0:0:
200,224,32840,1,0,0:0:0:0:
304,200,32990,6,0,B|256:120|256:120|144:120,1,190,2|0,0:0|0:0,0:0:0:0:
366,115,33590,6,0,L|438:115|398:115,1,106.875004076958,2|0,0:0|0:0,0:0:0:0:
256,192,33890,5,8,0:0:0:0:
216,160,33965,1,0,0:0:0:0:
200,112,34040,1,0,0:0:0:0:
216,64,34115,1,0,0:0:0:0:
256,48,34190,5,0,0:0:0:0:
144,88,34340,1,2,0:0:0:0:
280,168,34490,1,8,0:0:0:0:
168,192,34790,6,0,B|184:288|184:288|240:312,1,142.5,2|0,0:0|0:0,0:0:0:0:
280,168,35090,1,8,0:0:0:0:
320,128,35165,1,0,0:0:0:0:
312,80,35240,1,0,0:0:0:0:
256,48,35315,1,0,0:0:0:0:
192,72,35390,5,2,0:0:0:0:
320,128,35540,1,2,0:0:0:0:
192,72,35690,1,0,0:0:0:0:
160,112,35765,1,0,0:0:0:0:
168,160,35840,1,0,0:0:0:0:
224,192,35915,1,0,0:0:0:0:
280,168,35990,6,0,L|344:168,1,47.5,4|0,0:0|0:0,0:0:0:0:
264,208,36140,2,0,L|200:208,1,47.5
288,128,36290,5,8,0:0:0:0:
344,128,36365,1,0,0:0:0:0:
408,128,36440,1,0,0:0:0:0:
480,128,36515,2,0,L|512:176,1,47.5
432,176,36665,2,0,L|400:224,1,47.5
336,192,36815,1,0,0:0:0:0:
288,168,36890,5,8,0:0:0:0:
248,168,36965,1,0,0:0:0:0:
184,168,37040,1,0,0:0:0:0:
96,168,37115,1,0,0:0:0:0:
16,168,37190,6,0,L|80:168,1,47.5,8|0,0:0|0:0,0:0:0:0:
96,224,37340,2,0,L|24:224,1,47.5
112,280,37490,5,8,0:0:0:0:
144,280,37565,1,0,0:0:0:0:
192,280,37640,1,0,0:0:0:0:
256,280,37715,1,0,0:0:0:0:
296,232,37790,6,0,L|280:176,1,47.5,2|0,0:0|0:0,0:0:0:0:
336,192,37940,1,0,0:0:0:0:
384,176,38015,2,0,L|344:128,1,47.5,2|0,0:0|0:0,0:0:0:0:
312,64,38165,1,0,0:0:0:0:
232,64,38240,1,0,0:0:0:0:
160,96,38315,1,0,0:0:0:0:
192,168,38390,6,0,L|264:168,1,47.5,2|0,0:0|0:0,0:0:0:0:
272,136,38540,2,0,L|208:136,1,47.5
160,120,38690,1,8,0:0:0:0:
192,168,38765,1,0,0:0:0:0:
224,208,38840,1,0,0:0:0:0:
264,232,38915,1,0,0:0:0:0:
304,232,38990,6,0,L|376:232,1,47.5
400,184,39140,2,0,L|336:184,1,47.5
312,144,39290,1,8,0:0:0:0:
272,184,39365,1,0,0:0:0:0:
296,232,39440,1,0,0:0:0:0:
336,264,39515,1,0,0:0:0:0:
184,168,39590,6,0,L|136:168,1,47.5
112,96,39740,2,0,L|160:144,1,47.5
208,208,39890,1,8,0:0:0:0:
192,256,39965,1,0,0:0:0:0:
168,296,40040,1,0,0:0:0:0:
144,328,40115,1,0,0:0:0:0:
224,256,40190,6,0,L|280:256,1,47.5
312,304,40340,2,0,L|256:304,1,47.5
216,304,40490,6,0,L|320:304,1,95
312,264,40790,5,0,0:0:0:0:
336,264,40865,1,0,0:0:0:0:
368,264,40940,1,0,0:0:0:0:
440,264,41015,1,0,0:0:0:0:
360,232,41090,1,0,0:0:0:0:
272,208,41165,1,0,0:0:0:0:
304,208,41240,1,0,0:0:0:0:
368,200,41315,1,0,0:0:0:0:
432,192,41390,6,0,L|479:192,7,47.5
408,176,41990,1,0,0:0:0:0:
336,160,42065,6,0,L|288:160,6,47.5,2|0|0|0|0|0|0,0:0|0:0|0:0|0:0|0:0|0:0|0:0,0:0:0:0:
224,304,42590,6,0,L|176:304,7,47.5,2|0|0|0|0|0|0|0,0:0|0:0|0:0|0:0|0:0|0:0|0:0|0:0,0:0:0:0:
256,248,43190,6,0,L|312:248,1,47.5,2|0,0:0|0:0,0:0:0:0:
352,296,43340,2,0,L|328:240,1,47.5
272,216,43490,6,0,L|328:224,1,47.5
368,264,43640,2,0,L|336:208,1,47.5
288,184,43790,6,0,L|344:200,1,47.5
384,232,43940,2,0,L|344:192,1,47.5
296,176,44090,6,0,L|264:224,1,47.5
216,232,44240,2,0,L|264:200,1,47.5
296,200,44390,6,0,L|248:240,1,47.5
168,264,44540,2,0,L|160:208,1,47.5,2|0,0:0|0:0,0:0:0:0:
256,248,44690,6,0,L|264:304,1,47.5,2|0,0:0|0:0,0:0:0:0:
152,304,44840,2,0,L|144:240,1,47.5,2|0,0:0|0:0,0:0:0:0:
296,152,44990,2,0,P|336:232|304:272,1,142.5
144,336,45290,6,0,B|72:336|72:336|152:336,1,142.5,8|0,0:0|0:0,0:0:0:0:
384,192,45590,1,4,0:0:0:0:
512,192,45740,5,0,0:0:0:0:
368,144,45890,2,0,L|312:144,2,56.9999982604981,0|0|0,0:0|0:0|0:0,0:0:0:0:
256,248,46190,6,0,L|128:224,1,113.999996520996
384,192,46490,6,0,L|512:192,1,113.999996520996
280,296,46790,6,0,L|200:192,1,113.999996520996
512,192,47090,6,0,L|480:64,1,113.999996520996
416,112,47315,1,0,0:0:0:0:
352,152,47390,1,0,0:0:0:0:
256,216,47540,1,0,0:0:0:0:
352,152,47690,6,0,L|232:152,1,113.999996520996
328,176,47990,5,0,0:0:0:0:
440,192,48140,1,0,0:0:0:0:
344,168,48290,5,0,0:0:0:0:
232,144,48440,1,0,0:0:0:0:
352,168,48590,5,0,0:0:0:0:
472,192,48740,1,0,0:0:0:0:
200,144,48890,5,0,0:0:0:0:
112,144,49040,1,0,0:0:0:0:
232,240,49190,2,0,L|362:240,1,113.999996520996
280,240,49415,1,0,0:0:0:0:
208,240,49490,5,0,0:0:0:0:
32,144,49640,1,0,0:0:0:0:
184,144,49790,2,0,B|152:96|152:96|88:120,1,113.999996520996
16,96,50090,2,0,L|144:96,1,113.999996520996
280,144,50390,2,0,B|248:96|248:96|184:96,1,113.999996520996
48,96,50690,2,0,B|80:144|80:144|144:144,1,113.999996520996
280,144,50990,5,0,0:0:0:0:
232,144,51065,1,0,0:0:0:0:
184,144,51140,1,0,0:0:0:0:
424,144,51290,2,0,L|512:216,1,113.999996520996
344,176,51590,5,0,0:0:0:0:
472,216,51740,1,0,0:0:0:0:
320,224,51890,6,0,L|192:224,1,113.999996520996
336,184,52190,2,0,L|432:112,1,113.999996520996
376,176,52415,1,0,0:0:0:0:
320,224,52490,1,0,0:0:0:0:
336,184,52565,1,0,0:0:0:0:
472,216,52640,2,0,L|464:152,1,56.9999982604981
272,264,52790,6,0,P|200:184|216:120,1,170.999994781494,0|0,0:0|0:0,0:0:0:0:
352,144,53090,5,0,0:0:0:0:
496,160,53240,1,0,0:0:0:0:
336,184,53390,6,0,L|208:184,1,113.999996520996
352,144,53690,6,0,L|464:160,1,113.999996520996
328,224,53990,6,0,L|224:176,1,113.999996520996
56,153,54290,1,0,0:0:0:0:
104,177,54365,1,0,0:0:0:0:
160,200,54440,1,0,0:0:0:0:
368,184,54590,5,0,0:0:0:0:
400,144,54665,1,0,0:0:0:0:
392,96,54740,1,0,0:0:0:0:
360,64,54815,1,0,0:0:0:0:
288,48,54890,6,0,L|168:48,1,113.999996520996
256,120,55190,5,0,0:0:0:0:
336,184,55340,1,0,0:0:0:0:
256,176,55490,1,0,0:0:0:0:
360,144,55640,1,0,0:0:0:0:
256,64,55790,1,0,0:0:0:0:
352,96,55940,1,0,0:0:0:0:
192,120,56090,6,0,L|184:184,1,56.9999982604981
400,144,56240,6,0,L|432:192,1,56.9999982604981
256,184,56390,5,0,0:0:0:0:
184,184,56465,1,0,0:0:0:0:
136,184,56540,1,0,0:0:0:0:
104,184,56615,1,0,0:0:0:0:
88,184,56690,1,0,0:0:0:0:
184,208,56840,1,0,0:0:0:0:
344,144,56990,6,0,L|448:192,1,113.999996520996
224,144,57290,6,0,L|96:144,1,113.999996520996
224,232,57590,6,0,L|352:232,1,113.999996520996
200,184,57890,6,0,L|88:184,1,112.099996065827
384,232,58190,6,0,L|488:176,1,113.999996520996
256,224,58490,6,0,P|210:136|258:96,1,170.999994781494
384,232,58790,5,0,0:0:0:0:
320,232,58940,1,0,0:0:0:0:
416,232,59090,6,0,P|462:144|414:104,1,170.999994781494
216,240,59390,5,0,0:0:0:0:
288,232,59540,1,0,0:0:0:0:
168,208,59690,1,0,0:0:0:0:
312,88,59840,1,0,0:0:0:0:
168,160,59990,6,0,P|112:152|88:104,1,113.999996520996
312,88,60290,6,0,P|368:96|408:144,1,113.999996520996
256,160,60590,1,0,0:0:0:0:
336,176,60740,1,0,0:0:0:0:
256,208,60890,5,0,0:0:0:0:
120,208,61040,1,0,0:0:0:0:
256,208,61190,6,0,L|128:208,1,113.999996520996
8,208,61490,6,0,L|128:208,1,113.049997757492
256,208,61790,5,0,0:0:0:0:
192,208,61940,1,0,0:0:0:0:
288,208,62090,1,0,0:0:0:0:
368,208,62165,1,0,0:0:0:0:
424,208,62240,1,0,0:0:0:0:
456,208,62315,1,0,0:0:0:0:
320,208,62390,5,0,0:0:0:0:
192,208,62540,1,0,0:0:0:0:
224,208,62615,1,0,0:0:0:0:
384,208,62690,5,0,0:0:0:0:
448,160,62765,1,0,0:0:0:0:
512,104,62840,1,0,0:0:0:0:
288,80,62990,6,0,L|160:80,1,113.999996520996
232,144,63290,5,0,0:0:0:0:
320,208,63440,1,0,0:0:0:0:
192,208,63590,6,0,L|304:208,1,99.7499969558717
512,208,63890,6,0,L|392:208,1,113.999996520996
262,208,64190,6,0,L|376:208,1,113.999996520996
304,208,64490,1,0,0:0:0:0:
216,208,64640,1,0,0:0:0:0:
128,208,64790,6,0,L|248:208,1,113.999996520996
376,128,65090,6,0,B|320:128|320:128|248:128,1,113.999996520996
144,208,65390,5,0,0:0:0:0:
248,208,65540,1,0,0:0:0:0:
144,208,65690,6,0,P|96:120|144:80,1,170.999994781494
200,80,65990,6,0,L|256:136,1,56.9999982604981
152,128,66140,6,0,L|104:184,1,56.9999982604981
248,208,66290,2,0,L|360:208|296:208,1,170.999994781494
224,352,66590,5,0,0:0:0:0:
304,208,66740,1,0,0:0:0:0:
200,184,66890,1,0,0:0:0:0:
432,208,67040,1,0,0:0:0:0:
224,192,67190,6,0,L|80:192,1,118.75
224,208,67490,5,0,0:0:0:0:
288,208,67565,1,0,0:0:0:0:
328,208,67640,1,0,0:0:0:0:
352,208,67715,1,0,0:0:0:0:
280,136,67790,6,0,L|208:136,1,56.9999982604981,0|0,0:0|0:0,0:0:0:0:
272,104,67940,1,0,0:0:0:0:
416,80,68090,6,0,P|456:40|520:40,1,113.999996520996
352,80,68390,2,0,L|176:80,1,161.500003080368
80,208,68690,6,0,P|120:168|184:168,1,113.999996520996
312,208,68990,5,0,0:0:0:0:
264,208,69065,1,0,0:0:0:0:
216,208,69140,1,0,0:0:0:0:
352,160,69290,6,0,P|400:128|400:64,1,113.999996520996
328,184,69590,5,0,0:0:0:0:
445,123,69740,1,0,0:0:0:0:
320,208,69890,6,0,P|272:240|272:304,1,113.999996520996
392,208,70190,5,0,0:0:0:0:
272,208,70340,1,0,0:0:0:0:
184,208,70490,6,0,P|136:176|136:112,1,113.999996520996
224,208,70790,5,0,0:0:0:0:
184,152,70865,1,0,0:0:0:0:
128,120,70940,1,0,0:0:0:0:
272,208,71090,6,0,P|216:120|120:168,1,227.999993041992
224,184,71540,1,0,0:0:0:0:
344,208,71690,6,0,P|255:152|256:95,1,170.999994781494
320,160,71990,1,0,0:0:0:0:
224,184,72290,6,0,P|135:240|136:297,1,170.999994781494
224,312,72590,1,0,0:0:0:0:
312,312,72740,1,0,0:0:0:0:
392,264,72890,1,0,0:0:0:0:
128,152,74390,5,0,0:0:0:0:
392,96,74690,1,0,0:0:0:0:
224,192,75590,6,0,P|128:152|128:80,1,170.999994781494
288,192,75890,6,0,P|384:152|384:80,1,170.999994781494
256,96,76190,1,0,0:0:0:0:
256,192,77990,5,0,0:0:0:0:
176,192,78140,1,0,0:0:0:0:
16,192,78290,2,0,L|104:192,1,71.2500027179719
176,192,78590,1,0,0:0:0:0:
256,192,78740,1,0,0:0:0:0:
416,192,78890,1,0,0:0:0:0:
336,192,79040,1,0,0:0:0:0:
200,192,79190,2,0,L|288:192,1,71.2500027179719
376,192,79490,2,0,L|336:128,1,71.2500027179719
96,192,79790,5,0,0:0:0:0:
176,192,79940,1,0,0:0:0:0:
304,192,80090,2,0,L|216:192,1,71.2500027179719
136,192,80390,2,0,L|224:192,1,71.2500027179719
336,192,80690,2,0,B|368:256|368:256|336:304,1,106.875004076958
264,192,80990,1,0,0:0:0:0:
357,192,81140,1,0,0:0:0:0:
240,144,81290,1,0,0:0:0:0:
376,192,81440,1,0,0:0:0:0:
256,144,81590,5,0,0:0:0:0:
128,96,81740,1,0,0:0:0:0:
256,96,81890,1,0,0:0:0:0:
376,96,82040,1,0,0:0:0:0:
480,96,82190,2,0,L|448:160,1,71.2500027179719
320,144,82490,6,0,L|256:144|312:144,1,106.875004076958
376,96,82790,2,0,L|304:96,1,71.2500027179719
216,96,83090,2,0,L|288:96,1,71.2500027179719
376,96,83390,6,0,L|312:96|344:144,1,106.875004076958
480,288,83690,2,0,L|512:224,1,71.2500027179719
352,224,83990,2,0,L|424:224,1,71.2500027179719
288,288,84290,6,0,L|224:288|280:288,1,106.875004076958
336,192,84590,2,0,L|440:192,1,95
320,192,84890,5,0,0:0:0:0:
432,192,85040,1,0,0:0:0:0:
312,192,85190,6,0,P|248:176|248:120,1,106.875004076958
336,192,85490,6,0,L|416:192,1,71.2500027179719
280,144,85790,6,0,L|200:144,1,71.2500027179719
336,192,86090,6,0,P|400:176|400:120,1,106.875004076958
320,192,86390,6,0,L|240:192,1,71.2500027179719
376,144,86690,6,0,L|456:144,1,71.2500027179719
224,144,86990,6,0,P|160:128|160:72,1,106.875004076958
288,144,87290,6,0,L|368:144,1,71.2500027179719
224,96,87590,6,0,L|144:96,1,71.2500027179719
376,144,87890,6,0,P|440:128|440:72,1,106.875004076958
288,144,88190,6,0,L|192:144,1,95
416,96,88490,6,0,L|512:96,1,95
288,144,88790,5,0,0:0:0:0:
160,224,88940,1,0,0:0:0:0:
96,224,89090,6,0,L|191:224,1,95
376,144,89390,1,4,0:0:0:0:
480,216,89540,1,0,0:0:0:0:
376,216,89690,2,0,L|336:216|488:216,1,170.999994781494
376,144,89990,6,0,B|272:192|272:192|184:192,1,170.999994781494,4|0,0:0|0:0,0:0:0:0:
56,240,90290,6,0,B|160:192|160:192|248:192,1,170.999994781494,4|0,0:0|0:0,0:0:0:0:
408,184,90590,6,0,B|304:136|304:136|216:136,1,170.999994781494,4|0,0:0|0:0,0:0:0:0:
80,136,90890,6,0,B|184:184|184:184|272:184,1,170.999994781494,4|0,0:0|0:0,0:0:0:0:
424,136,91190,2,0,B|408:184|408:184|408:256,1,118.75,4|0,0:0|0:0,0:0:0:0:
488,208,91490,6,0,L|440:352,1,118.75
392,232,91790,1,8,0:0:0:0:
312,232,91865,1,2,0:0:0:0:
240,232,91940,1,2,0:0:0:0:
272,232,92015,1,2,0:0:0:0:
312,232,92090,6,0,L|224:80,1,170.999994781494,2|0,0:0|0:0,0:0:0:0:
88,160,92390,1,8,0:0:0:0:
56,160,92540,1,0,0:0:0:0:
168,184,92690,6,0,L|248:184,1,56.9999982604981,8|0,0:0|0:0,0:0:0:0:
272,264,92840,6,0,L|232:208,1,56.9999982604981
64,160,92990,2,2,L|0:160,2,56.9999982604981
120,160,93215,1,0,0:0:0:0:
256,192,93290,5,8,0:0:0:0:
224,192,93440,1,0,0:0:0:0:
224,264,93515,1,0,0:0:0:0:
384,72,93590,5,2,0:0:0:0:
464,72,93740,1,0,0:0:0:0:
448,72,93815,1,0,0:0:0:0:
256,136,93890,1,8,0:0:0:0:
192,136,93965,1,0,0:0:0:0:
256,192,94040,1,0,0:0:0:0:
320,248,94115,1,0,0:0:0:0:
368,248,94190,1,2,0:0:0:0:
400,248,94265,1,0,0:0:0:0:
320,248,94340,5,0,0:0:0:0:
448,192,94490,1,8,0:0:0:0:
480,192,94565,1,0,0:0:0:0:
496,192,94640,1,0,0:0:0:0:
504,192,94715,1,0,0:0:0:0:
320,136,94790,5,2,0:0:0:0:
192,136,94940,1,0,0:0:0:0:
288,136,95090,2,0,L|376:48,1,113.999996520996,8|0,0:0|0:0,0:0:0:0:
256,136,95390,1,2,0:0:0:0:
328,96,95540,1,0,0:0:0:0:
224,136,95690,2,0,L|120:192,1,113.999996520996,8|0,0:0|0:0,0:0:0:0:
176,224,95915,1,0,0:0:0:0:
224,256,95990,6,0,L|360:296,1,113.999996520996,2|0,0:0|0:0,0:0:0:0:
264,304,96290,6,0,L|136:264,1,113.999996520996,8|0,0:0|0:0,0:0:0:0:
192,200,96590,5,2,0:0:0:0:
128,200,96665,1,0,0:0:0:0:
104,200,96740,1,0,0:0:0:0:
112,256,96815,1,0,0:0:0:0:
256,200,96890,6,0,L|368:136,1,113.999996520996,8|0,0:0|0:0,0:0:0:0:
312,144,97115,1,0,0:0:0:0:
80,200,97190,6,0,L|24:200|48:256,1,113.999996520996,2|0,0:0|0:0,0:0:0:0:
56,272,97415,1,0,0:0:0:0:
80,296,97490,1,8,0:0:0:0:
120,312,97565,1,0,0:0:0:0:
184,320,97640,1,0,0:0:0:0:
264,304,97715,1,0,0:0:0:0:
416,200,97790,5,2,0:0:0:0:
328,144,97940,1,0,0:0:0:0:
360,200,98090,2,0,L|432:304,1,113.999996520996,8|0,0:0|0:0,0:0:0:0:
392,296,98315,1,0,0:0:0:0:
224,256,98390,1,2,0:0:0:0:
160,256,98465,1,0,0:0:0:0:
128,256,98540,1,0,0:0:0:0:
176,184,98615,1,0,0:0:0:0:
232,120,98690,5,8,0:0:0:0:
304,120,98765,1,0,0:0:0:0:
336,120,98840,1,0,0:0:0:0:
352,120,98915,1,0,0:0:0:0:
160,328,98990,5,2,0:0:0:0:
88,328,99065,1,0,0:0:0:0:
48,328,99140,1,0,0:0:0:0:
64,304,99215,1,0,0:0:0:0:
256,200,99290,5,8,0:0:0:0:
320,200,99365,1,0,0:0:0:0:
352,200,99440,1,0,0:0:0:0:
360,200,99515,1,0,0:0:0:0:
176,184,99590,5,4,0:0:0:0:
144,184,100790,5,2,0:0:0:0:
176,184,101840,1,2,0:0:0:0:
336,184,101990,1,2,0:0:0:0:
264,184,102140,1,2,0:0:0:0:
104,184,102290,1,8,0:0:0:0:
176,184,102440,1,2,0:0:0:0:
32,184,102590,1,2,0:0:0:0:
144,184,102740,1,2,0:0:0:0:
32,184,102890,1,8,0:0:0:0:
144,184,103040,1,2,0:0:0:0:
264,184,103190,5,2,0:0:0:0:
352,184,103340,1,2,0:0:0:0:
208,184,103490,5,8,0:0:0:0:
288,184,103640,1,2,0:0:0:0:
144,256,103790,1,2,0:0:0:0:
264,256,103940,1,2,0:0:0:0:
192,256,104090,1,8,0:0:0:0:
120,256,104240,1,2,0:0:0:0:
368,184,104390,5,2,0:0:0:0:
416,136,104465,1,2,0:0:0:0:
400,72,104540,1,2,0:0:0:0:
352,24,104615,1,2,0:0:0:0:
256,104,104690,5,2,0:0:0:0:
208,152,104765,1,2,0:0:0:0:
192,216,104840,1,2,0:0:0:0:
224,272,104915,1,2,0:0:0:0:
416,104,104990,5,2,0:0:0:0:
464,152,105065,1,2,0:0:0:0:
448,216,105140,1,2,0:0:0:0:
400,264,105215,1,2,0:0:0:0:
336,224,105290,6,2,L|312:160,1,56.9999982604981
416,136,105440,2,2,L|456:72,1,56.9999982604981
256,240,105590,5,2,0:0:0:0:
232,280,105627,1,2,0:0:0:0:
192,304,105665,1,2,0:0:0:0:
152,312,105702,1,2,0:0:0:0:
112,296,105740,1,2,0:0:0:0:
80,264,105777,1,2,0:0:0:0:
64,224,105815,1,2,0:0:0:0:
208,184,105890,5,2,0:0:0:0:
248,176,105927,1,2,0:0:0:0:
288,152,105965,1,2,0:0:0:0:
320,120,106002,1,2,0:0:0:0:
344,88,106040,1,2,0:0:0:0:
344,48,106077,1,2,0:0:0:0:
320,8,106115,1,2,0:0:0:0:
152,248,106190,5,2,0:0:0:0:
112,224,106228,1,2,0:0:0:0:
80,184,106265,1,2,0:0:0:0:
64,144,106302,1,2,0:0:0:0:
64,96,106340,1,2,0:0:0:0:
80,56,106377,1,2,0:0:0:0:
112,24,106415,1,2,0:0:0:0:
288,152,106490,5,2,0:0:0:0:
336,176,106527,1,2,0:0:0:0:
376,208,106565,1,2,0:0:0:0:
392,256,106602,1,2,0:0:0:0:
384,304,106640,1,2,0:0:0:0:
352,336,106677,1,2,0:0:0:0:
312,336,106715,1,2,0:0:0:0:
112,224,106790,1,4,0:0:0:0:
256,192,107990,12,2,111290,0:0:0:0:
256,192,111590,5,8,0:0:0:0:
168,192,111740,1,0,0:0:0:0:
400,192,111890,1,2,0:0:0:0:
432,192,112040,1,0,0:0:0:0:
256,192,112190,6,0,L|392:192,1,113.999996520996,8|0,0:0|0:0,0:0:0:0:
200,192,112490,6,0,L|86:192,1,113.999996520996,8|0,0:0|0:0,0:0:0:0:
336,192,112790,6,0,L|288:88,1,113.999996520996,8|2,0:0|0:0,0:0:0:0:
96,192,113090,5,8,0:0:0:0:
32,192,113165,1,2,0:0:0:0:
0,192,113240,1,2,0:0:0:0:
224,80,113390,5,2,0:0:0:0:
160,80,113540,1,0,0:0:0:0:
256,128,113690,1,8,0:0:0:0:
376,168,113840,1,0,0:0:0:0:
512,200,113990,6,0,L|416:264,1,113.999996520996,8|0,0:0|0:0,0:0:0:0:
256,128,114290,6,0,L|352:192,1,113.999996520996,8|0,0:0|0:0,0:0:0:0:
224,120,114590,6,0,L|96:120,1,113.999996520996,8|0,0:0|0:0,0:0:0:0:
344,144,114890,5,2,0:0:0:0:
408,144,114965,1,0,0:0:0:0:
456,144,115040,1,0,0:0:0:0:
488,144,115115,1,2,0:0:0:0:
312,144,115190,5,8,0:0:0:0:
248,144,115265,1,0,0:0:0:0:
200,144,115340,1,0,0:0:0:0:
168,144,115415,1,2,0:0:0:0:
320,184,115490,5,8,0:0:0:0:
408,184,115640,1,0,0:0:0:0:
72,224,115790,6,0,L|32:336,1,113.999996520996,2|0,0:0|0:0,0:0:0:0:
248,144,116090,6,0,L|304:248,1,113.999996520996,8|0,0:0|0:0,0:0:0:0:
32,144,116390,6,0,L|56:32,1,113.999996520996,2|0,0:0|0:0,0:0:0:0:
304,256,116690,6,0,L|280:144,1,113.999996520996,8|0,0:0|0:0,0:0:0:0:
128,144,116990,5,2,0:0:0:0:
240,32,117140,1,0,0:0:0:0:
32,144,117290,1,0,0:0:0:0:
128,144,117440,1,0,0:0:0:0:
32,144,117590,6,0,L|64:256,1,113.999996520996,2|0,0:0|0:0,0:0:0:0:
144,144,117890,2,0,L|48:208,1,113.999996520996,8|0,0:0|0:0,0:0:0:0:
256,192,118190,2,0,L|304:160,1,56.9999982604981
160,144,118340,2,0,L|128:96,1,56.9999982604981
320,128,118490,2,0,L|368:96,1,56.9999982604981
160,112,118640,2,0,L|112:80,1,56.9999982604981
288,192,118790,5,0,0:0:0:0:
272,192,118865,1,0,0:0:0:0:
240,192,118940,1,0,0:0:0:0:
192,192,119015,1,0,0:0:0:0:
352,192,119090,1,8,0:0:0:0:
416,192,119165,1,0,0:0:0:0:
448,192,119240,1,0,0:0:0:0:
472,192,119315,1,0,0:0:0:0:
256,192,119390,5,2,0:0:0:0:
144,144,119540,1,0,0:0:0:0:
296,136,119690,1,8,0:0:0:0:
168,160,119840,1,0,0:0:0:0:
32,192,119990,2,0,L|208:192,1,170.999994781494,2|0,0:0|0:0,0:0:0:0:
352,104,120290,2,0,L|280:192,1,113.999996520996,8|0,0:0|0:0,0:0:0:0:
216,192,120515,1,0,0:0:0:0:
152,192,120590,5,2,0:0:0:0:
288,88,120740,1,0,0:0:0:0:
192,88,120890,5,8,0:0:0:0:
96,88,121040,1,0,0:0:0:0:
216,88,121227,6,0,L|360:88,1,134.187500409508,2|2,0:0|0:0,0:0:0:0:
512,104,121490,2,0,L|344:104,1,161.025000491409,8|2,0:0|0:0,0:0:0:0:
256,88,121790,5,2,0:0:0:0:
352,104,121940,1,0,0:0:0:0:
240,104,122090,1,8,0:0:0:0:
376,88,122240,1,0,0:0:0:0:
240,104,122390,6,0,L|120:104,1,113.999996520996,8|0,0:0|0:0,0:0:0:0:
152,104,122615,1,0,0:0:0:0:
288,80,122690,5,2,0:0:0:0:
352,80,122765,1,0,0:0:0:0:
384,88,122840,1,0,0:0:0:0:
392,112,122915,1,0,0:0:0:0:
104,136,122990,5,8,0:0:0:0:
48,112,123065,1,0,0:0:0:0:
32,64,123140,1,0,0:0:0:0:
56,16,123215,1,0,0:0:0:0:
288,80,123290,6,0,L|416:80,1,113.999996520996,2|0,0:0|0:0,0:0:0:0:
312,80,123590,2,0,L|184:80,1,113.999996520996,8|0,0:0|0:0,0:0:0:0:
280,120,123890,2,0,L|168:64,1,113.999996520996,2|0,0:0|0:0,0:0:0:0:
272,200,124190,6,0,L|224:96,1,113.999996520996
432,80,124490,5,8,0:0:0:0:
480,104,124565,1,0,0:0:0:0:
512,144,124640,1,0,0:0:0:0:
504,192,124715,1,0,0:0:0:0:
328,40,124790,6,0,P|256:48|192:88,1,142.500005435944
344,128,125090,5,0,0:0:0:0:
328,128,125165,1,0,0:0:0:0:
296,128,125240,1,0,0:0:0:0:
248,128,125315,1,0,0:0:0:0:
256,120,125390,5,2,0:0:0:0:
344,120,125540,1,0,0:0:0:0:
224,192,125690,1,2,0:0:0:0:
312,192,125840,1,0,0:0:0:0:
80,240,125990,5,8,0:0:0:0:
24,208,126065,1,0,0:0:0:0:
16,144,126140,1,0,0:0:0:0:
88,136,126215,1,0,0:0:0:0:
256,144,126290,5,8,0:0:0:0:
320,144,126365,1,0,0:0:0:0:
352,144,126440,1,0,0:0:0:0:
368,144,126515,1,0,0:0:0:0:
208,184,126590,5,2,0:0:0:0:
296,184,126740,5,0,0:0:0:0:
152,144,126890,5,2,0:0:0:0:
88,144,126965,1,0,0:0:0:0:
40,144,127040,1,0,0:0:0:0:
16,144,127115,1,0,0:0:0:0:
256,184,127190,5,2,0:0:0:0:
336,184,127265,1,0,0:0:0:0:
384,184,127340,1,0,0:0:0:0:
408,184,127415,1,0,0:0:0:0:
168,128,127490,5,2,0:0:0:0:
104,128,127565,1,0,0:0:0:0:
56,128,127640,1,0,0:0:0:0:
24,128,127715,1,0,0:0:0:0:
256,96,127790,5,2,0:0:0:0:
392,96,127940,1,0,0:0:0:0:
288,144,128090,6,0,P|392:144|424:88,1,170.999994781494,8|0,0:0|0:0,0:0:0:0:
360,160,128390,1,2,0:0:0:0:
392,96,128540,1,0,0:0:0:0:
288,144,128690,6,0,L|224:40,1,113.999996520996
360,128,128990,6,0,P|360:232|304:264,1,170.999994781494,8|0,0:0|0:0,0:0:0:0:
360,232,129290,1,2,0:0:0:0:
256,232,129440,1,0,0:0:0:0:
328,232,129590,6,0,L|456:232,1,113.999996520996
224,96,129890,6,0,L|48:96,1,170.999994781494
112,96,130190,1,2,0:0:0:0:
56,112,130340,1,0,0:0:0:0:
0,128,130490,6,0,B|48:96|48:96|104:96,1,113.999996520996,2|0,0:0|0:0,0:0:0:0:
256,192,130790,6,0,B|208:224|208:224|128:224,1,113.999996520996,2|0,0:0|0:0,0:0:0:0:
256,56,131090,2,0,L|384:56,1,113.999996520996,2|0,0:0|0:0,0:0:0:0:
136,160,131390,6,0,B|88:192|88:192|8:192,1,113.999996520996,2|0,0:0|0:0,0:0:0:0:
304,24,131690,5,0,0:0:0:0:
392,24,131840,1,0,0:0:0:0:
424,24,131990,1,2,0:0:0:0:
304,24,132140,1,0,0:0:0:0:
464,24,132290,1,2,0:0:0:0:
256,24,132440,1,0,0:0:0:0:
360,24,132590,6,0,B|360:138|360:138|246:138|246:138|246:200,1,284.999991302491
360,136,133040,2,0,L|392:168,1,35.625001358986,8|2,0:0|0:0,0:0:0:0:
208,136,133190,5,4,0:0:0:0:
144,136,133265,1,0,0:0:0:0:
96,136,133340,1,0,0:0:0:0:
64,136,133415,1,0,0:0:0:0:
112,136,133490,6,0,L|232:136,1,113.999996520996,8|0,0:0|0:0,0:0:0:0:
120,136,133790,5,4,0:0:0:0:
32,136,133940,1,0,0:0:0:0:
144,136,134090,6,0,L|16:136,1,113.999996520996,4|0,0:0|0:0,0:0:0:0:
168,136,134390,1,0,0:0:0:0:
48,136,134540,1,0,0:0:0:0:
192,136,134690,5,2,0:0:0:0:
256,136,134765,1,0,0:0:0:0:
288,136,134840,1,0,0:0:0:0:
304,136,134915,1,0,0:0:0:0:
104,88,134990,1,8,0:0:0:0:
80,136,135140,1,0,0:0:0:0:
208,184,135290,6,0,L|240:304,1,113.999996520996,8|0,0:0|0:0,0:0:0:0:
152,184,135590,1,8,0:0:0:0:
256,136,135740,1,0,0:0:0:0:
104,88,135890,6,0,L|56:192,1,113.999996520996,4|0,0:0|0:0,0:0:0:0:
152,184,136190,1,4,0:0:0:0:
56,192,136340,1,0,0:0:0:0:
208,184,136490,5,2,0:0:0:0:
264,144,136565,1,0,0:0:0:0:
304,88,136640,1,0,0:0:0:0:
264,32,136715,1,0,0:0:0:0:
56,192,136790,5,8,0:0:0:0:
24,152,136865,1,0,0:0:0:0:
56,104,136940,1,0,0:0:0:0:
104,88,137015,1,0,0:0:0:0:
168,112,137090,6,0,L|282:112,1,113.999996520996
0,184,137390,6,0,L|32:304,1,113.999996520996
248,192,137690,6,0,P|296:168|296:104,1,113.999996520996,8|0,0:0|0:0,0:0:0:0:
168,112,137990,6,0,P|120:88|120:24,1,113.999996520996,2|0,0:0|0:0,0:0:0:0:
248,192,138290,6,0,P|224:144|160:144,1,113.999996520996,8|0,0:0|0:0,0:0:0:0:
512,120,138590,6,0,P|464:144|464:208,1,113.999996520996,4|0,0:0|0:0,0:0:0:0:
328,240,138890,5,8,0:0:0:0:
408,192,139040,1,0,0:0:0:0:
256,136,139190,5,0,0:0:0:0:
192,136,139265,1,0,0:0:0:0:
144,136,139340,1,0,0:0:0:0:
112,136,139415,1,0,0:0:0:0:
264,192,139490,5,0,0:0:0:0:
328,192,139565,1,0,0:0:0:0:
376,192,139640,1,0,0:0:0:0:
408,192,139715,1,0,0:0:0:0:
328,240,139790,6,0,L|280:192,1,56.9999982604981,8|0,0:0|0:0,0:0:0:0:
424,192,139940,6,0,L|480:168,1,56.9999982604981,8|0,0:0|0:0,0:0:0:0:
264,192,140090,5,0,0:0:0:0:
224,160,140165,1,0,0:0:0:0:
392,192,140240,1,0,0:0:0:0:
424,192,140315,1,0,0:0:0:0:
192,136,140390,6,0,P|96:192|80:248,1,170.999994781494,12|2,0:0|0:0,0:0:0:0:
264,192,140690,2,0,B|344:192|344:192|304:280,1,170.999994781494,8|0,0:0|0:0,0:0:0:0:
168,120,140990,1,8,0:0:0:0:
56,160,141140,6,0,L|72:216,1,56.9999982604981,2|0,0:0|0:0,0:0:0:0:
224,192,141290,6,0,L|384:192,1,142.500005435944,8|0,0:0|0:0,0:0:0:0:
288,192,141590,5,8,0:0:0:0:
208,192,141665,1,0,0:0:0:0:
160,192,141740,1,0,0:0:0:0:
176,160,141890,5,8,0:0:0:0:
248,160,141965,1,0,0:0:0:0:
296,160,142040,1,0,0:0:0:0:
384,160,142190,5,0,0:0:0:0:
256,176,142340,1,0,0:0:0:0:
128,192,142490,1,0,0:0:0:0:
248,160,142640,5,0,0:0:0:0:
152,192,142790,1,8,0:0:0:0:
272,200,142940,1,0,0:0:0:0:
136,216,143090,1,8,0:0:0:0:
272,200,143240,1,0,0:0:0:0:
136,216,143390,6,0,L|32:296,1,113.999996520996,8|0,0:0|0:0,0:0:0:0:
344,248,143690,6,0,L|440:336,1,113.999996520996,8|0,0:0|0:0,0:0:0:0:
192,232,143990,6,0,B|296:184|296:184|360:184,1,170.999994781494,8|2,0:0|0:0,0:0:0:0:
512,136,144290,6,0,B|408:184|408:184|344:184,1,170.999994781494,8|2,0:0|0:0,0:0:0:0:
304,184,144590,5,4,0:0:0:0:
216,184,144740,1,0,0:0:0:0:
192,232,144890,6,0,L|312:232,1,113.999996520996
464,136,145190,5,8,0:0:0:0:
464,72,145265,1,0,0:0:0:0:
408,32,145340,1,0,0:0:0:0:
320,112,145490,5,8,0:0:0:0:
368,112,145565,1,0,0:0:0:0:
400,112,145640,1,0,0:0:0:0:
256,184,145790,6,0,L|120:184,1,113.999996520996,8|0,0:0|0:0,0:0:0:0:
384,136,146090,6,0,P|424:224|368:248,1,170.999994781494,8|0,0:0|0:0,0:0:0:0:
224,184,146390,6,0,P|184:96|240:72,1,170.999994781494,8|0,0:0|0:0,0:0:0:0:
288,184,146690,6,0,P|328:272|272:296,1,170.999994781494,8|2,0:0|0:0,0:0:0:0:
160,184,146990,6,0,L|24:136,1,142.500005435944,8|0,0:0|0:0,0:0:0:0:
160,184,147290,1,8,0:0:0:0:
72,184,147440,1,0,0:0:0:0:
288,184,147590,6,0,L|456:248,1,170.999994781494,8|2,0:0|0:0,0:0:0:0:
192,184,147890,2,0,L|56:184,1,113.999996520996,8|0,0:0|0:0,0:0:0:0:
304,216,148190,1,8,0:0:0:0:
392,216,148340,1,0,0:0:0:0:
256,184,148490,6,0,B|143:184|143:184|159:128,1,170.999994781494,8|0,0:0|0:0,0:0:0:0:
304,216,148790,6,0,B|416:240|416:240|408:160,1,170.999994781494,8|0,0:0|0:0,0:0:0:0:
112,160,149090,6,0,B|96:104|96:104|208:104,1,170.999994781494,8|0,0:0|0:0,0:0:0:0:
344,160,149390,5,8,0:0:0:0:
480,160,149540,1,0,0:0:0:0:
344,160,149690,6,0,B|384:120|384:120|344:48,1,113.999996520996,8|0,0:0|0:0,0:0:0:0:
304,40,149990,1,0,0:0:0:0:
392,40,150140,1,0,0:0:0:0:
256,72,150290,5,0,0:0:0:0:
168,72,150440,1,0,0:0:0:0:
288,72,150590,6,0,B|248:112|248:112|288:184,1,113.999996520996,8|0,0:0|0:0,0:0:0:0:
296,192,150890,1,0,0:0:0:0:
200,192,151040,1,0,0:0:0:0:
312,168,151190,6,0,L|432:168,1,113.999996520996
280,168,151490,1,8,0:0:0:0:
368,168,151640,1,0,0:0:0:0:
280,168,151790,1,0,0:0:0:0:
192,168,151940,1,0,0:0:0:0:
280,168,152090,5,0,0:0:0:0:
160,168,152240,1,0,0:0:0:0:
280,168,152390,6,0,P|208:72|248:8,1,199.499993911743,8|2,0:0|0:0,0:0:0:0:
328,168,152690,6,0,L|232:232,1,113.999996520996,8|0,0:0|0:0,0:0:0:0:
192,168,152990,5,8,0:0:0:0:
280,168,153140,1,8,0:0:0:0:
128,168,153290,6,0,B|16:168|16:168|72:184,1,170.999994781494,8|0,0:0|0:0,0:0:0:0:
288,192,153590,5,0,0:0:0:0:
320,216,153627,1,0,0:0:0:0:
344,256,153665,1,0,0:0:0:0:
360,296,153702,1,0,0:0:0:0:
344,320,153740,1,0,0:0:0:0:
312,320,153777,1,0,0:0:0:0:
288,320,153815,1,0,0:0:0:0:
128,168,153890,5,0,0:0:0:0:
96,192,153927,1,0,0:0:0:0:
72,232,153965,1,0,0:0:0:0:
56,272,154002,1,0,0:0:0:0:
72,296,154040,1,0,0:0:0:0:
104,296,154077,1,0,0:0:0:0:
128,296,154115,1,0,0:0:0:0:
352,192,154190,5,0,0:0:0:0:
384,216,154227,1,0,0:0:0:0:
408,256,154265,1,0,0:0:0:0:
424,296,154302,1,0,0:0:0:0:
408,320,154340,1,0,0:0:0:0:
376,320,154377,1,0,0:0:0:0:
352,320,154415,1,0,0:0:0:0:
96,168,154490,5,0,0:0:0:0:
64,192,154527,1,0,0:0:0:0:
40,232,154565,1,0,0:0:0:0:
24,272,154602,1,0,0:0:0:0:
40,296,154640,1,0,0:0:0:0:
72,296,154677,1,0,0:0:0:0:
96,296,154715,1,0,0:0:0:0:
256,192,154790,1,4,0:0:0:0:
256,192,164390,5,0,0:0:0:0:
440,192,164690,1,0,0:0:0:0:
288,192,164990,1,0,0:0:0:0:
408,192,165290,1,0,0:0:0:0:
320,192,165440,1,0,0:0:0:0:
256,192,165590,6,0,L|144:160,1,113.999996520996
288,104,165890,1,0,0:0:0:0:
208,112,166040,1,0,0:0:0:0:
146,160,166190,2,0,L|256:192,1,113.999996520996
288,280,166490,1,0,0:0:0:0:
208,272,166640,1,0,0:0:0:0:
146,223,166790,2,0,L|256:192,1,113.999996520996
344,192,167090,1,0,0:0:0:0:
424,200,167240,1,0,0:0:0:0:
486,249,167390,2,0,L|376:280,1,113.999996520996
256,192,167690,1,0,0:0:0:0:
256,192,167990,5,0,0:0:0:0:
168,192,168140,1,0,0:0:0:0:
80,192,168290,2,0,L|200:192,1,113.999996520996
288,192,168590,2,0,L|168:192,1,113.999996520996
256,192,168890,5,0,0:0:0:0:
168,192,169040,1,0,0:0:0:0:
312,192,169190,6,0,P|384:120|304:48,1,227.999993041992
168,192,169677,6,0,P|96:264|176:336,1,227.999993041992
312,192,170090,6,0,P|240:264|168:184,1,227.999993041992
312,192,170540,6,0,P|384:120|304:48,1,227.999993041992
168,192,170990,6,0,P|96:120|176:48,1,227.999993041992
312,48,171440,6,0,P|240:-24|168:56,1,227.999993041992
312,48,171890,6,0,L|336:160,1,113.999996520996
168,192,172190,6,0,L|144:304,1,113.999996520996
336,160,172490,6,0,L|360:272,1,113.999996520996
200,192,172790,6,0,L|224:304,1,113.999996520996
360,272,173090,6,0,L|384:384,1,113.999996520996
200,192,173390,6,0,L|224:304,1,113.999996520996
392,272,173690,6,0,L|416:384,1,113.999996520996
136,192,173990,1,0,0:0:0:0:
88,176,174140,1,0,0:0:0:0:
64,120,174290,1,0,0:0:0:0:
88,64,174440,1,0,0:0:0:0:
224,96,174590,5,0,0:0:0:0:
136,192,174740,1,0,0:0:0:0:
248,192,174890,1,0,0:0:0:0:
136,192,175040,1,0,0:0:0:0:
88,208,175190,1,0,0:0:0:0:
64,264,175340,1,0,0:0:0:0:
88,320,175490,1,0,0:0:0:0:
216,264,175640,1,0,0:0:0:0:
136,192,175790,6,0,L|232:104,1,113.999996520996
384,272,176090,6,0,L|288:184,1,113.999996520996
216,264,176390,5,0,0:0:0:0:
216,264,176540,1,0,0:0:0:0:
336,192,176690,1,0,0:0:0:0:
216,264,176840,1,0,0:0:0:0:
344,192,176990,1,0,0:0:0:0:
208,264,177140,1,0,0:0:0:0:
352,192,177290,1,0,0:0:0:0:
288,224,177440,1,0,0:0:0:0:
200,264,177590,6,0,B|144:248|144:248|112:200,1,113.999996520996
336,192,177890,6,0,B|305:145|305:145|249:129,1,113.999996520996
137,201,178190,5,0,0:0:0:0:
375,201,178490,1,0,0:0:0:0:
256,200,178790,1,0,0:0:0:0:
256,200,179990,1,0,0:0:0:0:
256,200,181190,1,0,0:0:0:0:
424,328,181490,1,0,0:0:0:0:
256,200,181790,1,0,0:0:0:0:
64,56,182090,1,0,0:0:0:0:
256,56,182390,5,0,0:0:0:0:
408,200,182540,1,0,0:0:0:0:
136,304,182690,1,0,0:0:0:0:
352,272,182840,1,0,0:0:0:0:
264,256,182990,1,0,0:0:0:0:
184,232,183140,1,0,0:0:0:0:
280,192,183290,1,0,0:0:0:0:
376,144,183440,1,0,0:0:0:0:
312,168,183515,1,0,0:0:0:0:
256,192,183590,6,0,L|96:192,1,142.500005435944
240,176,183890,1,0,0:0:0:0:
360,168,184040,1,0,0:0:0:0:
264,128,184190,2,0,L|104:128,1,142.500005435944
256,120,184490,1,0,0:0:0:0:
392,112,184640,1,0,0:0:0:0:
280,112,184790,2,0,L|128:112,1,142.500005435944
137,112,185015,1,0,0:0:0:0:
208,112,185090,1,0,0:0:0:0:
336,112,185240,6,0,L|456:192,1,142.500005435944
224,144,185540,2,0,L|88:192,1,142.500005435944
144,88,185840,1,0,0:0:0:0:
256,144,185990,1,0,0:0:0:0:
216,112,186140,2,0,L|328:200,1,142.500005435944
208,200,186440,1,0,0:0:0:0:
96,200,186590,1,0,0:0:0:0:
184,152,186740,2,0,L|336:152,1,142.500005435944
256,168,187040,1,0,0:0:0:0:
112,144,187190,5,0,0:0:0:0:
320,168,187340,1,0,0:0:0:0:
80,208,187490,1,0,0:0:0:0:
192,168,187640,1,0,0:0:0:0:
256,168,187790,1,0,0:0:0:0:
320,168,187940,1,0,0:0:0:0:
208,176,188090,5,0,0:0:0:0:
376,184,188240,1,0,0:0:0:0:
168,200,188390,6,0,L|8:200,1,142.500005435944
112,168,188690,1,0,0:0:0:0:
216,152,188840,1,0,0:0:0:0:
360,152,188990,6,0,L|256:56,1,142.500005435944
360,152,189290,1,0,0:0:0:0:
448,232,189440,1,0,0:0:0:0:
312,232,189590,2,0,L|448:160,1,142.500005435944
120,152,189890,1,0,0:0:0:0:
192,152,190040,5,0,0:0:0:0:
312,152,190190,1,0,0:0:0:0:
192,152,190340,1,0,0:0:0:0:
72,152,190490,1,0,0:0:0:0:
192,152,190640,1,0,0:0:0:0:
96,152,190790,6,0,L|248:152,1,142.500005435944
512,64,191090,2,0,L|352:64,1,142.500005435944
144,176,191390,6,0,L|296:176,1,142.500005435944
208,200,191690,1,0,0:0:0:0:
320,200,191840,1,0,0:0:0:0:
192,144,191990,1,0,0:0:0:0:
288,88,192140,1,0,0:0:0:0:
160,144,192290,5,0,0:0:0:0:
120,152,192365,1,0,0:0:0:0:
88,184,192440,1,0,0:0:0:0:
72,224,192515,1,0,0:0:0:0:
192,144,192590,5,0,0:0:0:0:
104,168,192740,1,0,0:0:0:0:
320,200,192890,1,0,0:0:0:0:
88,184,193040,1,0,0:0:0:0:
296,160,193190,6,0,L|456:160,1,142.500005435944
352,176,193490,1,0,0:0:0:0:
256,192,193640,1,0,0:0:0:0:
400,192,193790,2,0,L|240:192,1,142.500005435944
376,184,194090,1,0,0:0:0:0:
400,192,194240,1,0,0:0:0:0:
112,192,194390,2,0,L|272:192,1,142.500005435944
184,192,194690,1,0,0:0:0:0:
112,192,194840,6,0,B|192:72|192:72|264:72,1,213.750008153916
512,104,195140,6,0,L|360:104,1,142.5
112,192,195440,1,0,0:0:0:0:
208,192,195590,1,0,0:0:0:0:
336,192,195740,5,0,0:0:0:0:
368,128,195890,1,0,0:0:0:0:
224,104,196040,1,0,0:0:0:0:
368,128,196190,1,0,0:0:0:0:
232,104,196340,1,0,0:0:0:0:
376,128,196490,1,0,0:0:0:0:
224,192,196677,1,0,0:0:0:0:
400,96,196790,5,0,0:0:0:0:
304,112,196940,1,0,0:0:0:0:
176,112,197090,1,0,0:0:0:0:
480,96,197240,6,0,L|512:240,1,142.500005435944
320,112,197540,6,0,L|296:280,1,142.500005435944
408,256,197840,1,0,0:0:0:0:
256,48,197990,5,0,0:0:0:0:
192,96,198065,1,0,0:0:0:0:
144,152,198140,1,0,0:0:0:0:
136,216,198215,1,0,0:0:0:0:
160,256,198290,1,0,0:0:0:0:
256,192,198440,6,0,L|256:40,1,142.500005435944
136,200,198740,1,0,0:0:0:0:
400,112,198890,5,0,0:0:0:0:
440,128,198965,1,0,0:0:0:0:
472,160,199040,1,0,0:0:0:0:
488,200,199115,1,0,0:0:0:0:
336,112,199190,6,0,L|192:112,1,142.500005435944
336,160,199490,1,0,0:0:0:0:
256,192,199640,6,0,L|432:192,1,142.500005435944
256,232,199940,1,0,0:0:0:0:
336,272,200090,6,0,L|168:272,1,142.500005435944
448,200,200390,6,0,B|448:128|448:128|384:96,1,142.500005435944
256,192,200690,5,0,0:0:0:0:
416,200,200840,6,0,B|416:128|416:128|352:96,1,142.500005435944
416,128,201140,1,0,0:0:0:0:
240,192,201327,6,0,B|240:120|240:120|304:88,1,142.500005435944
128,104,201590,5,0,0:0:0:0:
224,104,201740,1,0,0:0:0:0:
104,160,201890,1,0,0:0:0:0:
192,160,202040,1,0,0:0:0:0:
80,216,202190,5,0,0:0:0:0:
224,104,202340,1,0,0:0:0:0:
112,104,202490,1,0,0:0:0:0:
0,104,202640,1,0,0:0:0:0:
256,192,202790,1,4,0:0:0:0:
