osu file format v14

[General]
AudioFilename: 4. Helblinde - Disconnected.mp3
AudioLeadIn: 0
PreviewTime: 68610
Countdown: 0
SampleSet: Soft
StackLeniency: 0.7
Mode: 3
LetterboxInBreaks: 0
SpecialStyle: 1
WidescreenStoryboard: 1

[Editor]
DistanceSpacing: 1
BeatDivisor: 4
GridSize: 4
TimelineZoom: 1.8

[Metadata]
Title:Disconnected
TitleUnicode:Disconnected
Artist:Helblinde
ArtistUnicode:Helblinde
Creator:deadbill
Version:Xleonq's 4K SC
Source:Sword Art Online
Tags:Gaijin-core, Hardcore, Anime OST Remix, Reyzra, Crono76, Fullerene-, HEHOOOH, lZenxl, Xleonq
BeatmapID:526659
BeatmapSetID:144860

[Difficulty]
HPDrainRate:8
CircleSize:4
OverallDifficulty:8
ApproachRate:5
SliderMultiplier:1.4
SliderTickRate:1

[Events]
//Background and Video events
0,0,"url.jpg",0,0
//Break Periods
//Storyboard Layer 0 (Background)
//Storyboard Layer 1 (Fail)
//Storyboard Layer 2 (Pass)
//Storyboard Layer 3 (Foreground)
//Storyboard Sound Samples

[TimingPoints]
9510,300,4,2,1,65,1,0
28705,-100,4,2,1,50,0,0
47910,-105.263157894737,4,2,1,50,0,0
47985,-111.111111111111,4,2,1,50,0,0
48060,-117.647058823529,4,2,1,50,0,0
48135,-125,4,2,1,50,0,0
48210,-133.333333333333,4,2,1,50,0,0
52988,-100,4,2,1,65,0,0
60205,-133.333333333333,4,2,1,65,0,0
69505,-100,4,2,1,65,0,0
69810,-100,4,2,1,65,0,1
108210,-100,4,2,1,65,0,0
113015,-100,4,2,1,65,0,0
145105,-100,4,2,1,65,0,0
146755,-133.333333333333,4,2,1,20,0,0

[HitObjects]
64,192,9510,5,2,0:0:0:0:
448,192,9510,1,0,0:0:0:0:
192,192,9510,1,0,0:0:0:0:
192,192,9810,1,2,0:0:0:0:
448,192,9810,1,0,0:0:0:0:
64,192,9810,1,0,0:0:0:0:
448,192,10110,1,8,0:0:0:0:
320,192,10110,1,8,0:0:0:0:
64,192,10260,1,0,0:0:0:0:
448,192,10410,1,2,0:0:0:0:
192,192,10410,1,0,0:0:0:0:
64,192,10560,1,0,0:0:0:0:
448,192,10710,1,8,0:0:0:0:
320,192,10710,1,8,0:0:0:0:
64,192,10860,1,0,0:0:0:0:
448,192,11010,1,2,0:0:0:0:
192,192,11010,1,0,0:0:0:0:
320,192,11160,1,0,0:0:0:0:
448,192,11310,1,8,0:0:0:0:
64,192,11310,1,8,0:0:0:0:
192,192,11460,1,0,0:0:0:0:
448,192,11610,1,2,0:0:0:0:
320,192,11610,1,0,0:0:0:0:
64,192,11760,1,0,0:0:0:0:
448,192,11910,1,8,0:0:0:0:
192,192,11910,1,8,0:0:0:0:
64,192,12060,1,0,0:0:0:0:
448,192,12210,1,2,0:0:0:0:
320,192,12210,1,0,0:0:0:0:
64,192,12360,1,0,0:0:0:0:
448,192,12510,1,8,0:0:0:0:
192,192,12510,1,8,0:0:0:0:
320,192,12660,1,0,0:0:0:0:
64,192,12810,1,2,0:0:0:0:
448,192,12810,1,0,0:0:0:0:
192,192,12960,1,0,0:0:0:0:
448,192,13110,1,8,0:0:0:0:
320,192,13110,1,8,0:0:0:0:
64,192,13260,1,0,0:0:0:0:
448,192,13410,1,2,0:0:0:0:
192,192,13410,1,0,0:0:0:0:
320,192,13560,1,0,0:0:0:0:
448,192,13710,1,8,0:0:0:0:
64,192,13710,1,8,0:0:0:0:
192,192,13860,1,0,0:0:0:0:
448,192,14010,1,2,0:0:0:0:
320,192,14010,1,0,0:0:0:0:
64,192,14160,1,0,0:0:0:0:
448,192,14310,1,8,0:0:0:0:
192,192,14310,1,8,0:0:0:0:
320,192,14460,1,0,0:0:0:0:
64,192,14610,1,2,0:0:0:0:
448,192,14610,1,0,0:0:0:0:
320,192,14760,1,0,0:0:0:0:
64,192,14910,1,8,0:0:0:0:
192,192,14910,1,8,0:0:0:0:
448,192,15060,1,0,0:0:0:0:
64,192,15210,1,2,0:0:0:0:
320,192,15210,1,0,0:0:0:0:
448,192,15360,1,0,0:0:0:0:
64,192,15510,1,8,0:0:0:0:
192,192,15510,1,8,0:0:0:0:
448,192,15660,1,0,0:0:0:0:
64,192,15810,1,2,0:0:0:0:
320,192,15810,1,0,0:0:0:0:
192,192,15960,1,0,0:0:0:0:
448,192,16110,1,8,0:0:0:0:
64,192,16110,1,8,0:0:0:0:
320,192,16260,1,0,0:0:0:0:
448,192,16410,1,2,0:0:0:0:
192,192,16410,1,0,0:0:0:0:
64,192,16410,1,0,0:0:0:0:
320,192,16485,1,0,0:0:0:0:
448,192,16560,1,0,0:0:0:0:
320,192,16635,1,0,0:0:0:0:
64,192,16710,1,8,0:0:0:0:
192,192,16710,1,8,0:0:0:0:
320,192,16860,1,0,0:0:0:0:
64,192,17010,1,2,0:0:0:0:
448,192,17010,1,0,0:0:0:0:
192,192,17160,1,0,0:0:0:0:
320,192,17235,1,0,0:0:0:0:
448,192,17310,1,8,0:0:0:0:
64,192,17310,1,8,0:0:0:0:
320,192,17460,1,0,0:0:0:0:
64,192,17610,1,2,0:0:0:0:
448,192,17610,1,0,0:0:0:0:
192,192,17760,1,0,0:0:0:0:
320,192,17835,1,0,0:0:0:0:
64,192,17910,1,8,0:0:0:0:
448,192,17910,1,8,0:0:0:0:
192,192,18060,1,0,0:0:0:0:
64,192,18210,1,8,1:0:0:0:
448,192,18210,1,0,0:0:0:0:
320,192,18210,1,0,0:0:0:0:
64,192,18360,1,8,1:0:0:0:
192,192,18360,1,0,0:0:0:0:
64,192,18510,1,8,1:0:0:0:
320,192,18510,1,0,0:0:0:0:
448,192,18510,1,0,0:0:0:0:
448,192,18660,1,8,1:0:0:0:
64,192,18660,1,0,0:0:0:0:
192,192,18660,1,0,0:0:0:0:
64,192,18810,1,8,1:0:0:0:
448,192,18810,1,0,0:0:0:0:
320,192,18810,1,0,0:0:0:0:
64,192,18960,1,8,1:0:0:0:
448,192,18960,1,0,0:0:0:0:
192,192,18960,1,0,0:0:0:0:
64,192,19110,1,8,1:0:0:0:
448,192,19110,1,0,0:0:0:0:
192,192,19110,1,0,0:0:0:0:
320,192,19110,1,0,0:0:0:0:
448,192,19410,1,2,0:0:0:0:
64,192,19410,1,0,0:0:0:0:
320,192,19485,1,0,0:0:0:0:
192,192,19560,1,0,0:0:0:0:
64,192,19560,1,0,0:0:0:0:
192,192,19710,1,8,0:0:0:0:
64,192,19710,1,8,0:0:0:0:
320,192,19785,1,0,0:0:0:0:
64,192,19860,1,0,0:0:0:0:
448,192,19860,1,0,0:0:0:0:
192,192,20010,1,2,0:0:0:0:
64,192,20085,1,0,0:0:0:0:
320,192,20160,1,0,0:0:0:0:
448,192,20160,1,0,0:0:0:0:
448,192,20310,1,8,0:0:0:0:
64,192,20310,1,8,0:0:0:0:
192,192,20385,1,0,0:0:0:0:
320,192,20460,1,0,0:0:0:0:
448,192,20460,1,0,0:0:0:0:
192,192,20610,1,2,0:0:0:0:
64,192,20685,1,0,0:0:0:0:
320,192,20760,1,0,0:0:0:0:
448,192,20760,1,0,0:0:0:0:
192,192,20910,1,8,0:0:0:0:
64,192,20910,1,8,0:0:0:0:
320,192,20985,1,0,0:0:0:0:
448,192,21060,1,0,0:0:0:0:
192,192,21060,1,0,0:0:0:0:
64,192,21210,1,2,0:0:0:0:
192,192,21285,1,0,0:0:0:0:
320,192,21360,1,0,0:0:0:0:
448,192,21360,1,0,0:0:0:0:
320,192,21510,1,8,0:0:0:0:
64,192,21510,1,8,0:0:0:0:
192,192,21585,1,0,0:0:0:0:
64,192,21660,1,0,0:0:0:0:
448,192,21660,1,0,0:0:0:0:
64,192,21810,1,2,0:0:0:0:
320,192,21810,1,0,0:0:0:0:
192,192,21885,1,0,0:0:0:0:
320,192,21960,1,0,0:0:0:0:
448,192,21960,1,0,0:0:0:0:
320,192,22110,1,8,0:0:0:0:
448,192,22110,1,8,0:0:0:0:
64,192,22110,1,0,0:0:0:0:
192,192,22185,1,0,0:0:0:0:
64,192,22260,1,0,0:0:0:0:
448,192,22260,1,0,0:0:0:0:
448,192,22410,1,6,0:0:0:0:
192,192,22410,1,0,0:0:0:0:
320,192,22485,1,0,0:0:0:0:
64,192,22560,1,0,0:0:0:0:
192,192,22560,1,0,0:0:0:0:
320,192,22635,1,0,0:0:0:0:
448,192,22710,1,8,0:0:0:0:
192,192,22710,1,8,0:0:0:0:
192,192,22860,1,0,0:0:0:0:
64,192,22860,1,0,0:0:0:0:
320,192,22935,1,0,0:0:0:0:
192,192,23010,1,2,0:0:0:0:
448,192,23010,1,0,0:0:0:0:
320,192,23085,1,0,0:0:0:0:
192,192,23160,1,0,0:0:0:0:
448,192,23160,1,0,0:0:0:0:
320,192,23235,1,0,0:0:0:0:
192,192,23310,1,8,0:0:0:0:
448,192,23310,1,8,0:0:0:0:
64,192,23460,1,0,0:0:0:0:
320,192,23460,1,0,0:0:0:0:
192,192,23610,1,0,0:0:0:0:
64,192,23610,1,0,0:0:0:0:
320,192,23685,1,0,0:0:0:0:
192,192,23760,1,0,0:0:0:0:
448,192,23760,1,0,0:0:0:0:
192,192,23910,1,8,1:0:0:0:
448,192,23910,1,0,0:0:0:0:
192,192,24060,1,8,1:0:0:0:
448,192,24060,1,0,0:0:0:0:
192,192,24210,1,8,1:0:0:0:
64,192,24210,1,0,0:0:0:0:
448,192,24210,1,0,0:0:0:0:
320,192,24285,1,0,0:0:0:0:
192,192,24360,1,0,0:0:0:0:
320,192,24435,1,0,0:0:0:0:
192,192,24510,1,8,0:0:0:0:
64,192,24510,1,8,0:0:0:0:
448,192,24510,1,0,0:0:0:0:
320,192,24585,1,0,0:0:0:0:
192,192,24660,1,0,0:0:0:0:
320,192,24735,1,0,0:0:0:0:
192,192,24810,1,2,0:0:0:0:
64,192,24810,1,0,0:0:0:0:
448,192,24810,1,0,0:0:0:0:
320,192,24885,1,0,0:0:0:0:
448,192,24960,1,0,0:0:0:0:
192,192,25035,1,0,0:0:0:0:
320,192,25110,1,8,0:0:0:0:
448,192,25110,1,8,0:0:0:0:
64,192,25110,1,0,0:0:0:0:
192,192,25185,1,0,0:0:0:0:
64,192,25260,1,0,0:0:0:0:
192,192,25335,1,0,0:0:0:0:
448,192,25410,1,2,0:0:0:0:
320,192,25410,1,0,0:0:0:0:
64,192,25410,1,0,0:0:0:0:
192,192,25485,1,0,0:0:0:0:
64,192,25560,1,0,0:0:0:0:
192,192,25635,1,0,0:0:0:0:
64,192,25710,1,8,0:0:0:0:
320,192,25710,1,8,0:0:0:0:
448,192,25710,1,0,0:0:0:0:
192,192,25785,1,0,0:0:0:0:
64,192,25860,1,0,0:0:0:0:
192,192,25935,1,0,0:0:0:0:
320,192,26010,1,2,0:0:0:0:
64,192,26010,1,0,0:0:0:0:
192,192,26085,1,0,0:0:0:0:
320,192,26160,1,0,0:0:0:0:
448,192,26235,1,0,0:0:0:0:
320,192,26310,1,8,0:0:0:0:
64,192,26310,1,8,0:0:0:0:
192,192,26385,1,0,0:0:0:0:
320,192,26460,1,0,0:0:0:0:
448,192,26535,1,0,0:0:0:0:
64,192,26610,1,2,0:0:0:0:
320,192,26610,1,0,0:0:0:0:
192,192,26760,1,0,0:0:0:0:
448,192,26760,1,0,0:0:0:0:
192,192,26910,1,8,0:0:0:0:
448,192,26910,1,8,0:0:0:0:
64,192,27060,1,0,0:0:0:0:
320,192,27060,1,0,0:0:0:0:
192,192,27210,1,2,0:0:0:0:
448,192,27210,1,0,0:0:0:0:
320,192,27360,1,0,0:0:0:0:
64,192,27360,1,0,0:0:0:0:
192,192,27510,1,8,0:0:0:0:
448,192,27510,1,8,0:0:0:0:
64,192,27660,1,0,0:0:0:0:
320,192,27660,1,0,0:0:0:0:
320,192,27810,1,2,0:0:0:0:
448,192,27810,1,0,0:0:0:0:
192,192,27810,1,0,0:0:0:0:
64,192,27960,1,0,0:0:0:0:
192,192,27960,1,0,0:0:0:0:
448,192,28110,1,8,0:0:0:0:
320,192,28110,1,8,0:0:0:0:
192,192,28110,1,0,0:0:0:0:
64,192,28260,1,0,0:0:0:0:
192,192,28260,1,0,0:0:0:0:
448,192,28410,1,2,0:0:0:0:
320,192,28410,1,0,0:0:0:0:
192,192,28410,1,0,0:0:0:0:
64,192,28560,1,0,0:0:0:0:
192,192,28560,1,0,0:0:0:0:
192,192,28710,1,8,0:0:0:0:
320,192,28710,1,8,0:0:0:0:
448,192,28710,1,0,0:0:0:0:
64,192,28710,1,0,0:0:0:0:
320,192,29010,1,2,0:0:0:0:
448,192,29010,1,0,0:0:0:0:
192,192,29160,1,0,0:0:0:0:
64,192,29160,1,0,0:0:0:0:
320,192,29310,1,8,0:0:0:0:
448,192,29310,1,8,0:0:0:0:
64,192,29460,1,0,0:0:0:0:
192,192,29460,1,0,0:0:0:0:
448,192,29610,1,2,0:0:0:0:
192,192,29610,1,0,0:0:0:0:
320,192,29760,1,0,0:0:0:0:
64,192,29760,1,0,0:0:0:0:
64,192,29910,1,8,0:0:0:0:
192,192,29910,1,8,0:0:0:0:
192,192,30060,1,0,0:0:0:0:
448,192,30060,1,0,0:0:0:0:
320,192,30210,1,2,0:0:0:0:
64,192,30210,1,0,0:0:0:0:
192,192,30360,1,0,0:0:0:0:
448,192,30360,1,0,0:0:0:0:
320,192,30510,1,8,0:0:0:0:
64,192,30510,1,8,0:0:0:0:
192,192,30660,1,0,0:0:0:0:
448,192,30660,1,0,0:0:0:0:
64,192,30810,1,2,0:0:0:0:
320,192,30810,1,0,0:0:0:0:
64,192,30960,1,0,0:0:0:0:
320,192,30960,1,0,0:0:0:0:
192,192,31035,1,0,0:0:0:0:
320,192,31110,1,8,0:0:0:0:
448,192,31110,1,8,0:0:0:0:
448,192,31260,1,0,0:0:0:0:
320,192,31260,1,0,0:0:0:0:
64,192,31410,1,2,0:0:0:0:
192,192,31410,1,0,0:0:0:0:
320,192,31560,1,0,0:0:0:0:
448,192,31560,1,0,0:0:0:0:
64,192,31710,1,8,0:0:0:0:
192,192,31710,1,8,0:0:0:0:
448,192,31860,1,0,0:0:0:0:
192,192,31860,1,0,0:0:0:0:
64,192,32010,1,2,0:0:0:0:
320,192,32010,1,0,0:0:0:0:
192,192,32160,1,0,0:0:0:0:
448,192,32160,1,0,0:0:0:0:
320,192,32310,1,8,0:0:0:0:
448,192,32310,1,8,0:0:0:0:
192,192,32460,1,0,0:0:0:0:
448,192,32460,1,0,0:0:0:0:
64,192,32610,1,2,0:0:0:0:
320,192,32610,1,0,0:0:0:0:
192,192,32760,1,0,0:0:0:0:
448,192,32760,1,0,0:0:0:0:
64,192,32910,1,8,0:0:0:0:
320,192,32910,1,8,0:0:0:0:
64,192,33060,1,0,0:0:0:0:
192,192,33060,1,0,0:0:0:0:
320,192,33210,1,0,0:0:0:0:
448,192,33210,1,0,0:0:0:0:
320,192,33360,1,0,0:0:0:0:
192,192,33360,1,0,0:0:0:0:
64,192,33510,1,8,0:0:0:0:
192,192,33510,1,8,0:0:0:0:
448,192,33660,1,0,0:0:0:0:
320,192,33660,1,0,0:0:0:0:
320,192,33810,1,2,0:0:0:0:
192,192,33810,1,2,0:0:0:0:
64,192,33960,1,0,0:0:0:0:
192,192,33960,1,0,0:0:0:0:
320,192,34110,1,8,0:0:0:0:
448,192,34110,1,8,0:0:0:0:
192,192,34260,1,0,0:0:0:0:
320,192,34260,1,0,0:0:0:0:
64,192,34410,1,2,0:0:0:0:
448,192,34410,1,0,0:0:0:0:
192,192,34410,1,0,0:0:0:0:
320,192,34560,1,0,0:0:0:0:
448,192,34710,1,8,0:0:0:0:
64,192,34710,1,8,0:0:0:0:
192,192,34710,1,0,0:0:0:0:
320,192,34860,1,0,0:0:0:0:
64,192,35010,1,2,0:0:0:0:
448,192,35010,1,0,0:0:0:0:
192,192,35010,1,0,0:0:0:0:
320,192,35160,1,0,0:0:0:0:
64,192,35310,1,8,0:0:0:0:
448,192,35310,1,8,0:0:0:0:
192,192,35310,1,0,0:0:0:0:
192,192,35460,1,0,0:0:0:0:
448,192,35610,1,2,0:0:0:0:
320,192,35610,1,0,0:0:0:0:
64,192,35610,1,0,0:0:0:0:
192,192,35760,1,0,0:0:0:0:
448,192,35910,1,8,0:0:0:0:
320,192,35910,1,8,0:0:0:0:
64,192,35910,1,0,0:0:0:0:
192,192,36060,1,0,0:0:0:0:
448,192,36210,1,2,0:0:0:0:
64,192,36210,1,0,0:0:0:0:
320,192,36210,1,0,0:0:0:0:
192,192,36360,1,0,0:0:0:0:
320,192,36510,1,8,0:0:0:0:
64,192,36510,1,8,0:0:0:0:
448,192,36510,1,0,0:0:0:0:
192,192,36660,1,0,0:0:0:0:
448,192,36810,1,2,0:0:0:0:
64,192,36810,1,0,0:0:0:0:
320,192,36810,1,0,0:0:0:0:
192,192,36960,1,0,0:0:0:0:
320,192,37110,1,8,0:0:0:0:
64,192,37110,1,8,0:0:0:0:
448,192,37110,1,0,0:0:0:0:
192,192,37260,1,0,0:0:0:0:
320,192,37410,1,2,0:0:0:0:
448,192,37410,1,0,0:0:0:0:
64,192,37410,1,0,0:0:0:0:
192,192,37485,1,0,0:0:0:0:
64,192,37560,1,0,0:0:0:0:
192,192,37635,1,0,0:0:0:0:
320,192,37710,1,8,0:0:0:0:
448,192,37710,1,8,0:0:0:0:
192,192,37785,1,0,0:0:0:0:
64,192,37860,1,0,0:0:0:0:
192,192,37935,1,0,0:0:0:0:
448,192,38010,1,2,0:0:0:0:
320,192,38010,1,0,0:0:0:0:
192,192,38085,1,0,0:0:0:0:
64,192,38160,1,0,0:0:0:0:
192,192,38235,1,0,0:0:0:0:
448,192,38310,1,8,0:0:0:0:
64,192,38310,1,8,0:0:0:0:
320,192,38310,1,0,0:0:0:0:
192,192,38460,1,0,0:0:0:0:
192,192,38610,1,2,0:0:0:0:
64,192,38610,1,0,0:0:0:0:
448,192,38760,1,0,0:0:0:0:
320,192,38910,1,8,0:0:0:0:
64,192,38910,1,8,0:0:0:0:
448,192,39060,1,0,0:0:0:0:
192,192,39210,1,2,0:0:0:0:
64,192,39210,1,0,0:0:0:0:
320,192,39360,1,0,0:0:0:0:
448,192,39510,1,8,0:0:0:0:
192,192,39510,1,8,0:0:0:0:
64,192,39660,1,0,0:0:0:0:
320,192,39810,1,2,0:0:0:0:
448,192,39810,1,0,0:0:0:0:
64,192,39960,1,0,0:0:0:0:
192,192,40110,1,8,0:0:0:0:
448,192,40110,1,8,0:0:0:0:
64,192,40260,1,0,0:0:0:0:
320,192,40410,1,2,0:0:0:0:
448,192,40410,1,0,0:0:0:0:
64,192,40560,1,0,0:0:0:0:
320,192,40710,1,8,0:0:0:0:
448,192,40710,1,8,0:0:0:0:
64,192,40860,1,0,0:0:0:0:
192,192,41010,1,2,0:0:0:0:
448,192,41010,1,0,0:0:0:0:
64,192,41160,1,0,0:0:0:0:
320,192,41310,1,8,0:0:0:0:
192,192,41310,1,8,0:0:0:0:
64,192,41460,1,0,0:0:0:0:
320,192,41610,1,2,0:0:0:0:
448,192,41610,1,0,0:0:0:0:
192,192,41760,1,0,0:0:0:0:
320,192,41910,1,8,0:0:0:0:
448,192,41910,1,8,0:0:0:0:
192,192,42060,1,0,0:0:0:0:
64,192,42210,1,2,0:0:0:0:
320,192,42210,1,0,0:0:0:0:
192,192,42360,1,0,0:0:0:0:
64,192,42510,1,8,0:0:0:0:
448,192,42510,1,8,0:0:0:0:
192,192,42660,1,0,0:0:0:0:
320,192,42810,1,2,0:0:0:0:
64,192,42810,1,0,0:0:0:0:
192,192,42960,1,0,0:0:0:0:
320,192,43110,1,8,0:0:0:0:
448,192,43110,1,8,0:0:0:0:
320,192,43260,1,0,0:0:0:0:
64,192,43410,1,2,0:0:0:0:
448,192,43410,1,0,0:0:0:0:
320,192,43485,1,0,0:0:0:0:
192,192,43560,1,0,0:0:0:0:
320,192,43635,1,0,0:0:0:0:
448,192,43710,1,8,0:0:0:0:
64,192,43710,1,8,0:0:0:0:
192,192,43785,1,0,0:0:0:0:
320,192,43860,1,0,0:0:0:0:
64,192,43935,1,0,0:0:0:0:
192,192,44010,1,2,0:0:0:0:
448,192,44010,1,0,0:0:0:0:
320,192,44085,1,0,0:0:0:0:
192,192,44160,1,0,0:0:0:0:
320,192,44235,1,0,0:0:0:0:
448,192,44310,1,8,0:0:0:0:
64,192,44310,1,8,0:0:0:0:
192,192,44385,1,0,0:0:0:0:
320,192,44460,1,0,0:0:0:0:
192,192,44535,1,0,0:0:0:0:
448,192,44610,1,2,0:0:0:0:
320,192,44610,1,0,0:0:0:0:
64,192,44685,1,0,0:0:0:0:
320,192,44760,1,0,0:0:0:0:
192,192,44835,1,0,0:0:0:0:
448,192,44910,1,8,0:0:0:0:
320,192,44910,1,8,0:0:0:0:
64,192,44985,1,0,0:0:0:0:
192,192,45060,1,0,0:0:0:0:
320,192,45135,1,0,0:0:0:0:
64,192,45210,1,2,0:0:0:0:
448,192,45210,1,0,0:0:0:0:
320,192,45285,1,0,0:0:0:0:
192,192,45360,1,0,0:0:0:0:
320,192,45435,1,0,0:0:0:0:
448,192,45510,1,8,0:0:0:0:
64,192,45510,1,8,0:0:0:0:
320,192,45585,1,0,0:0:0:0:
192,192,45660,1,0,0:0:0:0:
64,192,45735,1,0,0:0:0:0:
320,192,45810,1,2,0:0:0:0:
448,192,45810,1,0,0:0:0:0:
192,192,45885,1,0,0:0:0:0:
448,192,45960,1,0,0:0:0:0:
64,192,46035,1,0,0:0:0:0:
320,192,46110,1,8,0:0:0:0:
192,192,46110,1,8,0:0:0:0:
448,192,46185,1,0,0:0:0:0:
192,192,46260,1,0,0:0:0:0:
320,192,46335,1,0,0:0:0:0:
192,192,46410,1,2,0:0:0:0:
64,192,46410,1,0,0:0:0:0:
320,192,46485,1,0,0:0:0:0:
448,192,46560,1,0,0:0:0:0:
192,192,46635,1,0,0:0:0:0:
320,192,46710,1,8,0:0:0:0:
64,192,46710,1,8,0:0:0:0:
192,192,46785,1,0,0:0:0:0:
320,192,46860,1,0,0:0:0:0:
448,192,46935,1,0,0:0:0:0:
192,192,47010,1,2,0:0:0:0:
64,192,47010,1,0,0:0:0:0:
192,192,47310,1,8,0:0:0:0:
448,192,47310,1,8,0:0:0:0:
448,192,47610,1,2,0:0:0:0:
320,192,47610,1,0,0:0:0:0:
192,192,47910,1,2,0:0:0:0:
448,192,47910,1,0,0:0:0:0:
64,192,48210,128,8,48885:0:0:0:0:
192,192,48210,1,8,0:0:0:0:
320,192,48210,1,0,0:0:0:0:
448,192,48210,1,0,0:0:0:0:
192,192,48510,1,0,0:0:0:0:
320,192,48510,1,0,0:0:0:0:
448,192,48510,1,0,0:0:0:0:
320,192,48660,1,0,0:0:0:0:
448,192,48660,1,0,0:0:0:0:
192,192,48660,1,0,0:0:0:0:
192,192,48885,128,0,49110:0:0:0:0:
448,192,49110,128,0,49410:0:0:0:0:
320,192,49110,1,0,0:0:0:0:
64,192,49110,1,0,0:0:0:0:
320,192,49410,128,0,49860:0:0:0:0:
64,192,49410,1,0,0:0:0:0:
192,192,49410,1,0,0:0:0:0:
64,192,49710,1,0,0:0:0:0:
448,192,49710,1,0,0:0:0:0:
192,192,49710,1,0,0:0:0:0:
192,192,49860,128,0,50085:0:0:0:0:
448,192,49860,1,0,0:0:0:0:
64,192,49860,1,0,0:0:0:0:
192,192,50310,128,0,50460:0:0:0:0:
448,192,50310,1,0,0:0:0:0:
64,192,50310,1,0,0:0:0:0:
320,192,50460,128,0,50610:0:0:0:0:
448,192,50610,128,4,51060:0:0:0:0:
64,192,50610,1,4,0:0:0:0:
192,192,50610,1,0,0:0:0:0:
64,192,50910,1,0,0:0:0:0:
192,192,50910,1,0,0:0:0:0:
320,192,50910,1,0,0:0:0:0:
192,192,51060,128,0,51510:0:0:0:0:
320,192,51060,1,0,0:0:0:0:
64,192,51060,1,0,0:0:0:0:
64,192,51510,1,0,0:0:0:0:
320,192,51510,1,0,0:0:0:0:
448,192,51510,1,0,0:0:0:0:
448,192,51810,128,0,52260:0:0:0:0:
320,192,51810,1,0,0:0:0:0:
64,192,51810,1,0,0:0:0:0:
192,192,51810,1,0,0:0:0:0:
192,192,52110,1,0,0:0:0:0:
64,192,52110,1,0,0:0:0:0:
320,192,52110,1,0,0:0:0:0:
64,192,52260,128,0,52710:0:0:0:0:
192,192,52260,1,0,0:0:0:0:
320,192,52260,1,0,0:0:0:0:
192,192,52710,1,0,0:0:0:0:
320,192,52710,1,0,0:0:0:0:
448,192,52710,1,0,0:0:0:0:
192,192,53010,1,8,1:0:0:0:
320,192,53010,1,0,0:0:0:0:
448,192,53010,1,0,0:0:0:0:
192,192,53160,1,8,1:0:0:0:
320,192,53160,1,0,0:0:0:0:
448,192,53160,1,0,0:0:0:0:
448,192,53460,1,8,1:0:0:0:
320,192,53460,1,0,0:0:0:0:
192,192,53460,1,0,0:0:0:0:
192,192,53760,1,8,1:0:0:0:
320,192,53760,1,0,0:0:0:0:
448,192,53760,1,0,0:0:0:0:
64,192,54060,1,8,1:0:0:0:
192,192,54060,1,0,0:0:0:0:
320,192,54060,1,0,0:0:0:0:
320,192,54210,1,8,1:0:0:0:
64,192,54210,1,0,0:0:0:0:
192,192,54210,1,0,0:0:0:0:
64,192,54360,1,8,1:0:0:0:
192,192,54360,1,0,0:0:0:0:
320,192,54360,1,0,0:0:0:0:
320,192,54810,1,8,1:0:0:0:
448,192,54810,1,0,0:0:0:0:
192,192,54810,1,0,0:0:0:0:
192,192,55110,1,8,1:0:0:0:
64,192,55110,1,0,0:0:0:0:
320,192,55110,1,0,0:0:0:0:
192,192,55410,1,8,1:0:0:0:
320,192,55410,1,0,0:0:0:0:
448,192,55410,1,0,0:0:0:0:
64,192,55560,1,8,1:0:0:0:
320,192,55560,1,0,0:0:0:0:
192,192,55560,1,0,0:0:0:0:
192,192,55860,1,8,1:0:0:0:
320,192,55860,1,0,0:0:0:0:
448,192,55860,1,0,0:0:0:0:
192,192,56160,1,8,1:0:0:0:
320,192,56160,1,0,0:0:0:0:
448,192,56160,1,0,0:0:0:0:
448,192,56460,1,8,1:0:0:0:
64,192,56460,1,0,0:0:0:0:
192,192,56460,1,0,0:0:0:0:
64,192,56610,1,8,1:0:0:0:
192,192,56610,1,0,0:0:0:0:
448,192,56610,1,0,0:0:0:0:
64,192,56760,1,8,1:0:0:0:
320,192,56760,1,0,0:0:0:0:
448,192,56760,1,0,0:0:0:0:
320,192,56910,1,8,1:0:0:0:
448,192,56910,1,0,0:0:0:0:
64,192,56910,1,0,0:0:0:0:
320,192,57210,1,8,1:0:0:0:
448,192,57210,1,0,0:0:0:0:
64,192,57210,1,0,0:0:0:0:
320,192,57510,1,8,1:0:0:0:
448,192,57510,1,0,0:0:0:0:
64,192,57510,1,0,0:0:0:0:
64,192,57810,1,0,0:0:0:0:
192,192,57810,1,0,0:0:0:0:
448,192,57810,1,0,0:0:0:0:
320,192,58110,1,0,0:0:0:0:
192,192,58410,1,0,0:0:0:0:
64,192,58410,1,0,0:0:0:0:
320,192,58710,1,0,0:0:0:0:
448,192,59010,1,0,0:0:0:0:
320,192,59310,1,0,0:0:0:0:
192,192,59610,1,0,0:0:0:0:
64,192,59610,1,0,0:0:0:0:
448,192,60210,1,2,0:0:0:0:
192,192,60210,128,0,60510:0:0:0:0:
320,192,60210,1,0,0:0:0:0:
64,192,60210,1,0,0:0:0:0:
64,192,60510,1,2,0:0:0:0:
320,192,60510,128,0,60810:0:0:0:0:
448,192,60510,1,0,0:0:0:0:
448,192,60810,1,2,0:0:0:0:
192,192,60810,128,0,61110:0:0:0:0:
64,192,60810,1,0,0:0:0:0:
64,192,61110,1,2,0:0:0:0:
320,192,61110,128,0,61410:0:0:0:0:
448,192,61110,1,0,0:0:0:0:
64,192,61410,1,2,0:0:0:0:
448,192,61410,128,0,61710:0:0:0:0:
192,192,61410,1,0,0:0:0:0:
64,192,61710,128,2,62010:0:0:0:0:
192,192,61710,1,0,0:0:0:0:
320,192,61710,1,0,0:0:0:0:
320,192,62010,1,2,0:0:0:0:
192,192,62010,1,0,0:0:0:0:
448,192,62010,1,0,0:0:0:0:
448,192,62310,1,2,0:0:0:0:
192,192,62310,1,0,0:0:0:0:
320,192,62310,1,0,0:0:0:0:
64,192,62310,1,0,0:0:0:0:
64,192,62610,1,2,0:0:0:0:
320,192,62610,1,0,0:0:0:0:
192,192,62610,128,0,62760:0:0:0:0:
448,192,62610,1,0,0:0:0:0:
448,192,62760,128,0,62910:0:0:0:0:
64,192,62910,1,2,0:0:0:0:
320,192,62910,1,0,0:0:0:0:
192,192,62910,128,0,63060:0:0:0:0:
448,192,63060,128,0,63210:0:0:0:0:
192,192,63210,1,2,0:0:0:0:
64,192,63210,128,0,63360:0:0:0:0:
320,192,63210,1,0,0:0:0:0:
192,192,63510,1,2,0:0:0:0:
448,192,63510,128,0,63810:0:0:0:0:
320,192,63510,1,0,0:0:0:0:
64,192,63510,1,0,0:0:0:0:
320,192,63810,1,2,0:0:0:0:
64,192,63810,128,0,64110:0:0:0:0:
192,192,63810,1,0,0:0:0:0:
448,192,64110,1,2,0:0:0:0:
192,192,64110,1,0,0:0:0:0:
320,192,64110,1,0,0:0:0:0:
64,192,64410,1,2,0:0:0:0:
192,192,64410,1,0,0:0:0:0:
320,192,64410,1,0,0:0:0:0:
448,192,64410,1,0,0:0:0:0:
64,192,64710,1,2,0:0:0:0:
320,192,64710,1,0,0:0:0:0:
448,192,64710,1,0,0:0:0:0:
192,192,64710,1,0,0:0:0:0:
448,192,65010,1,2,0:0:0:0:
192,192,65010,1,0,0:0:0:0:
320,192,65010,1,0,0:0:0:0:
64,192,65010,128,0,65310:0:0:0:0:
448,192,65160,1,0,0:0:0:0:
448,192,65310,1,2,0:0:0:0:
192,192,65310,128,0,65610:0:0:0:0:
448,192,65460,1,0,0:0:0:0:
64,192,65610,128,2,65910:0:0:0:0:
448,192,65610,1,0,0:0:0:0:
320,192,65610,1,0,0:0:0:0:
448,192,65760,1,0,0:0:0:0:
320,192,65910,1,2,0:0:0:0:
192,192,65910,128,0,66210:0:0:0:0:
448,192,65910,1,0,0:0:0:0:
448,192,66060,1,0,0:0:0:0:
320,192,66210,1,2,0:0:0:0:
64,192,66210,128,0,66510:0:0:0:0:
448,192,66210,1,0,0:0:0:0:
448,192,66360,1,0,0:0:0:0:
192,192,66510,128,0,66810:0:0:0:0:
448,192,66510,1,0,0:0:0:0:
448,192,66660,1,0,0:0:0:0:
320,192,66810,1,2,0:0:0:0:
448,192,66810,1,0,0:0:0:0:
64,192,66810,1,0,0:0:0:0:
448,192,66960,1,0,0:0:0:0:
192,192,67110,1,0,0:0:0:0:
64,192,67110,1,0,0:0:0:0:
320,192,67110,1,0,0:0:0:0:
448,192,67110,1,0,0:0:0:0:
448,192,67260,1,0,0:0:0:0:
192,192,67410,1,2,0:0:0:0:
448,192,67410,1,0,0:0:0:0:
320,192,67410,1,0,0:0:0:0:
64,192,67410,1,0,0:0:0:0:
320,192,67560,128,2,67710:0:0:0:0:
192,192,67560,1,0,0:0:0:0:
64,192,67710,1,2,0:0:0:0:
448,192,67710,128,0,67860:0:0:0:0:
192,192,67860,1,2,0:0:0:0:
320,192,67860,128,0,68010:0:0:0:0:
448,192,68010,128,2,68160:0:0:0:0:
64,192,68010,1,0,0:0:0:0:
320,192,68160,128,2,68310:0:0:0:0:
192,192,68160,1,0,0:0:0:0:
448,192,68310,128,2,68610:0:0:0:0:
64,192,68310,1,0,0:0:0:0:
192,192,68460,1,2,0:0:0:0:
320,192,68610,1,2,0:0:0:0:
64,192,68610,1,0,0:0:0:0:
192,192,68685,1,0,0:0:0:0:
320,192,68760,1,0,0:0:0:0:
448,192,68835,1,0,0:0:0:0:
320,192,68910,1,0,0:0:0:0:
192,192,68985,1,0,0:0:0:0:
64,192,69060,1,0,0:0:0:0:
192,192,69135,1,0,0:0:0:0:
320,192,69210,1,0,0:0:0:0:
448,192,69285,1,0,0:0:0:0:
320,192,69360,1,0,0:0:0:0:
192,192,69435,1,0,0:0:0:0:
64,192,69510,1,8,0:0:0:0:
320,192,69510,1,8,0:0:0:0:
448,192,69510,1,0,0:0:0:0:
320,192,69810,1,0,0:0:0:0:
448,192,69810,1,0,0:0:0:0:
64,192,69810,1,0,0:0:0:0:
192,192,69885,1,0,0:0:0:0:
320,192,69960,1,0,0:0:0:0:
192,192,70035,1,0,0:0:0:0:
320,192,70110,1,8,0:0:0:0:
448,192,70110,1,8,0:0:0:0:
64,192,70185,1,0,0:0:0:0:
320,192,70260,1,0,0:0:0:0:
192,192,70335,1,0,0:0:0:0:
320,192,70410,1,2,0:0:0:0:
448,192,70410,1,0,0:0:0:0:
192,192,70485,1,0,0:0:0:0:
320,192,70560,1,0,0:0:0:0:
64,192,70635,1,0,0:0:0:0:
192,192,70710,1,8,0:0:0:0:
448,192,70710,1,8,0:0:0:0:
320,192,70785,1,0,0:0:0:0:
192,192,70860,1,0,0:0:0:0:
320,192,70935,1,0,0:0:0:0:
448,192,71010,1,2,0:0:0:0:
64,192,71010,1,2,0:0:0:0:
192,192,71085,1,0,0:0:0:0:
320,192,71160,1,0,0:0:0:0:
192,192,71235,1,0,0:0:0:0:
64,192,71310,1,8,0:0:0:0:
448,192,71310,1,8,0:0:0:0:
192,192,71385,1,0,0:0:0:0:
448,192,71460,1,0,0:0:0:0:
320,192,71535,1,0,0:0:0:0:
192,192,71610,1,0,0:0:0:0:
64,192,71610,1,0,0:0:0:0:
320,192,71685,1,0,0:0:0:0:
448,192,71760,1,0,0:0:0:0:
192,192,71835,1,0,0:0:0:0:
320,192,71910,1,8,0:0:0:0:
448,192,71910,1,8,0:0:0:0:
192,192,71985,1,0,0:0:0:0:
64,192,72060,1,0,0:0:0:0:
320,192,72135,1,0,0:0:0:0:
448,192,72210,1,2,0:0:0:0:
192,192,72210,1,0,0:0:0:0:
320,192,72285,1,0,0:0:0:0:
192,192,72360,1,0,0:0:0:0:
64,192,72435,1,0,0:0:0:0:
320,192,72510,1,8,0:0:0:0:
448,192,72510,1,8,0:0:0:0:
192,192,72585,1,0,0:0:0:0:
320,192,72660,1,0,0:0:0:0:
192,192,72735,1,0,0:0:0:0:
64,192,72810,1,2,0:0:0:0:
448,192,72810,1,0,0:0:0:0:
320,192,72885,1,0,0:0:0:0:
192,192,72960,1,0,0:0:0:0:
320,192,73035,1,0,0:0:0:0:
448,192,73110,1,8,0:0:0:0:
64,192,73110,1,8,0:0:0:0:
320,192,73185,1,0,0:0:0:0:
192,192,73260,1,0,0:0:0:0:
64,192,73335,1,0,0:0:0:0:
192,192,73410,1,2,0:0:0:0:
320,192,73410,1,0,0:0:0:0:
448,192,73485,1,0,0:0:0:0:
192,192,73560,1,0,0:0:0:0:
448,192,73635,1,0,0:0:0:0:
192,192,73710,1,8,0:0:0:0:
64,192,73710,1,8,0:0:0:0:
320,192,73785,1,0,0:0:0:0:
192,192,73860,1,0,0:0:0:0:
320,192,73935,1,0,0:0:0:0:
448,192,74010,1,2,0:0:0:0:
64,192,74010,1,0,0:0:0:0:
192,192,74085,1,0,0:0:0:0:
320,192,74160,1,0,0:0:0:0:
64,192,74235,1,0,0:0:0:0:
192,192,74310,1,8,0:0:0:0:
320,192,74310,1,8,0:0:0:0:
448,192,74385,1,0,0:0:0:0:
192,192,74460,1,0,0:0:0:0:
448,192,74535,1,0,0:0:0:0:
192,192,74610,1,2,0:0:0:0:
320,192,74610,1,0,0:0:0:0:
448,192,74685,1,0,0:0:0:0:
64,192,74760,1,0,0:0:0:0:
192,192,74835,1,0,0:0:0:0:
320,192,74910,1,8,0:0:0:0:
448,192,74910,1,8,0:0:0:0:
192,192,74985,1,0,0:0:0:0:
320,192,75060,1,0,0:0:0:0:
64,192,75135,1,0,0:0:0:0:
320,192,75210,1,2,0:0:0:0:
448,192,75210,1,0,0:0:0:0:
192,192,75285,1,0,0:0:0:0:
64,192,75360,1,0,0:0:0:0:
320,192,75435,1,0,0:0:0:0:
192,192,75510,1,8,0:0:0:0:
448,192,75510,1,8,0:0:0:0:
320,192,75585,1,0,0:0:0:0:
192,192,75660,1,0,0:0:0:0:
320,192,75735,1,0,0:0:0:0:
64,192,75810,1,2,0:0:0:0:
448,192,75810,1,0,0:0:0:0:
192,192,75885,1,0,0:0:0:0:
320,192,75960,1,0,0:0:0:0:
64,192,76035,1,0,0:0:0:0:
192,192,76110,1,8,0:0:0:0:
320,192,76110,1,8,0:0:0:0:
448,192,76185,1,0,0:0:0:0:
192,192,76260,1,0,0:0:0:0:
320,192,76335,1,0,0:0:0:0:
192,192,76410,1,2,0:0:0:0:
64,192,76410,1,0,0:0:0:0:
320,192,76485,1,0,0:0:0:0:
448,192,76560,1,0,0:0:0:0:
192,192,76635,1,0,0:0:0:0:
320,192,76710,1,8,0:0:0:0:
448,192,76710,1,8,0:0:0:0:
64,192,76785,1,0,0:0:0:0:
320,192,76860,1,0,0:0:0:0:
192,192,76935,1,0,0:0:0:0:
448,192,77010,1,2,1:0:0:0:
320,192,77010,1,0,0:0:0:0:
64,192,77085,1,0,0:0:0:0:
320,192,77160,1,0,0:0:0:0:
192,192,77235,1,0,0:0:0:0:
448,192,77310,1,2,1:0:0:0:
320,192,77310,1,0,0:0:0:0:
192,192,77385,1,0,0:0:0:0:
320,192,77460,1,2,1:0:0:0:
192,192,77535,1,0,0:0:0:0:
64,192,77610,1,0,0:0:0:0:
320,192,77610,1,0,0:0:0:0:
448,192,77685,1,0,0:0:0:0:
192,192,77760,1,2,1:0:0:0:
320,192,77835,1,0,0:0:0:0:
64,192,77910,1,0,0:0:0:0:
192,192,77910,1,0,0:0:0:0:
320,192,77985,1,0,0:0:0:0:
448,192,78060,1,2,1:0:0:0:
192,192,78135,1,0,0:0:0:0:
320,192,78210,1,2,1:0:0:0:
64,192,78210,1,0,0:0:0:0:
448,192,78360,1,2,0:0:0:0:
192,192,78360,1,0,0:0:0:0:
64,192,78510,1,0,0:0:0:0:
320,192,78510,1,0,0:0:0:0:
192,192,78660,1,0,0:0:0:0:
448,192,78660,1,0,0:0:0:0:
320,192,78810,1,2,0:0:0:0:
64,192,78810,1,0,0:0:0:0:
320,192,78960,1,2,0:0:0:0:
64,192,78960,1,0,0:0:0:0:
64,192,79110,1,2,0:0:0:0:
320,192,79110,1,0,0:0:0:0:
192,192,79410,1,2,0:0:0:0:
448,192,79410,1,2,0:0:0:0:
320,192,79485,1,0,0:0:0:0:
192,192,79560,1,0,0:0:0:0:
320,192,79635,1,0,0:0:0:0:
448,192,79710,1,8,0:0:0:0:
64,192,79710,1,8,0:0:0:0:
192,192,79785,1,0,0:0:0:0:
320,192,79860,1,0,0:0:0:0:
64,192,79935,1,0,0:0:0:0:
192,192,80010,1,2,0:0:0:0:
448,192,80010,1,0,0:0:0:0:
320,192,80085,1,0,0:0:0:0:
192,192,80160,1,0,0:0:0:0:
448,192,80235,1,0,0:0:0:0:
320,192,80310,1,8,0:0:0:0:
192,192,80310,1,8,0:0:0:0:
448,192,80385,1,0,0:0:0:0:
64,192,80460,1,0,0:0:0:0:
192,192,80535,1,0,0:0:0:0:
320,192,80610,1,2,0:0:0:0:
448,192,80610,1,2,0:0:0:0:
192,192,80685,1,0,0:0:0:0:
320,192,80760,1,0,0:0:0:0:
192,192,80835,1,0,0:0:0:0:
64,192,80910,1,8,0:0:0:0:
448,192,80910,1,8,0:0:0:0:
320,192,80985,1,0,0:0:0:0:
192,192,81060,1,0,0:0:0:0:
320,192,81135,1,0,0:0:0:0:
448,192,81210,1,2,0:0:0:0:
192,192,81210,1,2,0:0:0:0:
320,192,81285,1,0,0:0:0:0:
64,192,81360,1,0,0:0:0:0:
192,192,81435,1,0,0:0:0:0:
320,192,81510,1,8,0:0:0:0:
448,192,81510,1,8,0:0:0:0:
192,192,81585,1,0,0:0:0:0:
320,192,81660,1,0,0:0:0:0:
64,192,81735,1,0,0:0:0:0:
192,192,81810,1,2,0:0:0:0:
448,192,81810,1,0,0:0:0:0:
64,192,81885,1,0,0:0:0:0:
192,192,81960,1,0,0:0:0:0:
320,192,82035,1,0,0:0:0:0:
192,192,82110,1,8,0:0:0:0:
448,192,82110,1,8,0:0:0:0:
320,192,82185,1,0,0:0:0:0:
192,192,82260,1,0,0:0:0:0:
320,192,82335,1,0,0:0:0:0:
64,192,82410,1,2,0:0:0:0:
448,192,82410,1,0,0:0:0:0:
192,192,82485,1,0,0:0:0:0:
320,192,82560,1,0,0:0:0:0:
192,192,82635,1,0,0:0:0:0:
320,192,82710,1,8,0:0:0:0:
448,192,82710,1,8,0:0:0:0:
64,192,82785,1,0,0:0:0:0:
320,192,82860,1,0,0:0:0:0:
192,192,82935,1,0,0:0:0:0:
320,192,83010,1,2,0:0:0:0:
448,192,83010,1,0,0:0:0:0:
192,192,83085,1,0,0:0:0:0:
64,192,83160,1,0,0:0:0:0:
320,192,83235,1,0,0:0:0:0:
192,192,83310,1,8,0:0:0:0:
448,192,83310,1,8,0:0:0:0:
64,192,83385,1,0,0:0:0:0:
192,192,83460,1,0,0:0:0:0:
320,192,83535,1,0,0:0:0:0:
448,192,83610,1,2,0:0:0:0:
192,192,83610,1,0,0:0:0:0:
64,192,83685,1,0,0:0:0:0:
320,192,83760,1,0,0:0:0:0:
192,192,83835,1,0,0:0:0:0:
320,192,83910,1,8,0:0:0:0:
448,192,83910,1,8,0:0:0:0:
192,192,83985,1,0,0:0:0:0:
320,192,84060,1,0,0:0:0:0:
64,192,84135,1,0,0:0:0:0:
192,192,84210,1,2,0:0:0:0:
448,192,84210,1,0,0:0:0:0:
320,192,84285,1,0,0:0:0:0:
192,192,84360,1,0,0:0:0:0:
320,192,84435,1,0,0:0:0:0:
448,192,84510,1,8,0:0:0:0:
64,192,84510,1,8,0:0:0:0:
320,192,84585,1,0,0:0:0:0:
192,192,84660,1,0,0:0:0:0:
320,192,84735,1,0,0:0:0:0:
448,192,84810,1,2,0:0:0:0:
64,192,84810,1,0,0:0:0:0:
192,192,84885,1,0,0:0:0:0:
320,192,84960,1,0,0:0:0:0:
64,192,85035,1,0,0:0:0:0:
192,192,85110,1,8,0:0:0:0:
320,192,85110,1,8,0:0:0:0:
448,192,85185,1,0,0:0:0:0:
192,192,85260,1,0,0:0:0:0:
320,192,85335,1,0,0:0:0:0:
64,192,85410,1,2,0:0:0:0:
192,192,85410,1,0,0:0:0:0:
320,192,85485,1,0,0:0:0:0:
448,192,85560,1,0,0:0:0:0:
64,192,85635,1,0,0:0:0:0:
192,192,85710,1,8,0:0:0:0:
320,192,85710,1,8,0:0:0:0:
448,192,85785,1,0,0:0:0:0:
192,192,85860,1,0,0:0:0:0:
320,192,85935,1,0,0:0:0:0:
192,192,86010,1,2,0:0:0:0:
64,192,86010,1,0,0:0:0:0:
320,192,86085,1,0,0:0:0:0:
192,192,86160,1,0,0:0:0:0:
320,192,86235,1,0,0:0:0:0:
448,192,86310,1,8,0:0:0:0:
64,192,86310,1,8,0:0:0:0:
192,192,86385,1,0,0:0:0:0:
320,192,86460,1,0,0:0:0:0:
64,192,86535,1,0,0:0:0:0:
192,192,86610,1,2,0:0:0:0:
448,192,86610,1,0,0:0:0:0:
320,192,86685,1,0,0:0:0:0:
192,192,86760,1,0,0:0:0:0:
64,192,86835,1,0,0:0:0:0:
192,192,86910,1,8,0:0:0:0:
448,192,86910,1,8,0:0:0:0:
320,192,86985,1,0,0:0:0:0:
448,192,87060,1,0,0:0:0:0:
192,192,87135,1,0,0:0:0:0:
320,192,87210,1,2,0:0:0:0:
64,192,87210,1,0,0:0:0:0:
192,192,87285,1,0,0:0:0:0:
320,192,87360,1,0,0:0:0:0:
192,192,87435,1,0,0:0:0:0:
448,192,87510,1,8,0:0:0:0:
64,192,87510,1,8,0:0:0:0:
320,192,87585,1,0,0:0:0:0:
192,192,87660,1,0,0:0:0:0:
320,192,87735,1,0,0:0:0:0:
448,192,87810,1,2,0:0:0:0:
192,192,87810,1,0,0:0:0:0:
320,192,87885,1,0,0:0:0:0:
64,192,87960,1,0,0:0:0:0:
320,192,88035,1,0,0:0:0:0:
192,192,88110,1,8,0:0:0:0:
448,192,88110,1,8,0:0:0:0:
320,192,88185,1,0,0:0:0:0:
192,192,88260,1,0,0:0:0:0:
64,192,88335,1,0,0:0:0:0:
320,192,88410,1,2,0:0:0:0:
192,192,88410,1,0,0:0:0:0:
448,192,88485,1,0,0:0:0:0:
320,192,88560,1,0,0:0:0:0:
192,192,88635,1,0,0:0:0:0:
64,192,88710,1,8,0:0:0:0:
320,192,88710,1,8,0:0:0:0:
192,192,89010,1,2,0:0:0:0:
448,192,89010,1,2,0:0:0:0:
320,192,89085,1,0,0:0:0:0:
192,192,89160,1,0,0:0:0:0:
320,192,89235,1,0,0:0:0:0:
448,192,89310,1,8,0:0:0:0:
64,192,89310,1,8,0:0:0:0:
192,192,89385,1,0,0:0:0:0:
448,192,89460,1,0,0:0:0:0:
64,192,89535,1,0,0:0:0:0:
192,192,89610,1,2,0:0:0:0:
320,192,89610,1,0,0:0:0:0:
448,192,89685,1,0,0:0:0:0:
64,192,89760,1,0,0:0:0:0:
192,192,89835,1,0,0:0:0:0:
448,192,89910,1,8,0:0:0:0:
320,192,89910,1,8,0:0:0:0:
192,192,89985,1,0,0:0:0:0:
448,192,90060,1,0,0:0:0:0:
192,192,90135,1,0,0:0:0:0:
320,192,90210,1,2,0:0:0:0:
64,192,90210,1,2,0:0:0:0:
192,192,90285,1,0,0:0:0:0:
320,192,90360,1,0,0:0:0:0:
64,192,90435,1,0,0:0:0:0:
320,192,90510,1,8,0:0:0:0:
448,192,90510,1,8,0:0:0:0:
192,192,90585,1,0,0:0:0:0:
320,192,90660,1,0,0:0:0:0:
192,192,90735,1,0,0:0:0:0:
320,192,90810,1,2,0:0:0:0:
448,192,90810,1,2,0:0:0:0:
64,192,90885,1,0,0:0:0:0:
192,192,90960,1,0,0:0:0:0:
320,192,91035,1,0,0:0:0:0:
192,192,91110,1,8,0:0:0:0:
448,192,91110,1,8,0:0:0:0:
320,192,91185,1,0,0:0:0:0:
64,192,91260,1,0,0:0:0:0:
192,192,91335,1,0,0:0:0:0:
320,192,91410,1,2,0:0:0:0:
448,192,91410,1,0,0:0:0:0:
192,192,91485,1,0,0:0:0:0:
64,192,91560,1,0,0:0:0:0:
320,192,91635,1,0,0:0:0:0:
192,192,91710,1,8,0:0:0:0:
448,192,91710,1,8,0:0:0:0:
320,192,91785,1,0,0:0:0:0:
192,192,91860,1,0,0:0:0:0:
320,192,91935,1,0,0:0:0:0:
448,192,92010,1,2,0:0:0:0:
64,192,92010,1,0,0:0:0:0:
192,192,92085,1,0,0:0:0:0:
320,192,92160,1,0,0:0:0:0:
64,192,92235,1,0,0:0:0:0:
192,192,92310,1,8,0:0:0:0:
448,192,92310,1,8,0:0:0:0:
320,192,92385,1,0,0:0:0:0:
192,192,92460,1,0,0:0:0:0:
320,192,92535,1,0,0:0:0:0:
448,192,92610,1,2,0:0:0:0:
64,192,92610,1,0,0:0:0:0:
192,192,92685,1,0,0:0:0:0:
320,192,92760,1,0,0:0:0:0:
192,192,92835,1,0,0:0:0:0:
320,192,92910,1,8,0:0:0:0:
448,192,92910,1,8,0:0:0:0:
192,192,92985,1,0,0:0:0:0:
64,192,93060,1,0,0:0:0:0:
320,192,93135,1,0,0:0:0:0:
192,192,93210,1,2,0:0:0:0:
448,192,93210,1,0,0:0:0:0:
320,192,93285,1,0,0:0:0:0:
64,192,93360,1,0,0:0:0:0:
192,192,93435,1,0,0:0:0:0:
320,192,93510,1,8,0:0:0:0:
448,192,93510,1,8,0:0:0:0:
192,192,93585,1,0,0:0:0:0:
64,192,93660,1,0,0:0:0:0:
320,192,93735,1,0,0:0:0:0:
192,192,93810,1,2,0:0:0:0:
448,192,93810,1,0,0:0:0:0:
320,192,93885,1,0,0:0:0:0:
192,192,93960,1,0,0:0:0:0:
64,192,94035,1,0,0:0:0:0:
320,192,94110,1,8,0:0:0:0:
448,192,94110,1,8,0:0:0:0:
192,192,94185,1,0,0:0:0:0:
320,192,94260,1,0,0:0:0:0:
64,192,94335,1,0,0:0:0:0:
192,192,94410,1,2,0:0:0:0:
448,192,94410,1,0,0:0:0:0:
320,192,94485,1,0,0:0:0:0:
448,192,94560,1,0,0:0:0:0:
64,192,94635,1,0,0:0:0:0:
448,192,94710,1,8,0:0:0:0:
192,192,94710,1,8,0:0:0:0:
320,192,94785,1,0,0:0:0:0:
192,192,94860,1,0,0:0:0:0:
64,192,94935,1,0,0:0:0:0:
320,192,95010,1,2,0:0:0:0:
448,192,95010,1,0,0:0:0:0:
192,192,95085,1,0,0:0:0:0:
320,192,95160,1,0,0:0:0:0:
64,192,95235,1,0,0:0:0:0:
192,192,95310,1,8,0:0:0:0:
448,192,95310,1,8,0:0:0:0:
320,192,95385,1,0,0:0:0:0:
64,192,95460,1,0,0:0:0:0:
192,192,95535,1,0,0:0:0:0:
320,192,95610,1,2,0:0:0:0:
448,192,95610,1,0,0:0:0:0:
192,192,95685,1,0,0:0:0:0:
320,192,95760,1,0,0:0:0:0:
448,192,95835,1,0,0:0:0:0:
320,192,95910,1,8,0:0:0:0:
64,192,95910,1,8,0:0:0:0:
192,192,95985,1,0,0:0:0:0:
320,192,96060,1,0,0:0:0:0:
64,192,96135,1,0,0:0:0:0:
192,192,96210,1,2,0:0:0:0:
448,192,96210,1,2,0:0:0:0:
320,192,96285,1,0,0:0:0:0:
192,192,96360,1,0,0:0:0:0:
448,192,96435,1,0,0:0:0:0:
320,192,96510,1,8,0:0:0:0:
64,192,96510,1,8,0:0:0:0:
192,192,96585,1,0,0:0:0:0:
320,192,96660,1,0,0:0:0:0:
64,192,96735,1,0,0:0:0:0:
192,192,96810,1,2,0:0:0:0:
320,192,96810,1,0,0:0:0:0:
448,192,96885,1,0,0:0:0:0:
192,192,96960,1,0,0:0:0:0:
320,192,97035,1,0,0:0:0:0:
192,192,97110,1,8,0:0:0:0:
64,192,97110,1,8,0:0:0:0:
448,192,97185,1,0,0:0:0:0:
192,192,97260,1,0,0:0:0:0:
320,192,97335,1,0,0:0:0:0:
448,192,97410,1,2,0:0:0:0:
64,192,97410,1,0,0:0:0:0:
192,192,97485,1,0,0:0:0:0:
320,192,97560,1,0,0:0:0:0:
192,192,97635,1,0,0:0:0:0:
64,192,97710,1,8,0:0:0:0:
448,192,97710,1,8,0:0:0:0:
320,192,97785,1,0,0:0:0:0:
192,192,97860,1,0,0:0:0:0:
448,192,97935,1,0,0:0:0:0:
320,192,98010,1,0,0:0:0:0:
192,192,98010,1,0,0:0:0:0:
64,192,98085,1,0,0:0:0:0:
320,192,98160,1,0,0:0:0:0:
192,192,98235,1,0,0:0:0:0:
320,192,98310,1,8,0:0:0:0:
448,192,98310,1,8,0:0:0:0:
64,192,98385,1,0,0:0:0:0:
192,192,98460,1,0,0:0:0:0:
320,192,98535,1,0,0:0:0:0:
192,192,98610,1,2,0:0:0:0:
64,192,98610,1,0,0:0:0:0:
448,192,98685,1,0,0:0:0:0:
320,192,98760,1,0,0:0:0:0:
64,192,98835,1,0,0:0:0:0:
320,192,98910,1,8,0:0:0:0:
448,192,98910,1,8,0:0:0:0:
192,192,98985,1,0,0:0:0:0:
320,192,99060,1,0,0:0:0:0:
64,192,99135,1,0,0:0:0:0:
192,192,99210,1,0,0:0:0:0:
448,192,99210,1,0,0:0:0:0:
320,192,99285,1,0,0:0:0:0:
192,192,99360,1,0,0:0:0:0:
64,192,99435,1,0,0:0:0:0:
192,192,99510,1,8,0:0:0:0:
448,192,99510,1,8,0:0:0:0:
320,192,99585,1,0,0:0:0:0:
192,192,99660,1,0,0:0:0:0:
320,192,99735,1,0,0:0:0:0:
448,192,99810,1,2,0:0:0:0:
192,192,99810,1,0,0:0:0:0:
320,192,99885,1,0,0:0:0:0:
192,192,99960,1,0,0:0:0:0:
64,192,100035,1,0,0:0:0:0:
320,192,100110,1,8,0:0:0:0:
448,192,100110,1,8,0:0:0:0:
192,192,100185,1,0,0:0:0:0:
320,192,100260,1,0,0:0:0:0:
64,192,100335,1,0,0:0:0:0:
320,192,100410,1,2,0:0:0:0:
448,192,100410,1,0,0:0:0:0:
192,192,100485,1,0,0:0:0:0:
320,192,100560,1,0,0:0:0:0:
448,192,100635,1,0,0:0:0:0:
64,192,100710,1,8,0:0:0:0:
320,192,100710,1,8,0:0:0:0:
192,192,100785,1,0,0:0:0:0:
320,192,100860,1,0,0:0:0:0:
448,192,100935,1,0,0:0:0:0:
192,192,101010,1,2,0:0:0:0:
64,192,101010,1,0,0:0:0:0:
448,192,101085,1,0,0:0:0:0:
320,192,101160,1,0,0:0:0:0:
192,192,101235,1,0,0:0:0:0:
320,192,101310,1,8,0:0:0:0:
448,192,101310,1,8,0:0:0:0:
64,192,101385,1,0,0:0:0:0:
192,192,101460,1,0,0:0:0:0:
320,192,101535,1,0,0:0:0:0:
192,192,101610,1,2,0:0:0:0:
448,192,101610,1,0,0:0:0:0:
320,192,101685,1,0,0:0:0:0:
448,192,101760,1,0,0:0:0:0:
192,192,101835,1,0,0:0:0:0:
64,192,101910,1,8,0:0:0:0:
320,192,101910,1,8,0:0:0:0:
192,192,101985,1,0,0:0:0:0:
320,192,102060,1,0,0:0:0:0:
448,192,102135,1,0,0:0:0:0:
64,192,102210,1,2,0:0:0:0:
320,192,102210,1,0,0:0:0:0:
192,192,102285,1,0,0:0:0:0:
448,192,102360,1,0,0:0:0:0:
192,192,102435,1,0,0:0:0:0:
320,192,102510,1,8,0:0:0:0:
448,192,102510,1,8,0:0:0:0:
64,192,102585,1,0,0:0:0:0:
192,192,102660,1,0,0:0:0:0:
320,192,102735,1,0,0:0:0:0:
448,192,102810,1,2,0:0:0:0:
192,192,102810,1,0,0:0:0:0:
320,192,102885,1,0,0:0:0:0:
192,192,102960,1,0,0:0:0:0:
64,192,103035,1,0,0:0:0:0:
192,192,103110,1,8,0:0:0:0:
448,192,103110,1,8,0:0:0:0:
64,192,103185,1,0,0:0:0:0:
320,192,103260,1,0,0:0:0:0:
192,192,103335,1,0,0:0:0:0:
320,192,103410,1,8,0:0:0:0:
448,192,103410,1,0,0:0:0:0:
192,192,103485,1,0,0:0:0:0:
320,192,103560,1,0,0:0:0:0:
64,192,103635,1,0,0:0:0:0:
192,192,103710,1,8,0:0:0:0:
448,192,103710,1,8,0:0:0:0:
320,192,103785,1,0,0:0:0:0:
192,192,103860,1,0,0:0:0:0:
320,192,103935,1,0,0:0:0:0:
448,192,104010,1,0,0:0:0:0:
64,192,104010,1,0,0:0:0:0:
192,192,104085,1,0,0:0:0:0:
448,192,104160,1,0,0:0:0:0:
64,192,104235,1,0,0:0:0:0:
192,192,104310,1,8,0:0:0:0:
320,192,104310,1,8,0:0:0:0:
448,192,104385,1,0,0:0:0:0:
192,192,104460,1,0,0:0:0:0:
320,192,104535,1,0,0:0:0:0:
192,192,104610,1,2,0:0:0:0:
64,192,104610,1,0,0:0:0:0:
320,192,104685,1,0,0:0:0:0:
448,192,104760,1,0,0:0:0:0:
192,192,104835,1,0,0:0:0:0:
320,192,104910,1,8,0:0:0:0:
448,192,104910,1,8,0:0:0:0:
192,192,104985,1,0,0:0:0:0:
64,192,105060,1,0,0:0:0:0:
320,192,105135,1,0,0:0:0:0:
192,192,105210,1,0,0:0:0:0:
448,192,105210,1,0,0:0:0:0:
64,192,105285,1,0,0:0:0:0:
192,192,105360,1,0,0:0:0:0:
448,192,105435,1,0,0:0:0:0:
320,192,105510,1,8,0:0:0:0:
192,192,105510,1,8,0:0:0:0:
64,192,105585,1,0,0:0:0:0:
320,192,105660,1,0,0:0:0:0:
192,192,105735,1,0,0:0:0:0:
448,192,105810,1,2,1:0:0:0:
64,192,105810,1,0,0:0:0:0:
192,192,105885,1,0,0:0:0:0:
448,192,105960,1,0,0:0:0:0:
192,192,106035,1,0,0:0:0:0:
320,192,106110,1,2,1:0:0:0:
64,192,106110,1,0,0:0:0:0:
192,192,106185,1,0,0:0:0:0:
448,192,106260,1,2,1:0:0:0:
320,192,106335,1,0,0:0:0:0:
64,192,106410,1,0,0:0:0:0:
192,192,106410,1,0,0:0:0:0:
320,192,106485,1,0,0:0:0:0:
448,192,106560,1,2,1:0:0:0:
192,192,106635,1,0,0:0:0:0:
320,192,106710,1,0,0:0:0:0:
448,192,106710,1,0,0:0:0:0:
192,192,106785,1,0,0:0:0:0:
64,192,106860,1,2,1:0:0:0:
320,192,106935,1,0,0:0:0:0:
192,192,107010,1,2,1:0:0:0:
448,192,107010,1,0,0:0:0:0:
320,192,107085,1,0,0:0:0:0:
192,192,107160,1,0,0:0:0:0:
64,192,107235,1,0,0:0:0:0:
320,192,107310,1,2,0:0:0:0:
448,192,107310,1,0,0:0:0:0:
192,192,107385,1,0,0:0:0:0:
320,192,107460,1,0,0:0:0:0:
448,192,107535,1,0,0:0:0:0:
64,192,107610,1,2,0:0:0:0:
320,192,107610,1,0,0:0:0:0:
448,192,107685,1,0,0:0:0:0:
320,192,107760,1,0,0:0:0:0:
192,192,107835,1,0,0:0:0:0:
448,192,107910,1,8,0:0:0:0:
320,192,107910,1,8,0:0:0:0:
64,192,108210,1,2,0:0:0:0:
320,192,108210,1,0,0:0:0:0:
320,192,108360,1,0,0:0:0:0:
64,192,108510,1,8,0:0:0:0:
448,192,108510,1,8,0:0:0:0:
448,192,108660,1,0,0:0:0:0:
320,192,108810,1,2,0:0:0:0:
64,192,108810,1,0,0:0:0:0:
320,192,108960,1,0,0:0:0:0:
192,192,109110,1,8,0:0:0:0:
64,192,109110,1,8,0:0:0:0:
320,192,109260,1,0,0:0:0:0:
64,192,109410,1,2,0:0:0:0:
448,192,109410,1,0,0:0:0:0:
320,192,109560,1,0,0:0:0:0:
64,192,109710,1,8,0:0:0:0:
192,192,109710,1,8,0:0:0:0:
320,192,109860,1,0,0:0:0:0:
192,192,110010,1,2,0:0:0:0:
448,192,110010,1,0,0:0:0:0:
320,192,110160,1,0,0:0:0:0:
64,192,110310,1,8,0:0:0:0:
192,192,110310,1,8,0:0:0:0:
320,192,110460,1,0,0:0:0:0:
64,192,110610,1,2,0:0:0:0:
192,192,110610,1,0,0:0:0:0:
192,192,110760,1,0,0:0:0:0:
64,192,110910,1,8,0:0:0:0:
320,192,110910,1,8,0:0:0:0:
320,192,111060,1,0,0:0:0:0:
64,192,111210,1,2,0:0:0:0:
192,192,111210,1,0,0:0:0:0:
320,192,111360,1,0,0:0:0:0:
448,192,111510,1,8,0:0:0:0:
192,192,111510,1,8,0:0:0:0:
64,192,111510,1,0,0:0:0:0:
448,192,111660,1,0,0:0:0:0:
64,192,111810,1,2,0:0:0:0:
192,192,111810,1,0,0:0:0:0:
192,192,111960,1,0,0:0:0:0:
64,192,112110,1,0,0:0:0:0:
448,192,112110,1,0,0:0:0:0:
448,192,112260,1,0,0:0:0:0:
64,192,112410,1,8,1:0:0:0:
320,192,112410,1,0,0:0:0:0:
64,192,112560,1,8,1:0:0:0:
320,192,112560,1,0,0:0:0:0:
64,192,112710,1,8,1:0:0:0:
192,192,112710,1,0,0:0:0:0:
320,192,112860,1,8,1:0:0:0:
64,192,112860,1,0,0:0:0:0:
64,192,113010,1,4,0:0:0:0:
448,192,113010,1,4,0:0:0:0:
192,192,113160,1,0,0:0:0:0:
64,192,113310,1,8,0:0:0:0:
320,192,113310,1,8,0:0:0:0:
192,192,113460,1,0,0:0:0:0:
448,192,113610,1,2,0:0:0:0:
320,192,113760,1,0,0:0:0:0:
64,192,113910,1,8,0:0:0:0:
192,192,113910,1,8,0:0:0:0:
448,192,113910,1,0,0:0:0:0:
320,192,114060,1,0,0:0:0:0:
192,192,114210,1,2,0:0:0:0:
448,192,114360,1,0,0:0:0:0:
192,192,114510,1,8,0:0:0:0:
320,192,114510,1,8,0:0:0:0:
64,192,114510,1,0,0:0:0:0:
448,192,114660,1,0,0:0:0:0:
64,192,114810,1,2,0:0:0:0:
192,192,114810,1,0,0:0:0:0:
320,192,114960,1,0,0:0:0:0:
448,192,115110,1,8,0:0:0:0:
192,192,115110,1,8,0:0:0:0:
64,192,115110,1,0,0:0:0:0:
192,192,115260,1,0,0:0:0:0:
320,192,115410,1,2,0:0:0:0:
192,192,115560,1,0,0:0:0:0:
64,192,115710,1,8,0:0:0:0:
320,192,115710,1,8,0:0:0:0:
192,192,115710,1,0,0:0:0:0:
320,192,115860,1,0,0:0:0:0:
448,192,116010,1,2,0:0:0:0:
192,192,116160,1,0,0:0:0:0:
448,192,116310,1,8,0:0:0:0:
320,192,116310,1,8,0:0:0:0:
64,192,116310,1,0,0:0:0:0:
192,192,116460,1,0,0:0:0:0:
320,192,116610,1,2,0:0:0:0:
64,192,116760,1,0,0:0:0:0:
192,192,116910,1,8,0:0:0:0:
448,192,116910,1,8,0:0:0:0:
320,192,117060,1,0,0:0:0:0:
64,192,117210,1,2,0:0:0:0:
448,192,117210,1,0,0:0:0:0:
448,192,117360,1,0,0:0:0:0:
320,192,117510,1,8,0:0:0:0:
192,192,117510,1,8,0:0:0:0:
448,192,117660,1,0,0:0:0:0:
64,192,117810,1,2,0:0:0:0:
64,192,117960,1,0,0:0:0:0:
448,192,118110,1,8,0:0:0:0:
192,192,118110,1,8,0:0:0:0:
448,192,118260,1,0,0:0:0:0:
64,192,118410,1,2,0:0:0:0:
64,192,118560,1,0,0:0:0:0:
192,192,118710,1,8,0:0:0:0:
320,192,118710,1,8,0:0:0:0:
320,192,118860,1,0,0:0:0:0:
64,192,119010,1,2,0:0:0:0:
64,192,119160,1,0,0:0:0:0:
192,192,119310,1,8,0:0:0:0:
448,192,119310,1,8,0:0:0:0:
320,192,119460,1,0,0:0:0:0:
64,192,119610,1,2,0:0:0:0:
64,192,119760,1,0,0:0:0:0:
192,192,119910,1,8,0:0:0:0:
448,192,119910,1,8,0:0:0:0:
448,192,120060,1,0,0:0:0:0:
320,192,120210,1,0,0:0:0:0:
192,192,120360,1,0,0:0:0:0:
64,192,120510,1,8,0:0:0:0:
448,192,120510,1,8,0:0:0:0:
320,192,120510,1,0,0:0:0:0:
192,192,120660,1,0,0:0:0:0:
64,192,120810,1,2,0:0:0:0:
64,192,120960,1,0,0:0:0:0:
448,192,121110,1,8,0:0:0:0:
192,192,121110,1,8,0:0:0:0:
192,192,121260,1,0,0:0:0:0:
320,192,121410,1,2,0:0:0:0:
320,192,121560,1,0,0:0:0:0:
64,192,121710,1,8,0:0:0:0:
448,192,121710,1,8,0:0:0:0:
448,192,121860,1,0,0:0:0:0:
192,192,122010,1,2,0:0:0:0:
320,192,122160,1,0,0:0:0:0:
64,192,122310,1,8,0:0:0:0:
448,192,122310,1,8,0:0:0:0:
192,192,122310,1,0,0:0:0:0:
448,192,122460,1,0,0:0:0:0:
64,192,122610,1,2,0:0:0:0:
192,192,122760,1,0,0:0:0:0:
320,192,122910,1,8,0:0:0:0:
64,192,122910,1,8,0:0:0:0:
320,192,123060,1,0,0:0:0:0:
192,192,123210,1,2,0:0:0:0:
320,192,123360,1,0,0:0:0:0:
448,192,123510,1,8,0:0:0:0:
64,192,123510,1,8,0:0:0:0:
192,192,123510,1,0,0:0:0:0:
320,192,123660,1,0,0:0:0:0:
192,192,123810,1,2,0:0:0:0:
320,192,123960,1,0,0:0:0:0:
64,192,124110,1,8,0:0:0:0:
448,192,124110,1,8,0:0:0:0:
192,192,124110,1,0,0:0:0:0:
320,192,124260,1,0,0:0:0:0:
192,192,124410,1,2,0:0:0:0:
64,192,124560,1,0,0:0:0:0:
448,192,124710,1,8,0:0:0:0:
320,192,124710,1,8,0:0:0:0:
192,192,124710,1,0,0:0:0:0:
64,192,124860,1,0,0:0:0:0:
192,192,125010,1,2,0:0:0:0:
320,192,125160,1,0,0:0:0:0:
448,192,125310,1,8,0:0:0:0:
192,192,125310,1,8,0:0:0:0:
64,192,125310,1,0,0:0:0:0:
320,192,125460,1,0,0:0:0:0:
192,192,125610,1,2,0:0:0:0:
320,192,125760,1,0,0:0:0:0:
64,192,125910,1,8,0:0:0:0:
192,192,125910,1,8,0:0:0:0:
448,192,125910,1,0,0:0:0:0:
448,192,126060,1,0,0:0:0:0:
192,192,126210,1,2,0:0:0:0:
320,192,126360,1,0,0:0:0:0:
448,192,126510,1,8,0:0:0:0:
320,192,126510,1,8,0:0:0:0:
64,192,126510,1,0,0:0:0:0:
448,192,126660,1,0,0:0:0:0:
192,192,126810,1,2,0:0:0:0:
320,192,126960,1,0,0:0:0:0:
448,192,127110,1,8,0:0:0:0:
320,192,127260,1,0,0:0:0:0:
448,192,127410,1,2,0:0:0:0:
192,192,127410,128,0,127560:0:0:0:0:
64,192,127410,1,0,0:0:0:0:
320,192,127410,1,0,0:0:0:0:
320,192,127560,128,0,127710:0:0:0:0:
192,192,127710,1,8,0:0:0:0:
448,192,127710,128,8,127860:0:0:0:0:
320,192,127860,128,0,128010:0:0:0:0:
64,192,127860,1,0,0:0:0:0:
192,192,128010,128,2,128160:0:0:0:0:
448,192,128010,1,0,0:0:0:0:
320,192,128160,128,0,128310:0:0:0:0:
64,192,128160,1,0,0:0:0:0:
192,192,128310,1,8,0:0:0:0:
448,192,128310,128,8,128460:0:0:0:0:
320,192,128460,128,0,128610:0:0:0:0:
64,192,128460,1,0,0:0:0:0:
64,192,128610,128,2,128760:0:0:0:0:
448,192,128610,1,0,0:0:0:0:
192,192,128760,128,0,128910:0:0:0:0:
320,192,128760,1,0,0:0:0:0:
320,192,128910,128,8,129060:0:0:0:0:
64,192,128910,1,8,0:0:0:0:
192,192,129060,128,0,129210:0:0:0:0:
64,192,129060,1,0,0:0:0:0:
64,192,129210,128,2,129360:0:0:0:0:
448,192,129210,1,0,0:0:0:0:
192,192,129360,128,0,129510:0:0:0:0:
320,192,129360,1,0,0:0:0:0:
320,192,129510,128,8,129660:0:0:0:0:
64,192,129510,1,8,0:0:0:0:
192,192,129660,128,2,129810:0:0:0:0:
448,192,129660,1,0,0:0:0:0:
64,192,129810,128,0,129960:0:0:0:0:
320,192,129810,1,0,0:0:0:0:
320,192,129960,128,0,130110:0:0:0:0:
192,192,129960,1,0,0:0:0:0:
448,192,130110,128,8,130260:0:0:0:0:
64,192,130110,1,8,0:0:0:0:
192,192,130260,128,0,130410:0:0:0:0:
320,192,130260,1,0,0:0:0:0:
64,192,130410,128,2,130560:0:0:0:0:
448,192,130410,1,0,0:0:0:0:
320,192,130560,128,0,130710:0:0:0:0:
192,192,130560,1,0,0:0:0:0:
448,192,130710,128,8,130860:0:0:0:0:
64,192,130710,1,8,0:0:0:0:
192,192,130860,128,0,131010:0:0:0:0:
320,192,130860,1,0,0:0:0:0:
64,192,131010,128,2,131160:0:0:0:0:
448,192,131010,1,0,0:0:0:0:
320,192,131160,128,0,131310:0:0:0:0:
192,192,131160,1,0,0:0:0:0:
448,192,131310,128,8,131460:0:0:0:0:
64,192,131310,1,8,0:0:0:0:
192,192,131460,128,0,131610:0:0:0:0:
320,192,131460,1,0,0:0:0:0:
64,192,131610,128,2,131760:0:0:0:0:
448,192,131610,1,0,0:0:0:0:
320,192,131760,128,0,131910:0:0:0:0:
448,192,131910,128,8,132060:0:0:0:0:
192,192,131910,1,8,0:0:0:0:
64,192,131910,1,0,0:0:0:0:
192,192,132060,1,0,0:0:0:0:
320,192,132060,1,0,0:0:0:0:
64,192,132060,128,0,132210:0:0:0:0:
320,192,132210,1,2,0:0:0:0:
448,192,132210,1,0,0:0:0:0:
192,192,132210,128,0,132360:0:0:0:0:
320,192,132360,128,0,132510:0:0:0:0:
64,192,132360,1,0,0:0:0:0:
448,192,132510,128,8,132660:0:0:0:0:
192,192,132510,1,8,0:0:0:0:
320,192,132660,128,0,132810:0:0:0:0:
64,192,132660,1,0,0:0:0:0:
192,192,132810,128,2,132960:0:0:0:0:
448,192,132810,1,0,0:0:0:0:
320,192,132960,128,0,133110:0:0:0:0:
64,192,132960,1,0,0:0:0:0:
448,192,133110,128,8,133260:0:0:0:0:
192,192,133110,1,8,0:0:0:0:
320,192,133260,128,0,133410:0:0:0:0:
64,192,133260,1,0,0:0:0:0:
64,192,133410,128,2,133560:0:0:0:0:
192,192,133410,1,0,0:0:0:0:
192,192,133560,128,0,133710:0:0:0:0:
320,192,133560,1,0,0:0:0:0:
320,192,133710,128,8,133860:0:0:0:0:
448,192,133710,1,8,0:0:0:0:
192,192,133860,128,0,134010:0:0:0:0:
64,192,133860,1,0,0:0:0:0:
448,192,134010,1,2,0:0:0:0:
64,192,134010,128,0,134160:0:0:0:0:
192,192,134160,128,0,134310:0:0:0:0:
320,192,134160,1,0,0:0:0:0:
64,192,134310,1,8,0:0:0:0:
320,192,134310,128,8,134460:0:0:0:0:
192,192,134460,128,0,134610:0:0:0:0:
448,192,134460,1,0,0:0:0:0:
320,192,134610,1,2,0:0:0:0:
64,192,134610,128,0,134760:0:0:0:0:
320,192,134760,128,0,134910:0:0:0:0:
192,192,134760,1,0,0:0:0:0:
448,192,134910,128,8,135060:0:0:0:0:
64,192,134910,1,8,0:0:0:0:
192,192,135060,128,0,135210:0:0:0:0:
320,192,135060,1,0,0:0:0:0:
64,192,135210,128,2,135360:0:0:0:0:
448,192,135210,1,0,0:0:0:0:
192,192,135360,1,0,0:0:0:0:
320,192,135360,128,0,135510:0:0:0:0:
64,192,135510,1,8,0:0:0:0:
448,192,135510,128,8,135660:0:0:0:0:
192,192,135660,128,0,135810:0:0:0:0:
320,192,135660,1,0,0:0:0:0:
64,192,135810,1,8,1:0:0:0:
320,192,135810,1,0,0:0:0:0:
448,192,135810,1,0,0:0:0:0:
64,192,135960,1,8,1:0:0:0:
320,192,135960,1,0,0:0:0:0:
64,192,136110,1,8,1:0:0:0:
448,192,136110,1,0,0:0:0:0:
192,192,136110,1,0,0:0:0:0:
64,192,136260,1,8,1:0:0:0:
320,192,136260,1,0,0:0:0:0:
192,192,136410,1,8,1:0:0:0:
64,192,136410,1,0,0:0:0:0:
64,192,136560,1,8,1:0:0:0:
320,192,136560,1,0,0:0:0:0:
64,192,136710,1,8,1:0:0:0:
192,192,136710,1,0,0:0:0:0:
448,192,136710,1,0,0:0:0:0:
320,192,136860,1,0,0:0:0:0:
64,192,137010,1,8,0:0:0:0:
448,192,137010,1,8,0:0:0:0:
320,192,137010,1,0,0:0:0:0:
192,192,137010,1,0,0:0:0:0:
448,192,137310,1,2,0:0:0:0:
192,192,137310,1,0,0:0:0:0:
192,192,137460,1,0,0:0:0:0:
320,192,137460,1,0,0:0:0:0:
448,192,137610,1,2,0:0:0:0:
192,192,137610,1,0,0:0:0:0:
192,192,137760,1,0,0:0:0:0:
320,192,137760,1,0,0:0:0:0:
448,192,137910,1,2,0:0:0:0:
192,192,137910,1,0,0:0:0:0:
192,192,138060,1,0,0:0:0:0:
320,192,138060,1,0,0:0:0:0:
320,192,138210,1,8,0:0:0:0:
448,192,138210,1,8,0:0:0:0:
64,192,138360,1,0,0:0:0:0:
192,192,138360,1,0,0:0:0:0:
320,192,138510,1,2,0:0:0:0:
448,192,138510,1,0,0:0:0:0:
64,192,138660,1,0,0:0:0:0:
192,192,138660,1,0,0:0:0:0:
320,192,138810,1,2,0:0:0:0:
448,192,138810,1,0,0:0:0:0:
64,192,138960,1,0,0:0:0:0:
192,192,138960,1,0,0:0:0:0:
448,192,139110,1,2,0:0:0:0:
320,192,139110,1,0,0:0:0:0:
192,192,139260,1,0,0:0:0:0:
64,192,139260,1,0,0:0:0:0:
320,192,139410,1,8,0:0:0:0:
448,192,139410,1,8,0:0:0:0:
192,192,139560,1,0,0:0:0:0:
448,192,139560,1,0,0:0:0:0:
320,192,139710,1,2,0:0:0:0:
448,192,139710,1,0,0:0:0:0:
192,192,139860,1,0,0:0:0:0:
448,192,139860,1,0,0:0:0:0:
320,192,140010,1,2,0:0:0:0:
448,192,140010,1,0,0:0:0:0:
192,192,140160,1,0,0:0:0:0:
448,192,140160,1,0,0:0:0:0:
320,192,140310,1,2,0:0:0:0:
448,192,140310,1,0,0:0:0:0:
192,192,140460,1,0,0:0:0:0:
448,192,140460,1,0,0:0:0:0:
448,192,140610,1,8,0:0:0:0:
64,192,140610,1,8,0:0:0:0:
192,192,140760,1,0,0:0:0:0:
64,192,140760,1,0,0:0:0:0:
448,192,140910,1,2,0:0:0:0:
64,192,140910,1,0,0:0:0:0:
192,192,141060,1,0,0:0:0:0:
64,192,141060,1,0,0:0:0:0:
448,192,141210,1,2,0:0:0:0:
64,192,141210,1,0,0:0:0:0:
64,192,141360,1,0,0:0:0:0:
192,192,141360,1,0,0:0:0:0:
448,192,141510,1,2,0:0:0:0:
64,192,141510,1,0,0:0:0:0:
64,192,141660,1,0,0:0:0:0:
192,192,141660,1,0,0:0:0:0:
448,192,141810,1,8,0:0:0:0:
192,192,141960,1,0,0:0:0:0:
320,192,142110,1,2,0:0:0:0:
448,192,142110,1,0,0:0:0:0:
192,192,142260,1,0,0:0:0:0:
320,192,142410,1,2,0:0:0:0:
192,192,142560,1,0,0:0:0:0:
320,192,142710,1,2,0:0:0:0:
448,192,142710,1,0,0:0:0:0:
192,192,142860,1,0,0:0:0:0:
320,192,143010,1,8,0:0:0:0:
192,192,143160,1,0,0:0:0:0:
64,192,143310,1,8,0:0:0:0:
320,192,143310,1,0,0:0:0:0:
448,192,143460,1,0,0:0:0:0:
64,192,143610,1,8,0:0:0:0:
320,192,143610,1,0,0:0:0:0:
192,192,143760,1,0,0:0:0:0:
64,192,143910,1,8,0:0:0:0:
320,192,143910,1,0,0:0:0:0:
448,192,144060,1,0,0:0:0:0:
320,192,144210,1,8,0:0:0:0:
64,192,144210,1,0,0:0:0:0:
192,192,144360,1,8,1:0:0:0:
320,192,144510,1,8,1:0:0:0:
448,192,144510,1,0,0:0:0:0:
192,192,144660,1,8,1:0:0:0:
64,192,144810,1,8,1:0:0:0:
192,192,144960,1,8,1:0:0:0:
320,192,145110,1,8,1:0:0:0:
448,192,145110,1,0,0:0:0:0:
192,192,145260,1,8,1:0:0:0:
64,192,145410,1,8,1:0:0:0:
448,192,145485,1,0,0:0:0:0:
192,192,145560,1,8,1:0:0:0:
448,192,145635,1,0,0:0:0:0:
64,192,145710,1,8,1:0:0:0:
320,192,145710,1,0,0:0:0:0:
192,192,145785,1,0,0:0:0:0:
448,192,145860,1,8,1:0:0:0:
64,192,145935,1,0,0:0:0:0:
448,192,146010,1,8,1:0:0:0:
192,192,146085,1,0,0:0:0:0:
320,192,146160,1,8,1:0:0:0:
64,192,146235,1,0,0:0:0:0:
448,192,146310,1,8,1:0:0:0:
192,192,146385,1,0,0:0:0:0:
320,192,146460,1,8,1:0:0:0:
64,192,146535,1,0,0:0:0:0:
192,192,146610,128,8,147510:0:0:0:0:
448,192,146610,128,8,147210:0:0:0:0:
320,192,146610,128,0,147360:0:0:0:0:
