osu file format v14

[General]
AudioFilename: 4. Helblinde - Disconnected.mp3
AudioLeadIn: 0
PreviewTime: 68610
Countdown: 0
SampleSet: Soft
StackLeniency: 0.7
Mode: 3
LetterboxInBreaks: 0
SpecialStyle: 1
WidescreenStoryboard: 1

[Editor]
DistanceSpacing: 1
BeatDivisor: 4
GridSize: 4
TimelineZoom: 2

[Metadata]
Title:Disconnected
TitleUnicode:Disconnected
Artist:Helblinde
ArtistUnicode:Helblinde
Creator:deadbill
Version:7K HD
Source:Sword Art Online
Tags:Gaijin-core, Hardcore, Anime OST Remix, Reyzra, Crono76, Fullerene-, HEHOOOH, lZenxl, Xleonq
BeatmapID:359587
BeatmapSetID:144860

[Difficulty]
HPDrainRate:7
CircleSize:7
OverallDifficulty:8
ApproachRate:5
SliderMultiplier:1.4
SliderTickRate:1

[Events]
//Background and Video events
0,0,"url.jpg",0,0
//Break Periods
//Storyboard Layer 0 (Background)
//Storyboard Layer 1 (Fail)
//Storyboard Layer 2 (Pass)
//Storyboard Layer 3 (Foreground)
//Storyboard Sound Samples

[TimingPoints]
9510,300,4,2,1,65,1,0
28705,-100,4,2,1,50,0,0
47910,-105.263157894737,4,2,1,50,0,0
47985,-111.111111111111,4,2,1,50,0,0
48060,-117.647058823529,4,2,1,50,0,0
48135,-125,4,2,1,50,0,0
48210,-133.333333333333,4,2,1,50,0,0
52988,-100,4,2,1,65,0,0
60205,-133.333333333333,4,2,1,65,0,0
69505,-100,4,2,1,65,0,0
69810,-100,4,2,1,65,0,1
108210,-100,4,2,1,65,0,0
113015,-100,4,2,1,65,0,0
145105,-100,4,2,1,65,0,0
146755,-133.333333333333,4,2,1,20,0,0

[HitObjects]
329,192,9510,5,2,0:0:0:0:
475,192,9510,1,0,0:0:0:0:
256,192,9810,1,2,0:0:0:0:
109,192,9810,1,0,0:0:0:0:
402,192,10110,1,8,0:0:0:0:
475,192,10110,1,8,0:0:0:0:
36,192,10410,1,2,0:0:0:0:
256,192,10410,1,0,0:0:0:0:
329,192,10710,1,8,0:0:0:0:
475,192,10710,1,8,0:0:0:0:
109,192,11010,1,2,0:0:0:0:
256,192,11010,1,0,0:0:0:0:
402,192,11310,1,8,0:0:0:0:
475,192,11310,1,8,0:0:0:0:
182,192,11610,1,2,0:0:0:0:
256,192,11610,1,0,0:0:0:0:
475,192,11910,1,8,0:0:0:0:
329,192,11910,1,8,0:0:0:0:
256,192,12210,1,2,0:0:0:0:
109,192,12210,1,0,0:0:0:0:
402,192,12510,1,8,0:0:0:0:
475,192,12510,1,8,0:0:0:0:
256,192,12810,1,2,0:0:0:0:
36,192,12810,1,0,0:0:0:0:
475,192,13110,1,8,0:0:0:0:
329,192,13110,1,8,0:0:0:0:
256,192,13410,1,2,0:0:0:0:
182,192,13710,1,8,0:0:0:0:
36,192,13710,1,8,0:0:0:0:
256,192,14010,1,2,0:0:0:0:
402,192,14310,1,8,0:0:0:0:
329,192,14310,1,8,0:0:0:0:
256,192,14610,1,2,0:0:0:0:
109,192,14910,1,8,0:0:0:0:
182,192,14910,1,8,0:0:0:0:
256,192,15210,1,2,0:0:0:0:
329,192,15510,1,8,0:0:0:0:
475,192,15510,1,8,0:0:0:0:
256,192,15810,1,2,0:0:0:0:
182,192,16110,1,8,0:0:0:0:
36,192,16110,1,8,0:0:0:0:
182,192,16410,1,2,0:0:0:0:
256,192,16710,1,8,0:0:0:0:
256,192,17010,1,2,0:0:0:0:
109,192,17310,1,8,0:0:0:0:
329,192,17310,1,8,0:0:0:0:
256,192,17610,1,2,0:0:0:0:
475,192,17610,1,0,0:0:0:0:
329,192,17910,1,8,0:0:0:0:
109,192,17910,1,8,0:0:0:0:
36,192,18210,1,8,1:0:0:0:
475,192,18360,1,8,1:0:0:0:
109,192,18510,1,8,1:0:0:0:
402,192,18660,1,8,1:0:0:0:
182,192,18810,1,8,1:0:0:0:
329,192,18960,1,8,1:0:0:0:
256,192,19110,1,8,1:0:0:0:
109,192,19110,1,0,0:0:0:0:
402,192,19110,1,0,0:0:0:0:
329,192,19260,1,0,0:0:0:0:
182,192,19410,1,2,0:0:0:0:
36,192,19410,1,0,0:0:0:0:
109,192,19560,1,0,0:0:0:0:
329,192,19710,1,8,0:0:0:0:
475,192,19710,1,8,0:0:0:0:
109,192,19860,1,0,0:0:0:0:
256,192,20010,1,2,0:0:0:0:
402,192,20010,1,0,0:0:0:0:
329,192,20160,1,0,0:0:0:0:
182,192,20310,1,8,0:0:0:0:
36,192,20310,1,8,0:0:0:0:
256,192,20460,1,0,0:0:0:0:
329,192,20610,1,2,0:0:0:0:
109,192,20610,1,0,0:0:0:0:
256,192,20760,1,0,0:0:0:0:
182,192,20910,1,8,0:0:0:0:
475,192,20910,1,8,0:0:0:0:
402,192,21060,1,0,0:0:0:0:
329,192,21210,1,2,0:0:0:0:
36,192,21210,1,0,0:0:0:0:
182,192,21360,1,0,0:0:0:0:
256,192,21510,1,8,0:0:0:0:
109,192,21510,1,8,0:0:0:0:
402,192,21510,1,0,0:0:0:0:
182,192,21660,1,0,0:0:0:0:
329,192,21810,1,2,0:0:0:0:
182,192,21960,1,0,0:0:0:0:
329,192,22110,1,8,0:0:0:0:
109,192,22110,1,8,0:0:0:0:
475,192,22260,1,0,0:0:0:0:
329,192,22410,1,6,0:0:0:0:
182,192,22560,1,0,0:0:0:0:
36,192,22710,1,8,0:0:0:0:
402,192,22710,1,8,0:0:0:0:
329,192,22860,1,0,0:0:0:0:
182,192,23010,1,2,0:0:0:0:
329,192,23160,1,0,0:0:0:0:
475,192,23310,1,8,0:0:0:0:
109,192,23310,1,8,0:0:0:0:
182,192,23460,1,0,0:0:0:0:
329,192,23610,1,0,0:0:0:0:
36,192,23760,1,0,0:0:0:0:
475,192,23910,1,8,1:0:0:0:
182,192,23910,1,0,0:0:0:0:
329,192,23910,1,0,0:0:0:0:
109,192,24060,1,8,1:0:0:0:
182,192,24210,1,8,1:0:0:0:
256,192,24360,1,0,0:0:0:0:
475,192,24510,1,8,0:0:0:0:
329,192,24510,1,8,0:0:0:0:
36,192,24510,1,0,0:0:0:0:
109,192,24660,1,0,0:0:0:0:
182,192,24810,1,2,0:0:0:0:
256,192,24960,1,0,0:0:0:0:
475,192,25110,1,8,0:0:0:0:
329,192,25110,1,8,0:0:0:0:
182,192,25110,1,0,0:0:0:0:
109,192,25260,1,0,0:0:0:0:
182,192,25410,1,2,0:0:0:0:
256,192,25560,1,0,0:0:0:0:
475,192,25710,1,8,0:0:0:0:
329,192,25710,1,8,0:0:0:0:
36,192,25710,1,0,0:0:0:0:
109,192,25860,1,0,0:0:0:0:
182,192,26010,1,2,0:0:0:0:
256,192,26160,1,0,0:0:0:0:
36,192,26310,1,8,0:0:0:0:
475,192,26310,1,8,0:0:0:0:
329,192,26310,1,0,0:0:0:0:
402,192,26460,1,0,0:0:0:0:
329,192,26610,1,2,0:0:0:0:
256,192,26760,1,0,0:0:0:0:
182,192,26910,1,8,0:0:0:0:
402,192,26910,1,8,0:0:0:0:
36,192,26910,1,0,0:0:0:0:
329,192,27060,1,0,0:0:0:0:
256,192,27210,1,2,0:0:0:0:
182,192,27360,1,0,0:0:0:0:
109,192,27510,1,8,0:0:0:0:
329,192,27510,1,8,0:0:0:0:
475,192,27510,1,0,0:0:0:0:
182,192,27810,1,2,0:0:0:0:
36,192,27810,1,0,0:0:0:0:
475,192,27810,1,0,0:0:0:0:
329,192,27960,1,0,0:0:0:0:
182,192,28110,1,8,0:0:0:0:
36,192,28110,1,8,0:0:0:0:
475,192,28110,1,0,0:0:0:0:
329,192,28260,1,0,0:0:0:0:
182,192,28410,1,2,0:0:0:0:
36,192,28410,1,0,0:0:0:0:
475,192,28410,1,0,0:0:0:0:
329,192,28560,1,0,0:0:0:0:
109,192,28710,1,8,0:0:0:0:
256,192,28710,1,8,0:0:0:0:
402,192,28710,1,0,0:0:0:0:
36,192,29010,1,2,0:0:0:0:
402,192,29010,1,0,0:0:0:0:
256,192,29010,1,0,0:0:0:0:
109,192,29160,1,0,0:0:0:0:
182,192,29310,1,8,0:0:0:0:
329,192,29310,1,8,0:0:0:0:
475,192,29310,1,0,0:0:0:0:
256,192,29460,1,0,0:0:0:0:
329,192,29610,1,2,0:0:0:0:
182,192,29610,1,0,0:0:0:0:
36,192,29610,1,0,0:0:0:0:
402,192,29760,1,0,0:0:0:0:
475,192,29910,1,8,0:0:0:0:
182,192,29910,1,8,0:0:0:0:
109,192,29910,1,0,0:0:0:0:
402,192,30060,1,0,0:0:0:0:
329,192,30210,1,2,0:0:0:0:
182,192,30210,1,0,0:0:0:0:
36,192,30210,1,0,0:0:0:0:
256,192,30360,1,0,0:0:0:0:
182,192,30510,1,8,0:0:0:0:
329,192,30510,1,8,0:0:0:0:
475,192,30510,1,0,0:0:0:0:
109,192,30660,1,0,0:0:0:0:
36,192,30810,1,2,0:0:0:0:
475,192,30810,1,0,0:0:0:0:
402,192,30810,1,0,0:0:0:0:
109,192,30960,1,0,0:0:0:0:
182,192,31110,1,8,0:0:0:0:
475,192,31110,1,8,0:0:0:0:
329,192,31110,1,0,0:0:0:0:
256,192,31260,1,0,0:0:0:0:
329,192,31410,1,2,0:0:0:0:
36,192,31410,1,0,0:0:0:0:
182,192,31410,1,0,0:0:0:0:
402,192,31560,1,0,0:0:0:0:
475,192,31710,1,8,0:0:0:0:
36,192,31710,1,8,0:0:0:0:
109,192,31710,1,0,0:0:0:0:
402,192,31860,1,0,0:0:0:0:
329,192,32010,1,2,0:0:0:0:
36,192,32010,1,0,0:0:0:0:
182,192,32010,1,0,0:0:0:0:
256,192,32160,1,0,0:0:0:0:
182,192,32310,1,8,0:0:0:0:
475,192,32310,1,8,0:0:0:0:
329,192,32310,1,0,0:0:0:0:
109,192,32460,1,0,0:0:0:0:
36,192,32610,1,2,0:0:0:0:
475,192,32610,1,0,0:0:0:0:
402,192,32610,1,0,0:0:0:0:
109,192,32760,1,0,0:0:0:0:
182,192,32910,1,8,0:0:0:0:
329,192,32910,1,8,0:0:0:0:
475,192,32910,1,0,0:0:0:0:
256,192,33060,1,0,0:0:0:0:
109,192,33210,1,0,0:0:0:0:
402,192,33210,1,0,0:0:0:0:
36,192,33360,1,0,0:0:0:0:
256,192,33360,1,0,0:0:0:0:
475,192,33360,1,0,0:0:0:0:
109,192,33510,1,8,0:0:0:0:
402,192,33510,1,8,0:0:0:0:
256,192,33660,1,0,0:0:0:0:
109,192,33810,1,2,0:0:0:0:
402,192,33810,1,2,0:0:0:0:
256,192,33960,1,0,0:0:0:0:
182,192,34110,1,8,0:0:0:0:
36,192,34110,1,8,0:0:0:0:
329,192,34110,1,0,0:0:0:0:
475,192,34110,1,0,0:0:0:0:
256,192,34410,1,2,0:0:0:0:
402,192,34710,1,8,0:0:0:0:
109,192,34710,1,8,0:0:0:0:
256,192,35010,1,2,0:0:0:0:
402,192,35310,1,8,0:0:0:0:
109,192,35310,1,8,0:0:0:0:
256,192,35610,1,2,0:0:0:0:
402,192,35910,1,8,0:0:0:0:
109,192,35910,1,8,0:0:0:0:
36,192,36060,1,0,0:0:0:0:
182,192,36210,1,2,0:0:0:0:
329,192,36360,1,0,0:0:0:0:
475,192,36510,1,8,0:0:0:0:
256,192,36510,1,8,0:0:0:0:
36,192,36510,1,0,0:0:0:0:
182,192,36660,1,0,0:0:0:0:
329,192,36810,1,2,0:0:0:0:
475,192,36810,128,0,37410:0:0:0:0:
402,192,37110,1,8,0:0:0:0:
36,192,37110,1,8,0:0:0:0:
256,192,37410,128,2,38010:0:0:0:0:
109,192,37410,1,0,0:0:0:0:
182,192,37710,1,8,0:0:0:0:
475,192,37710,1,8,0:0:0:0:
402,192,38010,1,2,0:0:0:0:
36,192,38010,128,0,38610:0:0:0:0:
329,192,38310,1,8,0:0:0:0:
109,192,38310,1,8,0:0:0:0:
182,192,38610,1,2,0:0:0:0:
329,192,38760,1,0,0:0:0:0:
475,192,38910,1,8,0:0:0:0:
402,192,38910,1,8,0:0:0:0:
329,192,39060,1,0,0:0:0:0:
182,192,39210,1,2,0:0:0:0:
329,192,39360,1,0,0:0:0:0:
36,192,39510,1,8,0:0:0:0:
109,192,39510,1,8,0:0:0:0:
475,192,39810,128,2,40410:0:0:0:0:
182,192,39810,1,0,0:0:0:0:
329,192,40110,1,8,0:0:0:0:
109,192,40110,1,8,0:0:0:0:
256,192,40410,1,2,0:0:0:0:
402,192,40710,1,8,0:0:0:0:
182,192,40710,1,8,0:0:0:0:
329,192,41010,1,2,0:0:0:0:
182,192,41160,1,0,0:0:0:0:
109,192,41310,1,8,0:0:0:0:
36,192,41310,1,8,0:0:0:0:
256,192,41460,1,0,0:0:0:0:
329,192,41610,1,2,0:0:0:0:
402,192,41760,128,0,42060:0:0:0:0:
182,192,41760,1,0,0:0:0:0:
36,192,41910,1,8,0:0:0:0:
109,192,41910,1,8,0:0:0:0:
475,192,42060,128,0,42510:0:0:0:0:
256,192,42210,1,2,0:0:0:0:
329,192,42510,128,8,42810:0:0:0:0:
36,192,42510,1,8,0:0:0:0:
109,192,42510,1,0,0:0:0:0:
182,192,42810,128,2,43110:0:0:0:0:
475,192,42960,1,0,0:0:0:0:
402,192,43110,1,8,0:0:0:0:
36,192,43110,128,8,43410:0:0:0:0:
329,192,43260,1,0,0:0:0:0:
402,192,43410,1,2,0:0:0:0:
256,192,43410,1,0,0:0:0:0:
109,192,43410,128,0,43860:0:0:0:0:
329,192,43560,1,0,0:0:0:0:
256,192,43710,1,8,0:0:0:0:
182,192,43860,1,0,0:0:0:0:
36,192,43860,128,0,45810:0:0:0:0:
475,192,44010,1,2,0:0:0:0:
256,192,44010,1,0,0:0:0:0:
109,192,44310,1,8,0:0:0:0:
182,192,44310,1,8,0:0:0:0:
256,192,44610,1,2,0:0:0:0:
475,192,44610,1,0,0:0:0:0:
329,192,44910,1,8,0:0:0:0:
402,192,44910,1,8,0:0:0:0:
475,192,45210,1,2,0:0:0:0:
256,192,45210,1,0,0:0:0:0:
182,192,45510,1,8,0:0:0:0:
109,192,45510,1,8,0:0:0:0:
256,192,45810,1,2,0:0:0:0:
475,192,45810,1,0,0:0:0:0:
182,192,46110,1,8,0:0:0:0:
402,192,46110,1,8,0:0:0:0:
256,192,46410,1,2,0:0:0:0:
475,192,46410,1,0,0:0:0:0:
36,192,46410,128,0,47010:0:0:0:0:
182,192,46710,1,8,0:0:0:0:
402,192,46710,1,8,0:0:0:0:
256,192,47010,128,2,47610:0:0:0:0:
329,192,47010,1,0,0:0:0:0:
109,192,47010,1,0,0:0:0:0:
182,192,47310,1,8,0:0:0:0:
402,192,47310,1,8,0:0:0:0:
329,192,47610,1,2,0:0:0:0:
475,192,47610,128,0,47910:0:0:0:0:
109,192,47610,1,0,0:0:0:0:
36,192,47910,1,2,0:0:0:0:
256,192,47910,1,0,0:0:0:0:
36,192,48210,1,8,0:0:0:0:
109,192,48210,1,8,0:0:0:0:
475,192,48210,1,0,0:0:0:0:
402,192,48210,1,0,0:0:0:0:
329,192,48510,1,0,0:0:0:0:
256,192,48510,1,0,0:0:0:0:
182,192,48510,1,0,0:0:0:0:
36,192,48660,1,0,0:0:0:0:
109,192,48660,1,0,0:0:0:0:
475,192,48660,1,0,0:0:0:0:
402,192,48660,1,0,0:0:0:0:
329,192,49110,1,0,0:0:0:0:
256,192,49110,1,0,0:0:0:0:
182,192,49110,1,0,0:0:0:0:
36,192,49410,1,0,0:0:0:0:
109,192,49410,1,0,0:0:0:0:
475,192,49410,1,0,0:0:0:0:
402,192,49410,1,0,0:0:0:0:
182,192,49710,1,0,0:0:0:0:
329,192,49710,1,0,0:0:0:0:
256,192,49710,1,0,0:0:0:0:
36,192,49860,1,0,0:0:0:0:
109,192,49860,1,0,0:0:0:0:
475,192,49860,1,0,0:0:0:0:
402,192,49860,1,0,0:0:0:0:
182,192,50310,1,0,0:0:0:0:
329,192,50310,1,0,0:0:0:0:
256,192,50310,1,0,0:0:0:0:
475,192,50610,1,4,0:0:0:0:
402,192,50610,1,4,0:0:0:0:
36,192,50610,1,0,0:0:0:0:
109,192,50610,1,0,0:0:0:0:
329,192,50910,1,0,0:0:0:0:
256,192,50910,1,0,0:0:0:0:
182,192,50910,1,0,0:0:0:0:
402,192,51060,1,0,0:0:0:0:
475,192,51060,1,0,0:0:0:0:
109,192,51060,1,0,0:0:0:0:
36,192,51060,1,0,0:0:0:0:
182,192,51510,1,0,0:0:0:0:
329,192,51510,1,0,0:0:0:0:
256,192,51510,1,0,0:0:0:0:
402,192,51810,1,0,0:0:0:0:
475,192,51810,1,0,0:0:0:0:
109,192,51810,1,0,0:0:0:0:
36,192,51810,1,0,0:0:0:0:
256,192,52110,1,0,0:0:0:0:
329,192,52110,1,0,0:0:0:0:
182,192,52110,1,0,0:0:0:0:
109,192,52260,1,0,0:0:0:0:
36,192,52260,1,0,0:0:0:0:
402,192,52260,1,0,0:0:0:0:
475,192,52260,1,0,0:0:0:0:
256,192,52710,1,0,0:0:0:0:
182,192,52710,1,0,0:0:0:0:
329,192,52710,1,0,0:0:0:0:
402,192,53010,1,8,1:0:0:0:
475,192,53010,1,0,0:0:0:0:
36,192,53010,1,0,0:0:0:0:
109,192,53010,1,0,0:0:0:0:
402,192,53160,1,8,1:0:0:0:
475,192,53160,1,0,0:0:0:0:
109,192,53160,1,0,0:0:0:0:
36,192,53160,1,0,0:0:0:0:
402,192,53460,1,8,1:0:0:0:
109,192,53460,1,0,0:0:0:0:
36,192,53460,1,0,0:0:0:0:
475,192,53460,1,0,0:0:0:0:
109,192,53760,1,8,1:0:0:0:
402,192,53760,1,0,0:0:0:0:
36,192,53760,1,0,0:0:0:0:
475,192,53760,1,0,0:0:0:0:
109,192,54060,1,8,1:0:0:0:
36,192,54060,1,0,0:0:0:0:
402,192,54060,1,0,0:0:0:0:
475,192,54060,1,0,0:0:0:0:
109,192,54210,1,8,1:0:0:0:
36,192,54210,1,0,0:0:0:0:
475,192,54210,1,0,0:0:0:0:
402,192,54210,1,0,0:0:0:0:
36,192,54360,1,8,1:0:0:0:
109,192,54360,1,0,0:0:0:0:
402,192,54360,1,0,0:0:0:0:
475,192,54360,1,0,0:0:0:0:
475,192,54810,1,8,1:0:0:0:
36,192,54810,1,0,0:0:0:0:
109,192,54810,1,0,0:0:0:0:
402,192,54810,1,0,0:0:0:0:
36,192,55110,1,8,1:0:0:0:
109,192,55110,1,0,0:0:0:0:
402,192,55110,1,0,0:0:0:0:
475,192,55110,1,0,0:0:0:0:
109,192,55410,1,8,1:0:0:0:
36,192,55410,1,0,0:0:0:0:
475,192,55410,1,0,0:0:0:0:
402,192,55410,1,0,0:0:0:0:
109,192,55560,1,8,1:0:0:0:
36,192,55560,1,0,0:0:0:0:
475,192,55560,1,0,0:0:0:0:
402,192,55560,1,0,0:0:0:0:
402,192,55860,1,8,1:0:0:0:
475,192,55860,1,0,0:0:0:0:
36,192,55860,1,0,0:0:0:0:
109,192,55860,1,0,0:0:0:0:
109,192,56160,1,8,1:0:0:0:
402,192,56160,1,0,0:0:0:0:
475,192,56160,1,0,0:0:0:0:
36,192,56160,1,0,0:0:0:0:
475,192,56460,1,8,1:0:0:0:
402,192,56460,1,0,0:0:0:0:
36,192,56460,1,0,0:0:0:0:
109,192,56460,1,0,0:0:0:0:
109,192,56610,1,8,1:0:0:0:
36,192,56610,1,0,0:0:0:0:
402,192,56610,1,0,0:0:0:0:
475,192,56610,1,0,0:0:0:0:
36,192,56760,1,8,1:0:0:0:
109,192,56760,1,0,0:0:0:0:
402,192,56760,1,0,0:0:0:0:
475,192,56760,1,0,0:0:0:0:
36,192,56910,1,8,1:0:0:0:
402,192,56910,1,0,0:0:0:0:
475,192,56910,1,0,0:0:0:0:
109,192,56910,1,0,0:0:0:0:
256,192,57210,1,8,1:0:0:0:
182,192,57210,1,0,0:0:0:0:
329,192,57210,1,0,0:0:0:0:
256,192,57510,1,8,1:0:0:0:
256,192,57810,128,0,59610:0:0:0:0:
329,192,57810,128,0,58410:0:0:0:0:
475,192,58110,1,0,0:0:0:0:
182,192,58410,128,0,59010:0:0:0:0:
36,192,58710,1,0,0:0:0:0:
329,192,59010,128,0,59610:0:0:0:0:
475,192,59310,1,0,0:0:0:0:
182,192,60210,128,2,60510:0:0:0:0:
109,192,60210,1,0,0:0:0:0:
329,192,60510,128,2,60810:0:0:0:0:
256,192,60510,1,0,0:0:0:0:
475,192,60810,128,2,61110:0:0:0:0:
109,192,60810,1,0,0:0:0:0:
329,192,61110,128,2,61410:0:0:0:0:
256,192,61110,1,0,0:0:0:0:
182,192,61410,128,2,61710:0:0:0:0:
109,192,61410,1,0,0:0:0:0:
36,192,61710,128,2,62010:0:0:0:0:
256,192,61710,1,0,0:0:0:0:
109,192,62010,1,2,0:0:0:0:
256,192,62310,1,2,0:0:0:0:
329,192,62610,128,2,62760:0:0:0:0:
36,192,62610,1,0,0:0:0:0:
475,192,62760,128,0,62910:0:0:0:0:
329,192,62910,128,2,63060:0:0:0:0:
109,192,62910,1,0,0:0:0:0:
475,192,63060,128,0,63210:0:0:0:0:
329,192,63210,128,2,63360:0:0:0:0:
182,192,63210,1,0,0:0:0:0:
256,192,63510,1,2,0:0:0:0:
475,192,63510,128,0,63810:0:0:0:0:
36,192,63810,128,2,64110:0:0:0:0:
329,192,63810,1,0,0:0:0:0:
475,192,64110,1,2,0:0:0:0:
402,192,64410,1,2,0:0:0:0:
329,192,64710,1,2,0:0:0:0:
182,192,65010,128,2,65310:0:0:0:0:
256,192,65010,1,0,0:0:0:0:
402,192,65010,1,0,0:0:0:0:
329,192,65310,128,2,65610:0:0:0:0:
475,192,65310,1,0,0:0:0:0:
109,192,65610,1,2,0:0:0:0:
36,192,65610,128,0,65910:0:0:0:0:
182,192,65910,128,2,66210:0:0:0:0:
256,192,65910,1,0,0:0:0:0:
475,192,66210,128,2,66510:0:0:0:0:
329,192,66210,1,0,0:0:0:0:
182,192,66510,128,0,66810:0:0:0:0:
36,192,66510,1,0,0:0:0:0:
329,192,66810,1,2,0:0:0:0:
109,192,66810,1,0,0:0:0:0:
329,192,67110,1,0,0:0:0:0:
109,192,67110,1,0,0:0:0:0:
475,192,67410,1,2,0:0:0:0:
182,192,67410,128,0,67560:0:0:0:0:
36,192,67560,1,2,0:0:0:0:
329,192,67560,128,0,67710:0:0:0:0:
475,192,67710,1,2,0:0:0:0:
182,192,67710,128,0,67860:0:0:0:0:
36,192,67860,1,2,0:0:0:0:
329,192,67860,128,0,68010:0:0:0:0:
475,192,68010,1,2,0:0:0:0:
182,192,68010,128,0,68160:0:0:0:0:
109,192,68160,1,2,0:0:0:0:
402,192,68310,1,2,0:0:0:0:
256,192,68310,128,0,68610:0:0:0:0:
109,192,68460,1,2,0:0:0:0:
475,192,68610,128,2,69510:0:0:0:0:
402,192,68610,1,0,0:0:0:0:
36,192,68610,128,0,69510:0:0:0:0:
182,192,69510,1,8,0:0:0:0:
329,192,69510,1,8,0:0:0:0:
182,192,69810,1,0,0:0:0:0:
329,192,69960,1,0,0:0:0:0:
182,192,70110,1,8,0:0:0:0:
36,192,70110,1,8,0:0:0:0:
402,192,70110,1,0,0:0:0:0:
329,192,70260,1,0,0:0:0:0:
475,192,70410,1,2,0:0:0:0:
329,192,70560,1,0,0:0:0:0:
182,192,70710,1,8,0:0:0:0:
402,192,70710,1,8,0:0:0:0:
256,192,70710,1,0,0:0:0:0:
36,192,70860,1,0,0:0:0:0:
109,192,71010,1,2,0:0:0:0:
256,192,71160,1,0,0:0:0:0:
109,192,71310,1,8,0:0:0:0:
329,192,71310,1,8,0:0:0:0:
475,192,71310,1,0,0:0:0:0:
256,192,71460,1,0,0:0:0:0:
36,192,71610,1,0,0:0:0:0:
182,192,71760,1,0,0:0:0:0:
475,192,71910,1,8,0:0:0:0:
256,192,71910,1,8,0:0:0:0:
109,192,71910,1,0,0:0:0:0:
329,192,72060,1,0,0:0:0:0:
36,192,72210,1,2,0:0:0:0:
182,192,72360,1,0,0:0:0:0:
329,192,72510,1,8,0:0:0:0:
475,192,72510,1,8,0:0:0:0:
109,192,72510,1,0,0:0:0:0:
256,192,72660,1,0,0:0:0:0:
402,192,72810,1,2,0:0:0:0:
329,192,72960,1,0,0:0:0:0:
475,192,73110,1,8,0:0:0:0:
182,192,73110,1,8,0:0:0:0:
36,192,73110,1,0,0:0:0:0:
256,192,73260,1,0,0:0:0:0:
402,192,73410,1,2,0:0:0:0:
109,192,73560,1,0,0:0:0:0:
256,192,73710,1,8,0:0:0:0:
475,192,73710,1,8,0:0:0:0:
36,192,73710,1,0,0:0:0:0:
109,192,73860,1,0,0:0:0:0:
256,192,74010,1,2,0:0:0:0:
402,192,74160,1,0,0:0:0:0:
109,192,74310,1,8,0:0:0:0:
329,192,74310,1,8,0:0:0:0:
475,192,74310,1,0,0:0:0:0:
256,192,74460,1,0,0:0:0:0:
182,192,74610,1,2,0:0:0:0:
329,192,74760,1,0,0:0:0:0:
475,192,74910,1,8,0:0:0:0:
36,192,74910,1,8,0:0:0:0:
256,192,74910,1,0,0:0:0:0:
475,192,75060,1,0,0:0:0:0:
182,192,75210,1,2,0:0:0:0:
329,192,75360,1,0,0:0:0:0:
475,192,75510,1,8,0:0:0:0:
109,192,75510,1,8,0:0:0:0:
256,192,75510,1,0,0:0:0:0:
475,192,75660,1,0,0:0:0:0:
182,192,75810,1,2,0:0:0:0:
329,192,75960,1,0,0:0:0:0:
475,192,76110,1,8,0:0:0:0:
36,192,76110,1,8,0:0:0:0:
256,192,76110,1,0,0:0:0:0:
475,192,76260,1,0,0:0:0:0:
182,192,76410,1,2,0:0:0:0:
329,192,76560,1,0,0:0:0:0:
475,192,76710,1,8,0:0:0:0:
109,192,76710,1,8,0:0:0:0:
256,192,76710,1,0,0:0:0:0:
36,192,76860,1,0,0:0:0:0:
182,192,77010,1,2,1:0:0:0:
36,192,77160,1,0,0:0:0:0:
329,192,77310,1,2,1:0:0:0:
475,192,77310,1,0,0:0:0:0:
182,192,77310,1,0,0:0:0:0:
36,192,77460,1,2,1:0:0:0:
329,192,77610,1,0,0:0:0:0:
36,192,77760,1,2,1:0:0:0:
256,192,77910,1,0,0:0:0:0:
402,192,77910,1,0,0:0:0:0:
109,192,77910,1,0,0:0:0:0:
182,192,78060,1,2,1:0:0:0:
329,192,78210,1,2,1:0:0:0:
36,192,78360,1,2,0:0:0:0:
256,192,78360,1,0,0:0:0:0:
402,192,78360,1,0,0:0:0:0:
256,192,78510,1,0,0:0:0:0:
402,192,78510,1,0,0:0:0:0:
109,192,78660,1,0,0:0:0:0:
475,192,78810,1,2,0:0:0:0:
182,192,78810,1,0,0:0:0:0:
36,192,78810,1,0,0:0:0:0:
256,192,78960,1,2,0:0:0:0:
475,192,78960,1,0,0:0:0:0:
36,192,78960,1,0,0:0:0:0:
329,192,79110,1,2,0:0:0:0:
475,192,79110,1,0,0:0:0:0:
36,192,79110,1,0,0:0:0:0:
36,192,79410,1,2,0:0:0:0:
329,192,79410,1,2,0:0:0:0:
475,192,79410,1,0,0:0:0:0:
182,192,79560,1,0,0:0:0:0:
329,192,79710,1,8,0:0:0:0:
182,192,79860,1,0,0:0:0:0:
329,192,80010,1,2,0:0:0:0:
109,192,80010,1,0,0:0:0:0:
475,192,80010,1,0,0:0:0:0:
402,192,80160,1,0,0:0:0:0:
256,192,80310,1,8,0:0:0:0:
109,192,80460,1,0,0:0:0:0:
36,192,80610,1,2,0:0:0:0:
329,192,80610,1,2,0:0:0:0:
182,192,80610,1,0,0:0:0:0:
402,192,80760,1,0,0:0:0:0:
256,192,80910,1,8,0:0:0:0:
402,192,81060,1,0,0:0:0:0:
182,192,81210,1,2,0:0:0:0:
329,192,81210,1,2,0:0:0:0:
475,192,81210,1,0,0:0:0:0:
402,192,81360,1,0,0:0:0:0:
256,192,81510,1,8,0:0:0:0:
109,192,81660,1,0,0:0:0:0:
329,192,81810,1,2,0:0:0:0:
182,192,81810,1,0,0:0:0:0:
475,192,81810,1,0,0:0:0:0:
36,192,81960,1,0,0:0:0:0:
182,192,82110,1,8,0:0:0:0:
109,192,82260,1,0,0:0:0:0:
256,192,82410,1,2,0:0:0:0:
402,192,82410,1,0,0:0:0:0:
36,192,82410,1,0,0:0:0:0:
182,192,82560,1,0,0:0:0:0:
329,192,82710,1,8,0:0:0:0:
256,192,82860,1,0,0:0:0:0:
402,192,83010,1,2,0:0:0:0:
109,192,83010,1,0,0:0:0:0:
475,192,83010,1,0,0:0:0:0:
256,192,83160,1,0,0:0:0:0:
329,192,83310,1,8,0:0:0:0:
182,192,83460,1,0,0:0:0:0:
109,192,83610,1,2,0:0:0:0:
36,192,83610,1,0,0:0:0:0:
256,192,83610,1,0,0:0:0:0:
402,192,83760,1,0,0:0:0:0:
329,192,83910,1,8,0:0:0:0:
475,192,84060,1,0,0:0:0:0:
109,192,84210,1,2,0:0:0:0:
36,192,84210,1,0,0:0:0:0:
256,192,84210,1,0,0:0:0:0:
329,192,84360,1,0,0:0:0:0:
402,192,84510,1,8,0:0:0:0:
329,192,84660,1,0,0:0:0:0:
109,192,84810,1,2,0:0:0:0:
36,192,84810,1,0,0:0:0:0:
256,192,84810,1,0,0:0:0:0:
329,192,84960,1,0,0:0:0:0:
402,192,85110,1,8,0:0:0:0:
329,192,85260,1,0,0:0:0:0:
36,192,85410,1,2,0:0:0:0:
402,192,85410,1,0,0:0:0:0:
475,192,85410,1,0,0:0:0:0:
109,192,85560,1,0,0:0:0:0:
182,192,85710,1,8,0:0:0:0:
109,192,85860,1,0,0:0:0:0:
36,192,86010,1,2,0:0:0:0:
402,192,86010,1,0,0:0:0:0:
475,192,86010,1,0,0:0:0:0:
109,192,86160,1,0,0:0:0:0:
182,192,86310,1,8,0:0:0:0:
109,192,86460,1,0,0:0:0:0:
36,192,86610,1,2,0:0:0:0:
329,192,86610,1,0,0:0:0:0:
182,192,86610,1,0,0:0:0:0:
109,192,86760,1,0,0:0:0:0:
256,192,86910,1,8,0:0:0:0:
109,192,87060,1,0,0:0:0:0:
256,192,87210,1,2,0:0:0:0:
329,192,87210,1,0,0:0:0:0:
475,192,87210,1,0,0:0:0:0:
109,192,87360,1,0,0:0:0:0:
256,192,87510,1,8,0:0:0:0:
182,192,87660,1,0,0:0:0:0:
109,192,87810,1,2,0:0:0:0:
329,192,87810,1,0,0:0:0:0:
475,192,87810,1,0,0:0:0:0:
36,192,87960,1,0,0:0:0:0:
256,192,88110,1,8,0:0:0:0:
402,192,88260,1,0,0:0:0:0:
182,192,88410,1,2,0:0:0:0:
329,192,88410,1,0,0:0:0:0:
475,192,88410,1,0,0:0:0:0:
36,192,88560,1,0,0:0:0:0:
256,192,88710,1,8,0:0:0:0:
109,192,88710,1,8,0:0:0:0:
402,192,88710,1,0,0:0:0:0:
36,192,89010,1,2,0:0:0:0:
182,192,89010,1,2,0:0:0:0:
329,192,89010,1,0,0:0:0:0:
402,192,89160,1,0,0:0:0:0:
182,192,89310,1,8,0:0:0:0:
402,192,89460,1,0,0:0:0:0:
182,192,89610,1,2,0:0:0:0:
36,192,89610,1,0,0:0:0:0:
402,192,89760,1,0,0:0:0:0:
329,192,89910,1,8,0:0:0:0:
256,192,90060,1,0,0:0:0:0:
182,192,90210,1,2,0:0:0:0:
475,192,90210,1,2,0:0:0:0:
36,192,90210,1,0,0:0:0:0:
256,192,90360,1,0,0:0:0:0:
182,192,90510,1,8,0:0:0:0:
256,192,90660,1,0,0:0:0:0:
329,192,90810,1,2,0:0:0:0:
109,192,90810,1,2,0:0:0:0:
475,192,90810,1,0,0:0:0:0:
256,192,90960,1,0,0:0:0:0:
329,192,91110,1,8,0:0:0:0:
256,192,91260,1,0,0:0:0:0:
182,192,91410,1,2,0:0:0:0:
475,192,91410,1,0,0:0:0:0:
36,192,91410,1,0,0:0:0:0:
256,192,91560,1,0,0:0:0:0:
182,192,91710,1,8,0:0:0:0:
256,192,91860,1,0,0:0:0:0:
329,192,92010,1,2,0:0:0:0:
402,192,92010,1,0,0:0:0:0:
109,192,92010,1,0,0:0:0:0:
256,192,92160,1,0,0:0:0:0:
329,192,92310,1,8,0:0:0:0:
402,192,92460,1,0,0:0:0:0:
475,192,92610,1,2,0:0:0:0:
182,192,92610,1,0,0:0:0:0:
36,192,92610,1,0,0:0:0:0:
402,192,92760,1,0,0:0:0:0:
329,192,92910,1,8,0:0:0:0:
256,192,93060,1,0,0:0:0:0:
182,192,93210,1,2,0:0:0:0:
329,192,93210,1,0,0:0:0:0:
475,192,93210,1,0,0:0:0:0:
256,192,93360,1,0,0:0:0:0:
402,192,93510,1,8,0:0:0:0:
256,192,93660,1,0,0:0:0:0:
109,192,93810,1,2,0:0:0:0:
329,192,93810,1,0,0:0:0:0:
475,192,93810,1,0,0:0:0:0:
256,192,93960,1,0,0:0:0:0:
109,192,94110,1,8,0:0:0:0:
256,192,94260,1,0,0:0:0:0:
109,192,94410,1,2,0:0:0:0:
329,192,94410,1,0,0:0:0:0:
475,192,94410,1,0,0:0:0:0:
256,192,94560,1,0,0:0:0:0:
109,192,94710,1,8,0:0:0:0:
256,192,94860,1,0,0:0:0:0:
402,192,95010,1,2,0:0:0:0:
182,192,95010,1,0,0:0:0:0:
36,192,95010,1,0,0:0:0:0:
256,192,95160,1,0,0:0:0:0:
402,192,95310,1,8,0:0:0:0:
256,192,95460,1,0,0:0:0:0:
402,192,95610,1,2,0:0:0:0:
36,192,95610,1,0,0:0:0:0:
182,192,95610,1,0,0:0:0:0:
256,192,95760,1,0,0:0:0:0:
402,192,95910,1,8,0:0:0:0:
329,192,96060,1,0,0:0:0:0:
256,192,96210,1,2,0:0:0:0:
109,192,96210,1,2,0:0:0:0:
402,192,96210,1,0,0:0:0:0:
182,192,96360,1,0,0:0:0:0:
329,192,96510,1,8,0:0:0:0:
256,192,96660,1,0,0:0:0:0:
182,192,96810,1,2,0:0:0:0:
36,192,96810,1,0,0:0:0:0:
402,192,96810,1,0,0:0:0:0:
109,192,96960,1,0,0:0:0:0:
36,192,97110,1,8,0:0:0:0:
402,192,97110,1,8,0:0:0:0:
256,192,97110,1,0,0:0:0:0:
109,192,97260,1,0,0:0:0:0:
329,192,97410,1,2,0:0:0:0:
182,192,97410,1,0,0:0:0:0:
475,192,97410,1,0,0:0:0:0:
109,192,97560,1,0,0:0:0:0:
475,192,97710,1,8,0:0:0:0:
182,192,97710,1,8,0:0:0:0:
329,192,97710,1,0,0:0:0:0:
109,192,97860,1,0,0:0:0:0:
36,192,98010,1,0,0:0:0:0:
182,192,98010,1,0,0:0:0:0:
402,192,98010,1,0,0:0:0:0:
109,192,98160,1,0,0:0:0:0:
475,192,98310,1,8,0:0:0:0:
182,192,98310,1,8,0:0:0:0:
329,192,98310,1,0,0:0:0:0:
256,192,98610,1,2,0:0:0:0:
36,192,98610,1,0,0:0:0:0:
402,192,98760,1,0,0:0:0:0:
256,192,98910,1,8,0:0:0:0:
109,192,98910,1,8,0:0:0:0:
475,192,98910,1,0,0:0:0:0:
402,192,99060,1,0,0:0:0:0:
256,192,99210,1,0,0:0:0:0:
475,192,99210,1,0,0:0:0:0:
402,192,99360,1,0,0:0:0:0:
329,192,99510,1,8,0:0:0:0:
36,192,99510,1,8,0:0:0:0:
182,192,99510,1,0,0:0:0:0:
256,192,99660,1,0,0:0:0:0:
182,192,99810,1,2,0:0:0:0:
475,192,99810,1,0,0:0:0:0:
109,192,99810,1,0,0:0:0:0:
256,192,99960,1,0,0:0:0:0:
182,192,100110,1,8,0:0:0:0:
402,192,100110,1,8,0:0:0:0:
36,192,100110,1,0,0:0:0:0:
256,192,100260,1,0,0:0:0:0:
329,192,100410,1,2,0:0:0:0:
36,192,100410,1,0,0:0:0:0:
475,192,100410,1,0,0:0:0:0:
256,192,100560,1,0,0:0:0:0:
329,192,100710,1,8,0:0:0:0:
109,192,100710,1,8,0:0:0:0:
475,192,100710,1,0,0:0:0:0:
256,192,100860,1,0,0:0:0:0:
182,192,101010,1,2,0:0:0:0:
109,192,101010,1,0,0:0:0:0:
475,192,101010,1,0,0:0:0:0:
256,192,101160,1,0,0:0:0:0:
182,192,101310,1,8,0:0:0:0:
402,192,101310,1,8,0:0:0:0:
36,192,101310,1,0,0:0:0:0:
256,192,101460,1,0,0:0:0:0:
182,192,101610,1,2,0:0:0:0:
36,192,101610,1,0,0:0:0:0:
329,192,101610,1,0,0:0:0:0:
402,192,101760,1,0,0:0:0:0:
256,192,101910,1,8,0:0:0:0:
109,192,101910,1,8,0:0:0:0:
475,192,101910,1,0,0:0:0:0:
182,192,102060,1,0,0:0:0:0:
109,192,102210,1,2,0:0:0:0:
475,192,102210,1,0,0:0:0:0:
329,192,102210,1,0,0:0:0:0:
402,192,102360,1,0,0:0:0:0:
329,192,102510,1,8,0:0:0:0:
36,192,102510,1,8,0:0:0:0:
475,192,102510,1,0,0:0:0:0:
182,192,102660,1,0,0:0:0:0:
256,192,102810,1,2,0:0:0:0:
109,192,102810,1,0,0:0:0:0:
475,192,102810,1,0,0:0:0:0:
329,192,102960,1,0,0:0:0:0:
182,192,103110,1,8,0:0:0:0:
36,192,103110,1,8,0:0:0:0:
402,192,103110,1,0,0:0:0:0:
475,192,103260,1,0,0:0:0:0:
256,192,103410,1,8,0:0:0:0:
329,192,103410,1,0,0:0:0:0:
36,192,103410,1,0,0:0:0:0:
109,192,103560,1,0,0:0:0:0:
256,192,103710,1,8,0:0:0:0:
402,192,103710,1,8,0:0:0:0:
36,192,103710,1,0,0:0:0:0:
109,192,103860,1,0,0:0:0:0:
256,192,104010,1,0,0:0:0:0:
475,192,104010,1,0,0:0:0:0:
329,192,104010,1,0,0:0:0:0:
109,192,104160,1,0,0:0:0:0:
256,192,104310,1,8,0:0:0:0:
36,192,104310,1,8,0:0:0:0:
402,192,104310,1,0,0:0:0:0:
109,192,104460,1,0,0:0:0:0:
256,192,104610,1,2,0:0:0:0:
36,192,104610,1,0,0:0:0:0:
182,192,104610,1,0,0:0:0:0:
402,192,104760,1,0,0:0:0:0:
182,192,104910,1,8,0:0:0:0:
475,192,104910,1,8,0:0:0:0:
329,192,104910,1,0,0:0:0:0:
109,192,105060,1,0,0:0:0:0:
182,192,105210,1,0,0:0:0:0:
475,192,105210,1,0,0:0:0:0:
329,192,105210,1,0,0:0:0:0:
109,192,105360,1,0,0:0:0:0:
256,192,105510,1,8,0:0:0:0:
402,192,105510,1,8,0:0:0:0:
36,192,105510,1,0,0:0:0:0:
182,192,105660,1,0,0:0:0:0:
256,192,105810,1,2,1:0:0:0:
109,192,105810,1,0,0:0:0:0:
475,192,105810,1,0,0:0:0:0:
329,192,105960,1,0,0:0:0:0:
36,192,106110,1,2,1:0:0:0:
182,192,106110,1,0,0:0:0:0:
402,192,106110,1,0,0:0:0:0:
109,192,106260,1,2,1:0:0:0:
329,192,106410,1,0,0:0:0:0:
475,192,106410,1,0,0:0:0:0:
36,192,106410,1,0,0:0:0:0:
256,192,106560,1,2,1:0:0:0:
182,192,106710,1,0,0:0:0:0:
402,192,106710,1,0,0:0:0:0:
109,192,106710,1,0,0:0:0:0:
475,192,106860,1,2,1:0:0:0:
182,192,107010,1,2,1:0:0:0:
329,192,107010,1,0,0:0:0:0:
36,192,107010,1,0,0:0:0:0:
256,192,107160,1,0,0:0:0:0:
182,192,107310,1,2,0:0:0:0:
36,192,107310,1,0,0:0:0:0:
329,192,107310,1,0,0:0:0:0:
109,192,107460,1,0,0:0:0:0:
402,192,107610,1,2,0:0:0:0:
256,192,107760,1,0,0:0:0:0:
329,192,107910,1,8,0:0:0:0:
109,192,108060,1,0,0:0:0:0:
182,192,108210,1,2,0:0:0:0:
329,192,108210,1,0,0:0:0:0:
329,192,108360,1,0,0:0:0:0:
475,192,108510,1,8,0:0:0:0:
182,192,108510,1,8,0:0:0:0:
475,192,108660,1,0,0:0:0:0:
109,192,108810,1,2,0:0:0:0:
256,192,108810,1,0,0:0:0:0:
256,192,108960,1,0,0:0:0:0:
329,192,109110,1,8,0:0:0:0:
182,192,109110,1,8,0:0:0:0:
402,192,109260,1,0,0:0:0:0:
36,192,109410,1,2,0:0:0:0:
182,192,109410,1,0,0:0:0:0:
36,192,109560,1,0,0:0:0:0:
182,192,109710,1,8,0:0:0:0:
329,192,109710,1,8,0:0:0:0:
402,192,109860,1,0,0:0:0:0:
36,192,110010,1,2,0:0:0:0:
182,192,110010,1,0,0:0:0:0:
36,192,110160,1,0,0:0:0:0:
182,192,110310,1,8,0:0:0:0:
329,192,110310,1,8,0:0:0:0:
402,192,110460,1,0,0:0:0:0:
109,192,110610,1,2,0:0:0:0:
256,192,110610,1,0,0:0:0:0:
256,192,110760,1,0,0:0:0:0:
475,192,110910,1,8,0:0:0:0:
109,192,110910,1,8,0:0:0:0:
475,192,111060,1,0,0:0:0:0:
182,192,111210,1,2,0:0:0:0:
36,192,111210,1,0,0:0:0:0:
475,192,111360,1,0,0:0:0:0:
475,192,111510,1,8,0:0:0:0:
109,192,111510,1,8,0:0:0:0:
475,192,111660,1,0,0:0:0:0:
182,192,111810,1,2,0:0:0:0:
36,192,111810,1,0,0:0:0:0:
256,192,111810,128,0,112410:0:0:0:0:
475,192,111960,1,0,0:0:0:0:
475,192,112110,1,0,0:0:0:0:
36,192,112110,1,0,0:0:0:0:
475,192,112260,1,0,0:0:0:0:
36,192,112410,1,8,1:0:0:0:
402,192,112410,1,0,0:0:0:0:
402,192,112560,1,8,1:0:0:0:
182,192,112560,1,0,0:0:0:0:
36,192,112710,1,8,1:0:0:0:
329,192,112710,1,0,0:0:0:0:
402,192,112860,1,8,1:0:0:0:
182,192,112860,1,0,0:0:0:0:
36,192,113010,1,4,0:0:0:0:
475,192,113010,1,4,0:0:0:0:
256,192,113010,1,0,0:0:0:0:
402,192,113160,1,0,0:0:0:0:
109,192,113310,1,8,0:0:0:0:
329,192,113310,1,8,0:0:0:0:
36,192,113310,1,0,0:0:0:0:
36,192,113610,1,2,0:0:0:0:
402,192,113610,1,0,0:0:0:0:
36,192,113910,1,8,0:0:0:0:
109,192,113910,1,8,0:0:0:0:
256,192,113910,1,0,0:0:0:0:
402,192,114060,1,0,0:0:0:0:
36,192,114210,1,2,0:0:0:0:
402,192,114360,1,0,0:0:0:0:
36,192,114510,1,8,0:0:0:0:
109,192,114510,1,8,0:0:0:0:
256,192,114510,1,0,0:0:0:0:
402,192,114660,1,0,0:0:0:0:
36,192,114810,1,2,0:0:0:0:
402,192,114960,1,0,0:0:0:0:
109,192,115110,1,8,0:0:0:0:
36,192,115110,1,8,0:0:0:0:
329,192,115110,1,0,0:0:0:0:
256,192,115260,1,0,0:0:0:0:
475,192,115410,1,2,0:0:0:0:
36,192,115410,1,0,0:0:0:0:
182,192,115560,1,0,0:0:0:0:
475,192,115710,1,8,0:0:0:0:
329,192,115710,1,8,0:0:0:0:
109,192,115710,1,0,0:0:0:0:
475,192,116010,1,2,0:0:0:0:
109,192,116010,1,0,0:0:0:0:
329,192,116310,1,8,0:0:0:0:
475,192,116310,1,8,0:0:0:0:
36,192,116310,1,0,0:0:0:0:
109,192,116460,1,0,0:0:0:0:
475,192,116610,1,2,0:0:0:0:
256,192,116610,1,0,0:0:0:0:
182,192,116760,1,0,0:0:0:0:
475,192,116910,1,8,0:0:0:0:
329,192,116910,1,8,0:0:0:0:
109,192,116910,1,0,0:0:0:0:
36,192,117210,1,2,0:0:0:0:
475,192,117210,1,0,0:0:0:0:
109,192,117360,1,0,0:0:0:0:
475,192,117510,1,8,0:0:0:0:
182,192,117510,1,8,0:0:0:0:
329,192,117510,1,0,0:0:0:0:
109,192,117660,1,0,0:0:0:0:
36,192,117810,1,2,0:0:0:0:
475,192,117810,1,0,0:0:0:0:
402,192,117960,1,0,0:0:0:0:
109,192,118110,1,8,0:0:0:0:
182,192,118110,128,8,118410:0:0:0:0:
329,192,118110,1,0,0:0:0:0:
256,192,118410,1,2,0:0:0:0:
402,192,118410,128,0,118710:0:0:0:0:
475,192,118410,1,0,0:0:0:0:
329,192,118710,1,8,0:0:0:0:
36,192,118710,128,8,118860:0:0:0:0:
109,192,118710,1,0,0:0:0:0:
475,192,118860,128,0,119160:0:0:0:0:
402,192,119010,1,2,0:0:0:0:
182,192,119010,1,0,0:0:0:0:
256,192,119160,128,0,119460:0:0:0:0:
109,192,119310,1,8,0:0:0:0:
329,192,119310,1,8,0:0:0:0:
36,192,119460,128,0,119760:0:0:0:0:
402,192,119610,1,2,0:0:0:0:
475,192,119610,1,0,0:0:0:0:
109,192,119760,128,0,120060:0:0:0:0:
256,192,119910,1,8,0:0:0:0:
329,192,119910,1,8,0:0:0:0:
182,192,120060,128,0,120360:0:0:0:0:
402,192,120210,1,0,0:0:0:0:
475,192,120210,1,0,0:0:0:0:
329,192,120510,1,8,0:0:0:0:
36,192,120510,1,8,0:0:0:0:
109,192,120510,1,0,0:0:0:0:
329,192,120810,1,2,0:0:0:0:
36,192,120810,1,0,0:0:0:0:
329,192,121110,1,8,0:0:0:0:
36,192,121110,1,8,0:0:0:0:
109,192,121110,1,0,0:0:0:0:
475,192,121260,1,0,0:0:0:0:
36,192,121410,1,2,0:0:0:0:
402,192,121410,1,0,0:0:0:0:
256,192,121560,1,0,0:0:0:0:
329,192,121710,1,8,0:0:0:0:
36,192,121710,1,8,0:0:0:0:
109,192,121710,1,0,0:0:0:0:
402,192,122010,1,2,0:0:0:0:
36,192,122010,1,0,0:0:0:0:
329,192,122160,1,0,0:0:0:0:
256,192,122310,1,8,0:0:0:0:
36,192,122310,1,8,0:0:0:0:
109,192,122310,1,0,0:0:0:0:
329,192,122460,1,0,0:0:0:0:
36,192,122610,1,2,0:0:0:0:
475,192,122610,1,0,0:0:0:0:
402,192,122760,1,0,0:0:0:0:
329,192,122910,1,8,0:0:0:0:
36,192,122910,1,8,0:0:0:0:
182,192,122910,128,0,123210:0:0:0:0:
109,192,122910,1,0,0:0:0:0:
256,192,123210,1,2,0:0:0:0:
475,192,123210,1,0,0:0:0:0:
402,192,123210,128,0,123510:0:0:0:0:
109,192,123510,1,8,0:0:0:0:
329,192,123510,1,8,0:0:0:0:
36,192,123510,128,0,123660:0:0:0:0:
475,192,123660,128,0,123960:0:0:0:0:
402,192,123810,1,2,0:0:0:0:
182,192,123810,1,0,0:0:0:0:
256,192,123960,128,0,124260:0:0:0:0:
329,192,124110,1,8,0:0:0:0:
109,192,124110,1,8,0:0:0:0:
36,192,124260,128,0,124560:0:0:0:0:
402,192,124410,1,2,0:0:0:0:
475,192,124410,1,0,0:0:0:0:
109,192,124560,128,0,124860:0:0:0:0:
256,192,124710,1,8,0:0:0:0:
329,192,124710,1,8,0:0:0:0:
182,192,124860,128,0,125160:0:0:0:0:
475,192,125010,1,2,0:0:0:0:
402,192,125010,1,0,0:0:0:0:
109,192,125310,1,8,0:0:0:0:
36,192,125310,1,8,0:0:0:0:
402,192,125610,1,2,0:0:0:0:
475,192,125610,1,0,0:0:0:0:
256,192,125910,1,8,0:0:0:0:
182,192,125910,1,8,0:0:0:0:
475,192,126210,1,2,0:0:0:0:
402,192,126210,1,0,0:0:0:0:
36,192,126510,1,8,0:0:0:0:
109,192,126510,1,8,0:0:0:0:
256,192,126810,1,2,0:0:0:0:
182,192,126810,1,0,0:0:0:0:
329,192,127110,1,8,0:0:0:0:
475,192,127110,1,8,0:0:0:0:
402,192,127110,1,0,0:0:0:0:
182,192,127410,1,2,0:0:0:0:
329,192,127410,1,0,0:0:0:0:
402,192,127560,1,0,0:0:0:0:
109,192,127710,1,8,0:0:0:0:
475,192,127710,1,8,0:0:0:0:
402,192,127860,1,0,0:0:0:0:
329,192,128010,1,2,0:0:0:0:
36,192,128010,1,0,0:0:0:0:
402,192,128160,1,0,0:0:0:0:
109,192,128310,1,8,0:0:0:0:
475,192,128310,1,8,0:0:0:0:
329,192,128460,1,0,0:0:0:0:
36,192,128610,1,2,0:0:0:0:
475,192,128610,1,0,0:0:0:0:
182,192,128760,1,0,0:0:0:0:
329,192,128910,1,8,0:0:0:0:
109,192,128910,1,8,0:0:0:0:
182,192,129060,1,0,0:0:0:0:
36,192,129210,1,2,0:0:0:0:
475,192,129210,1,0,0:0:0:0:
182,192,129360,1,0,0:0:0:0:
329,192,129510,1,8,0:0:0:0:
109,192,129510,1,8,0:0:0:0:
182,192,129660,1,2,0:0:0:0:
109,192,129810,1,0,0:0:0:0:
402,192,129810,1,0,0:0:0:0:
36,192,129960,1,0,0:0:0:0:
182,192,130110,1,8,0:0:0:0:
402,192,130110,1,8,0:0:0:0:
329,192,130260,1,0,0:0:0:0:
182,192,130410,1,2,0:0:0:0:
475,192,130410,1,0,0:0:0:0:
329,192,130560,1,0,0:0:0:0:
36,192,130710,1,8,0:0:0:0:
402,192,130710,1,8,0:0:0:0:
256,192,130860,1,0,0:0:0:0:
329,192,131010,1,2,0:0:0:0:
109,192,131010,1,0,0:0:0:0:
402,192,131160,1,0,0:0:0:0:
475,192,131310,1,8,0:0:0:0:
182,192,131310,1,8,0:0:0:0:
329,192,131460,1,0,0:0:0:0:
182,192,131610,1,2,0:0:0:0:
36,192,131610,1,0,0:0:0:0:
329,192,131760,1,0,0:0:0:0:
36,192,131910,1,8,0:0:0:0:
475,192,131910,1,8,0:0:0:0:
182,192,131910,1,0,0:0:0:0:
329,192,132060,1,0,0:0:0:0:
475,192,132060,1,0,0:0:0:0:
475,192,132210,1,2,0:0:0:0:
182,192,132210,1,0,0:0:0:0:
36,192,132210,1,0,0:0:0:0:
109,192,132360,1,0,0:0:0:0:
329,192,132510,1,8,0:0:0:0:
182,192,132510,1,8,0:0:0:0:
256,192,132660,1,0,0:0:0:0:
329,192,132810,1,2,0:0:0:0:
182,192,132810,1,0,0:0:0:0:
402,192,132960,1,0,0:0:0:0:
475,192,133110,1,8,0:0:0:0:
36,192,133110,1,8,0:0:0:0:
329,192,133260,1,0,0:0:0:0:
36,192,133410,1,2,0:0:0:0:
475,192,133410,1,0,0:0:0:0:
182,192,133560,1,0,0:0:0:0:
329,192,133710,1,8,0:0:0:0:
475,192,133710,1,8,0:0:0:0:
182,192,133860,1,0,0:0:0:0:
36,192,134010,1,2,0:0:0:0:
475,192,134010,1,0,0:0:0:0:
182,192,134160,1,0,0:0:0:0:
329,192,134310,1,8,0:0:0:0:
475,192,134310,1,8,0:0:0:0:
182,192,134460,1,0,0:0:0:0:
109,192,134610,1,2,0:0:0:0:
36,192,134610,1,0,0:0:0:0:
256,192,134760,1,0,0:0:0:0:
402,192,134910,1,8,0:0:0:0:
36,192,134910,1,8,0:0:0:0:
256,192,135060,1,0,0:0:0:0:
109,192,135210,1,2,0:0:0:0:
36,192,135210,1,0,0:0:0:0:
475,192,135210,1,0,0:0:0:0:
256,192,135360,1,0,0:0:0:0:
475,192,135510,1,8,0:0:0:0:
402,192,135510,1,8,0:0:0:0:
256,192,135660,1,0,0:0:0:0:
36,192,135810,1,8,1:0:0:0:
475,192,135810,1,0,0:0:0:0:
329,192,135960,1,8,1:0:0:0:
109,192,135960,1,0,0:0:0:0:
475,192,136110,1,8,1:0:0:0:
182,192,136110,1,0,0:0:0:0:
109,192,136260,1,8,1:0:0:0:
329,192,136260,1,0,0:0:0:0:
36,192,136410,1,8,1:0:0:0:
475,192,136410,1,0,0:0:0:0:
329,192,136560,1,8,1:0:0:0:
109,192,136560,1,0,0:0:0:0:
475,192,136710,1,8,1:0:0:0:
182,192,136710,1,0,0:0:0:0:
109,192,136860,1,0,0:0:0:0:
475,192,137010,1,8,0:0:0:0:
36,192,137010,1,8,0:0:0:0:
329,192,137010,1,0,0:0:0:0:
475,192,137310,128,2,137460:0:0:0:0:
109,192,137310,1,0,0:0:0:0:
402,192,137460,1,0,0:0:0:0:
256,192,137610,128,2,137760:0:0:0:0:
109,192,137610,1,0,0:0:0:0:
36,192,137760,128,0,137910:0:0:0:0:
402,192,137760,1,0,0:0:0:0:
182,192,137910,1,2,0:0:0:0:
256,192,138060,128,0,138360:0:0:0:0:
475,192,138060,1,0,0:0:0:0:
182,192,138210,1,8,0:0:0:0:
109,192,138360,128,0,138660:0:0:0:0:
475,192,138360,1,0,0:0:0:0:
329,192,138510,1,2,0:0:0:0:
36,192,138660,128,0,138960:0:0:0:0:
475,192,138660,1,0,0:0:0:0:
329,192,138810,1,2,0:0:0:0:
109,192,138960,128,0,139260:0:0:0:0:
182,192,138960,1,0,0:0:0:0:
402,192,139110,1,2,0:0:0:0:
256,192,139260,128,0,139560:0:0:0:0:
182,192,139260,1,0,0:0:0:0:
402,192,139410,1,8,0:0:0:0:
36,192,139560,1,0,0:0:0:0:
109,192,139710,1,2,0:0:0:0:
475,192,139710,128,0,139860:0:0:0:0:
402,192,139860,1,0,0:0:0:0:
256,192,140010,128,2,140160:0:0:0:0:
109,192,140010,1,0,0:0:0:0:
402,192,140160,1,0,0:0:0:0:
36,192,140160,128,0,140310:0:0:0:0:
182,192,140310,1,2,0:0:0:0:
256,192,140460,128,0,140760:0:0:0:0:
475,192,140460,1,0,0:0:0:0:
182,192,140610,1,8,0:0:0:0:
475,192,140760,1,0,0:0:0:0:
109,192,140760,128,0,141060:0:0:0:0:
329,192,140910,1,2,0:0:0:0:
36,192,141060,128,0,141360:0:0:0:0:
475,192,141060,1,0,0:0:0:0:
329,192,141210,1,2,0:0:0:0:
109,192,141360,128,0,141660:0:0:0:0:
182,192,141360,1,0,0:0:0:0:
402,192,141510,1,2,0:0:0:0:
256,192,141660,128,0,141960:0:0:0:0:
182,192,141660,1,0,0:0:0:0:
402,192,141810,1,8,0:0:0:0:
36,192,141960,1,0,0:0:0:0:
475,192,142110,128,2,142260:0:0:0:0:
109,192,142110,1,0,0:0:0:0:
402,192,142260,1,0,0:0:0:0:
256,192,142410,128,2,142560:0:0:0:0:
109,192,142410,1,0,0:0:0:0:
36,192,142560,128,0,142710:0:0:0:0:
402,192,142560,1,0,0:0:0:0:
256,192,142860,128,0,143160:0:0:0:0:
475,192,142860,1,0,0:0:0:0:
182,192,143010,1,8,0:0:0:0:
475,192,143160,1,0,0:0:0:0:
109,192,143160,128,0,143460:0:0:0:0:
329,192,143310,1,8,0:0:0:0:
36,192,143460,128,0,143760:0:0:0:0:
475,192,143460,1,0,0:0:0:0:
329,192,143610,1,8,0:0:0:0:
109,192,143760,128,0,144060:0:0:0:0:
182,192,143760,1,0,0:0:0:0:
402,192,143910,1,8,0:0:0:0:
256,192,144060,128,0,144360:0:0:0:0:
182,192,144060,1,0,0:0:0:0:
402,192,144210,1,8,0:0:0:0:
36,192,144360,1,8,1:0:0:0:
109,192,144510,1,8,1:0:0:0:
475,192,144510,128,0,144660:0:0:0:0:
402,192,144660,1,8,1:0:0:0:
256,192,144810,128,8,144960:1:0:0:0:
109,192,144810,1,0,0:0:0:0:
36,192,144960,128,8,145110:1:0:0:0:
402,192,144960,1,0,0:0:0:0:
182,192,145110,1,8,1:0:0:0:
256,192,145260,1,8,1:0:0:0:
475,192,145410,1,8,1:0:0:0:
329,192,145410,1,0,0:0:0:0:
402,192,145560,1,8,1:0:0:0:
329,192,145710,1,8,1:0:0:0:
256,192,145860,1,8,1:0:0:0:
182,192,146010,1,8,1:0:0:0:
36,192,146010,1,0,0:0:0:0:
109,192,146160,1,8,1:0:0:0:
182,192,146310,1,8,1:0:0:0:
256,192,146460,1,8,1:0:0:0:
402,192,146610,128,8,147810:0:0:0:0:
109,192,146610,128,8,147810:0:0:0:0:
