osu file format v13

[General]
AudioFilename: Helblinde - Disconnected.mp3
AudioLeadIn: 0
PreviewTime: 69348
Countdown: 0
SampleSet: None
StackLeniency: 0.2
Mode: 0
LetterboxInBreaks: 1
WidescreenStoryboard: 1

[Editor]
Bookmarks: 19398,28698,28998,33798,48198,52998,56898,60198,64998,67398,69198,69798,79398,88998,98598,108198,111798,112998,118098,122898,127398,137298,145398,146598,148398,149448,159198,159798,187398,188448,188898,198048,199698,202698,207798,212298,214998,216198,217098,217398
DistanceSpacing: 1.4
BeatDivisor: 4
GridSize: 4
TimelineZoom: 1.2

[Metadata]
Title:Disconnected
TitleUnicode:Disconnected
Artist:Helblinde
ArtistUnicode:Helblinde
Creator:Taikuta
Version:Extra AR9
Source:
Tags:
BeatmapID:468200
BeatmapSetID:169874

[Difficulty]
HPDrainRate:6
CircleSize:4
OverallDifficulty:8
ApproachRate:9
SliderMultiplier:2.4
SliderTickRate:1

[Events]
//Background and Video events
0,0,"bg.jpg",0,0
//Break Periods
2,111998,126798
2,149448,158523
//Storyboard Layer 0 (Background)
//Storyboard Layer 1 (Fail)
//Storyboard Layer 2 (Pass)
//Storyboard Layer 3 (Foreground)
//Storyboard Sound Samples
//Background Colour Transformations
3,100,0,0,0

[TimingPoints]
9498,300,4,1,0,100,1,0
19098,-66.6666666666667,4,1,0,100,0,0
19173,-100,4,1,0,100,0,0
27798,-83.3333333333333,4,1,0,100,0,0
28098,-71.4285714285714,4,1,0,100,0,0
28398,-62.5,4,1,0,100,0,0
28998,-90.9090909090909,4,1,0,100,0,0
33798,-83.3333333333333,4,1,0,100,0,0
33798,-83.3333333333333,4,1,0,100,0,1
33873,-83.3333333333333,4,1,0,100,0,0
48198,-125,4,1,0,100,0,0
52998,-100,4,1,0,100,0,0
69798,-66.6666666666667,4,1,0,100,0,1
79098,-66.6666666666667,4,1,0,100,0,0
79398,-66.6666666666667,4,1,0,100,0,1
88698,-66.6666666666667,4,1,0,100,0,0
88998,-66.6666666666667,4,1,0,100,0,1
98298,-66.6666666666667,4,1,0,100,0,0
98598,-66.6666666666667,4,1,0,100,0,1
108198,-100,4,1,0,100,0,0
111798,-100,4,1,1,5,0,0
111873,-100,4,1,0,100,0,0
148398,-100,4,1,1,5,0,0
148473,-100,4,1,0,100,0,0
159198,-100,4,1,0,25,0,0
159273,-100,4,1,0,100,0,0
159291,-100,4,1,0,25,0,0
159348,-100,4,1,0,100,0,0
159366,-100,4,1,0,25,0,0
159423,-100,4,1,0,100,0,0
159798,-66.6666666666667,4,1,0,100,0,1
169098,-66.6666666666667,4,1,0,100,0,0
169398,-66.6666666666667,4,1,0,100,0,1
186048,-66.6666666666667,4,1,0,100,0,0
186198,-66.6666666666667,4,1,0,100,0,1
186498,-66.6666666666667,4,1,0,100,0,0
186648,-66.6666666666667,4,1,0,100,0,1
186948,-66.6666666666667,4,1,0,100,0,0
187098,-66.6666666666667,4,1,0,100,0,1
187398,-100,4,1,0,100,0,0
217398,-100,4,1,1,5,0,0

[Colours]
Combo1 : 233,159,37
Combo2 : 185,57,57

[HitObjects]
100,176,9498,5,0,0:0:0:0:
340,104,9798,2,0,P|368:72|448:32,1,120
484,196,10098,2,0,P|444:244|380:284,1,120,8|0,0:0|0:0,0:0:0:0:
248,196,10398,1,0,0:0:0:0:
160,52,10548,1,0,0:0:0:0:
116,296,10698,2,0,B|172:333|252:340,1,120,8|0,0:0|0:0,0:0:0:0:
384,288,10998,2,0,P|424:240|460:164,1,120
292,248,11298,2,0,P|318:191|333:108,1,120,8|0,0:0|0:0,0:0:0:0:
184,216,11598,2,0,P|194:154|187:70,1,120
68,208,11898,2,0,P|62:145|34:66,1,120,8|0,0:0|0:0,0:0:0:0:
208,336,12198,5,0,0:0:0:0:
264,180,12348,1,0,0:0:0:0:
372,304,12498,2,0,P|432:272|472:228,1,120,8|0,0:0|0:0,0:0:0:0:
264,180,12798,1,0,0:0:0:0:
145,61,12948,1,0,0:0:0:0:
26,179,13098,1,8,0:0:0:0:
144,297,13248,1,0,0:0:0:0:
416,136,13398,6,0,B|436:96|416:16,1,120
260,92,13698,2,0,P|200:136|176:184,1,120,8|0,0:0|0:0,0:0:0:0:
340,232,13998,1,0,0:0:0:0:
458,350,14148,1,0,0:0:0:0:
290,350,14298,1,8,0:0:0:0:
171,231,14448,1,0,0:0:0:0:
109,74,14598,2,0,P|160:64|224:16,1,120
112,160,14898,2,0,P|76:224|72:288,1,120,8|0,0:0|0:0,0:0:0:0:
280,164,15198,5,0,0:0:0:0:
392,40,15348,1,0,0:0:0:0:
456,196,15498,2,0,P|432:248|380:320,1,120,8|0,0:0|0:0,0:0:0:0:
228,304,15798,1,0,0:0:0:0:
64,264,15948,1,0,0:0:0:0:
200,84,16098,2,0,P|232:40|304:4,1,120,8|0,0:0|0:0,0:0:0:0:
372,152,16398,1,0,0:0:0:0:
460,296,16548,1,0,0:0:0:0:
300,244,16698,2,0,L|160:200,1,120,8|0,0:0|0:0,0:0:0:0:
368,60,16998,5,0,0:0:0:0:
492,172,17148,1,0,0:0:0:0:
368,288,17298,2,0,L|272:376,1,120,8|0,0:0|0:0,0:0:0:0:
208,216,17598,2,0,L|83:255,1,120
152,92,17898,2,0,L|22:75,1,120,8|0,0:0|0:0,0:0:0:0:
300,112,18198,5,4,0:0:0:0:
469,281,18348,1,4,0:0:0:0:
232,328,18498,1,12,0:0:0:0:
59,111,18648,1,4,0:0:0:0:
16,348,18798,1,4,0:0:0:0:
200,196,18948,1,4,0:0:0:0:
420,104,19098,2,0,B|432:56|496:32,1,90.0000034332277,12|0,0:0|0:0,0:0:0:0:
216,120,19398,5,0,0:0:0:0:
304,224,19548,2,0,P|352:268|355:351,1,120,0|8,0:0|0:0,0:0:0:0:
184,332,19848,2,0,P|136:288|133:205,1,120,0|0,0:0|0:0,0:0:0:0:
220,84,20148,2,0,P|168:44|100:16,1,120,0|8,0:0|0:0,0:0:0:0:
378,189,20448,2,0,P|430:229|498:257,1,120
176,216,20748,2,0,B|112:184|52:200,1,120,0|8,0:0|0:0,0:0:0:0:
296,336,21048,2,0,P|340:320|420:240,1,120
312,132,21348,2,0,P|328:116|352:24,1,120,0|8,0:0|0:0,0:0:0:0:
211,267,21648,2,0,P|195:251|171:159,1,120
328,252,21948,1,0,0:0:0:0:
104,60,22248,5,0,0:0:0:0:
52,296,22398,1,0,0:0:0:0:
284,236,22548,1,0,0:0:0:0:
56,168,22698,1,8,0:0:0:0:
292,116,22848,1,0,0:0:0:0:
184,332,22998,1,0,0:0:0:0:
188,336,23148,1,0,0:0:0:0:
192,340,23298,1,8,0:0:0:0:
184,100,23448,5,0,0:0:0:0:
412,28,23598,1,0,0:0:0:0:
404,268,23748,1,0,0:0:0:0:
168,216,23898,1,8,0:0:0:0:
172,220,24048,1,0,0:0:0:0:
384,352,24348,6,0,P|336:320|308:236,1,120,0|8,0:0|0:0,0:0:0:0:
468,184,24648,2,0,P|442:130|393:97,1,120
256,216,24948,2,0,L|172:320,1,120,0|8,0:0|0:0,0:0:0:0:
52,180,25248,2,0,L|80:60,1,120
168,216,25548,2,0,L|84:340,1,120,0|8,0:0|0:0,0:0:0:0:
232,136,25848,2,0,L|144:36,1,120
376,40,26148,2,0,P|340:92|336:164,1,120,0|8,0:0|0:0,0:0:0:0:
408,312,26448,2,0,P|358:272|333:205,1,120
496,184,26748,1,0,0:0:0:0:
132,60,27048,5,0,0:0:0:0:
52,288,27198,1,0,0:0:0:0:
292,264,27348,1,0,0:0:0:0:
376,40,27498,1,8,0:0:0:0:
504,244,27648,1,0,0:0:0:0:
292,264,27798,6,0,P|235:218|147:198,1,143.999995605469
343,219,28098,2,0,P|272:161|180:131,1,167.999994873047,8|0,0:0|0:0,0:0:0:0:
393,171,28398,2,0,P|298:98|207:66,1,192
196,296,28698,1,8,0:0:0:0:
88,240,28998,5,0,0:0:0:0:
164,56,29148,2,0,P|176:116|240:164,1,132.00000402832,0|8,0:0|0:0,0:0:0:0:
368,20,29448,2,0,P|418:61|432:124,1,132.00000402832
348,304,29748,1,0,0:0:0:0:
496,172,29898,1,8,0:0:0:0:
300,148,30048,2,0,P|244:216|176:240,1,132.00000402832
68,92,30348,5,0,0:0:0:0:
28,288,30498,1,8,0:0:0:0:
176,156,30648,1,0,0:0:0:0:
252,340,30798,2,0,P|272:280|320:220,1,132.00000402832
476,108,31098,2,0,P|430:64|359:33,1,132.00000402832,8|0,0:0|0:0,0:0:0:0:
440,220,31398,2,0,P|416:280|356:336,2,132.00000402832,0|0|8,0:0|0:0|0:0,0:0:0:0:
316,64,31848,1,0,0:0:0:0:
120,48,31998,1,0,0:0:0:0:
72,240,32148,1,0,0:0:0:0:
264,192,32298,1,8,0:0:0:0:
392,344,32448,2,0,P|360:280|352:188,1,132.00000402832
192,348,32748,5,0,0:0:0:0:
96,176,32898,1,8,0:0:0:0:
292,172,33048,1,0,0:0:0:0:
448,292,33198,2,0,P|472:232|496:136,1,132.00000402832
308,88,33498,2,0,P|244:60|160:40,1,132.00000402832,8|0,0:0|0:0,0:0:0:0:
148,260,33798,6,0,P|92:324|12:360,1,143.999995605469
304,256,34098,1,8,0:0:0:0:
228,84,34248,2,0,P|305:49|393:50,1,143.999995605469
188,172,34548,1,0,0:0:0:0:
56,344,34698,1,8,0:0:0:0:
48,128,34848,1,0,0:0:0:0:
296,160,34998,5,0,0:0:0:0:
380,360,35148,1,0,0:0:0:0:
496,180,35298,1,8,0:0:0:0:
268,328,35448,5,0,0:0:0:0:
112,180,35598,1,0,0:0:0:0:
300,76,35748,1,0,0:0:0:0:
160,332,35898,5,8,0:0:0:0:
200,120,36048,1,0,0:0:0:0:
372,252,36198,1,0,0:0:0:0:
156,248,36348,1,0,0:0:0:0:
56,56,36498,1,8,0:0:0:0:
76,272,36648,1,0,0:0:0:0:
336,168,36798,6,0,B|448:64,1,143.999995605469
472,288,37098,1,8,0:0:0:0:
268,220,37248,1,0,0:0:0:0:
64,152,37398,2,0,L|4:16,1,143.999995605469
40,300,37698,1,8,0:0:0:0:
156,116,37848,1,0,0:0:0:0:
208,324,37998,2,0,P|272:360|360:372,1,143.999995605469
424,172,38298,1,8,0:0:0:0:
232,72,38448,1,0,0:0:0:0:
396,332,38598,6,0,P|380:260|331:184,1,143.999995605469
140,272,38898,1,8,0:0:0:0:
296,120,39048,2,0,P|372:96|428:56,1,143.999995605469
304,236,39348,2,0,P|232:200|120:192,1,143.999995605469,0|8,0:0|0:0,0:0:0:0:
456,264,39648,2,0,P|476:200|484:120,1,143.999995605469
320,328,39948,1,0,0:0:0:0:
168,172,40098,1,8,0:0:0:0:
64,360,40248,1,0,0:0:0:0:
68,92,40398,6,0,B|112:68|168:72|228:44,1,143.999995605469
364,204,40698,2,0,P|392:144|408:64,1,143.999995605469,8|0,0:0|0:0,0:0:0:0:
249,195,40998,1,0,0:0:0:0:
48,184,41148,1,0,0:0:0:0:
164,364,41298,1,8,0:0:0:0:
248,120,41448,6,0,P|300:116|396:80,1,143.999995605469
212,216,41748,2,0,P|140:224|73:250,1,143.999995605469,0|8,0:0|0:0,0:0:0:0:
360,300,42048,2,0,P|424:252|456:184,1,143.999995605469
260,352,42348,1,0,0:0:0:0:
132,176,42498,2,0,P|100:96|60:48,1,143.999995605469,8|0,0:0|0:0,0:0:0:0:
280,36,42798,2,0,P|323:92|348:160,1,143.999995605469
488,328,43098,1,8,0:0:0:0:
460,112,43248,1,0,0:0:0:0:
224,236,43398,6,0,P|168:292|88:328,1,143.999995605469
52,112,43698,1,8,0:0:0:0:
260,172,43848,2,0,P|324:228|364:312,1,143.999995605469
396,68,44148,1,0,0:0:0:0:
184,116,44298,1,8,0:0:0:0:
376,216,44448,1,0,0:0:0:0:
124,204,44598,5,0,0:0:0:0:
28,12,44748,1,0,0:0:0:0:
244,32,44898,1,8,0:0:0:0:
296,240,45048,1,0,0:0:0:0:
468,112,45198,5,0,0:0:0:0:
252,136,45348,1,0,0:0:0:0:
380,308,45498,1,8,0:0:0:0:
164,328,45648,5,0,0:0:0:0:
312,172,45798,1,0,0:0:0:0:
112,88,45948,1,0,0:0:0:0:
16,284,46098,1,8,0:0:0:0:
220,216,46248,1,0,0:0:0:0:
436,240,46398,6,0,L|368:88,1,143.999995605469
280,300,46698,1,8,0:0:0:0:
284,304,46848,1,0,0:0:0:0:
232,88,46998,6,0,L|112:188,1,143.999995605469
316,84,47298,1,8,0:0:0:0:
320,88,47448,1,0,0:0:0:0:
376,292,47598,6,0,P|344:344|224:380,1,143.999995605469
64,324,47898,1,8,0:0:0:0:
64,108,48048,1,0,0:0:0:0:
180,196,48198,6,0,B|211:230|211:230|275:161|366:215,1,192,0|8,0:0|0:0,0:0:0:0:
296,308,48648,1,0,0:0:0:0:
300,312,48798,1,0,0:0:0:0:
490,113,49098,6,0,P|417:57|287:91,1,192
380,184,49548,1,0,0:0:0:0:
384,188,49698,1,8,0:0:0:0:
260,108,49848,2,0,L|200:216,1,96
216,48,50148,1,0,0:0:0:0:
144,172,50298,2,0,L|84:280,1,96
232,308,50598,6,0,B|305:291|305:291|376:319|443:267,1,192,0|8,0:0|0:0,0:0:0:0:
352,152,51048,2,0,P|451:88|469:3,1,192
336,20,51498,1,0,0:0:0:0:
340,24,51648,1,0,0:0:0:0:
204,76,51798,6,0,B|160:155|160:155|96:192|82:253,1,192
239,155,52248,2,0,B|211:207|211:207|131:240|145:330,1,192
244,304,52698,1,4,0:0:0:0:
432,296,52998,5,4,0:0:0:0:
432,296,53148,2,0,P|464:244|472:176,1,120,4|8,0:0|0:0,0:0:0:0:
364,44,53448,2,0,L|224:16,1,120,4|0,0:0|0:0,0:0:0:0:
380,144,53748,2,0,L|288:248,1,120,4|8,0:0|0:0,0:0:0:0:
172,108,54048,1,0,0:0:0:0:
92,268,54198,1,4,0:0:0:0:
272,252,54348,1,4,0:0:0:0:
392,224,54798,6,0,P|408:168|468:92,1,120,4|0,0:0|0:0,0:0:0:0:
268,64,55098,2,0,P|208:36|144:40,1,120,12|0,0:0|0:0,0:0:0:0:
192,216,55398,1,4,0:0:0:0:
344,116,55548,2,0,P|372:65|447:4,1,120,4|8,0:0|0:0,0:0:0:0:
488,188,55848,2,0,P|488:248|508:316,1,120,4|0,0:0|0:0,0:0:0:0:
324,272,56148,2,0,P|376:320|432:340,1,120,4|8,0:0|0:0,0:0:0:0:
180,256,56448,5,4,0:0:0:0:
18,177,56598,1,4,0:0:0:0:
97,15,56748,1,4,0:0:0:0:
258,94,56898,1,12,0:0:0:0:
220,343,57198,6,0,P|184:303|148:199,1,120
324,272,57498,2,0,P|288:232|252:128,1,120,8|0,0:0|0:0,0:0:0:0:
256,192,57798,12,0,60198,0:0:0:0:
136,320,60498,5,4,0:0:0:0:
136,79,60798,1,4,0:0:0:0:
376,79,61098,1,4,0:0:0:0:
376,319,61398,1,4,0:0:0:0:
93,257,61698,5,4,0:0:0:0:
194,38,61998,1,4,0:0:0:0:
412,140,62298,1,4,0:0:0:0:
311,357,62598,1,4,0:0:0:0:
80,182,62898,5,4,0:0:0:0:
265,27,63198,1,4,0:0:0:0:
419,211,63498,1,4,0:0:0:0:
235,365,63798,1,4,0:0:0:0:
101,109,64098,5,4,0:0:0:0:
334,46,64398,1,4,0:0:0:0:
396,278,64698,1,4,0:0:0:0:
164,340,64998,1,4,0:0:0:0:
108,236,65148,5,0,0:0:0:0:
192,151,65298,1,0,0:0:0:0:
107,66,65448,1,0,0:0:0:0:
192,151,65598,5,4,0:0:0:0:
276,66,65748,1,0,0:0:0:0:
360,150,65898,1,4,0:0:0:0:
444,65,66048,1,0,0:0:0:0:
360,150,66198,5,4,0:0:0:0:
444,234,66348,1,0,0:0:0:0:
359,318,66498,1,0,0:0:0:0:
274,233,66648,1,0,0:0:0:0:
189,317,66798,5,4,0:0:0:0:
274,233,66948,1,0,0:0:0:0:
192,151,67098,1,4,0:0:0:0:
276,66,67248,1,0,0:0:0:0:
424,144,67398,5,0,0:0:0:0:
345,293,67548,1,0,0:0:0:0:
197,214,67698,1,0,0:0:0:0:
276,66,67848,1,0,0:0:0:0:
405,195,67998,5,0,0:0:0:0:
277,322,68148,1,0,0:0:0:0:
149,194,68298,1,0,0:0:0:0:
276,66,68448,1,0,0:0:0:0:
256,192,68598,12,0,69648,0:0:0:0:
288,180,69798,6,0,P|232:120|120:64,1,180.000006866455
68,292,70098,1,8,0:0:0:0:
300,256,70248,1,0,0:0:0:0:
100,132,70398,1,0,0:0:0:0:
200,344,70548,1,0,0:0:0:0:
232,112,70698,5,8,0:0:0:0:
252,96,70773,1,0,0:0:0:0:
280,100,70848,1,0,0:0:0:0:
296,80,70923,1,0,0:0:0:0:
320,92,70998,2,0,B|360:68|360:68|388:80|388:80|420:72|420:72|444:64|444:64|472:80|472:80|512:68,1,180.000006866455
436,304,71298,1,8,0:0:0:0:
232,188,71448,1,0,0:0:0:0:
76,16,71598,6,0,P|80:128|112:208,1,180.000006866455
256,12,71898,1,8,0:0:0:0:
436,16,72048,2,0,P|432:128|400:208,1,180.000006866455
224,336,72348,1,0,0:0:0:0:
188,104,72498,1,8,0:0:0:0:
64,304,72648,1,0,0:0:0:0:
284,224,72798,1,0,0:0:0:0:
64,148,72948,1,0,0:0:0:0:
296,108,73098,1,8,0:0:0:0:
472,260,73248,5,0,0:0:0:0:
452,292,73323,1,0,0:0:0:0:
424,316,73398,1,0,0:0:0:0:
396,84,73548,5,0,0:0:0:0:
372,60,73623,1,8,0:0:0:0:
340,44,73698,1,8,0:0:0:0:
292,272,73848,5,0,0:0:0:0:
260,256,73923,1,0,0:0:0:0:
224,260,73998,1,0,0:0:0:0:
72,80,74148,5,0,0:0:0:0:
92,60,74223,1,8,0:0:0:0:
116,48,74298,1,8,0:0:0:0:
92,280,74448,5,0,0:0:0:0:
112,312,74523,1,0,0:0:0:0:
148,320,74598,2,0,B|184:320|184:320|208:344|208:344|248:340|248:340|280:348|280:348|332:352,1,180.000006866455
168,168,74898,1,8,0:0:0:0:
420,204,75048,6,0,P|364:148|276:88,1,180.000006866455
68,184,75348,1,0,0:0:0:0:
300,204,75498,1,8,0:0:0:0:
172,8,75648,1,0,0:0:0:0:
196,240,75798,2,0,P|276:308|356:352,1,180.000006866455
248,128,76098,1,8,0:0:0:0:
468,52,76248,5,0,0:0:0:0:
480,284,76398,2,0,P|400:328|284:352,1,180.000006866455
340,116,76698,1,8,0:0:0:0:
224,320,76848,1,0,0:0:0:0:
132,104,76998,2,0,P|80:184|48:296,1,180.000006866455
284,216,77298,5,8,0:0:0:0:
408,20,77448,2,0,P|292:40|216:68,1,180.000006866455
44,200,77748,1,0,0:0:0:0:
56,232,77823,1,0,0:0:0:0:
80,260,77898,1,8,0:0:0:0:
312,300,78048,2,0,P|408:272|464:184,1,180.000006866455
276,64,78348,1,0,0:0:0:0:
188,280,78498,1,8,0:0:0:0:
88,68,78648,1,0,0:0:0:0:
284,196,78798,5,0,0:0:0:0:
488,80,78948,1,0,0:0:0:0:
448,312,79098,2,0,P|444:232|360:124,1,180.000006866455,8|0,0:0|0:0,0:0:0:0:
160,144,79398,5,0,0:0:0:0:
128,160,79473,1,0,0:0:0:0:
120,196,79548,1,0,0:0:0:0:
104,228,79623,1,0,0:0:0:0:
124,256,79698,1,8,0:0:0:0:
132,292,79773,1,0,0:0:0:0:
164,308,79848,1,0,0:0:0:0:
172,344,79923,1,0,0:0:0:0:
208,352,79998,1,0,0:0:0:0:
408,232,80148,5,0,0:0:0:0:
220,96,80298,2,0,P|156:56|40:40,1,180.000006866455,8|0,0:0|0:0,0:0:0:0:
192,232,80598,2,0,P|240:284|352:348,1,180.000006866455,8|0,0:0|0:0,0:0:0:0:
500,176,80898,1,8,0:0:0:0:
334,10,81048,1,0,0:0:0:0:
168,175,81198,1,8,0:0:0:0:
333,340,81348,1,0,0:0:0:0:
400,116,81498,5,8,0:0:0:0:
256,300,81648,1,0,0:0:0:0:
220,312,81723,1,0,0:0:0:0:
200,344,81798,1,0,0:0:0:0:
164,336,81873,1,0,0:0:0:0:
136,312,81948,1,0,0:0:0:0:
100,320,82023,1,0,0:0:0:0:
84,288,82098,1,8,0:0:0:0:
48,56,82248,5,0,0:0:0:0:
176,252,82398,1,0,0:0:0:0:
204,20,82548,1,0,0:0:0:0:
324,220,82698,1,8,0:0:0:0:
92,176,82848,2,0,P|164:148|308:116,1,180.000006866455
368,332,83148,2,0,P|404:288|468:164,1,180.000006866455,0|8,0:0|0:0,0:0:0:0:
264,304,83448,5,0,0:0:0:0:
252,340,83523,1,0,0:0:0:0:
216,344,83598,1,0,0:0:0:0:
144,120,83748,1,0,0:0:0:0:
172,100,83823,1,0,0:0:0:0:
208,108,83898,1,8,0:0:0:0:
68,296,84048,6,0,L|240:208,1,180.000006866455
372,32,84348,1,0,0:0:0:0:
444,256,84498,1,8,0:0:0:0:
288,80,84648,5,0,0:0:0:0:
376,296,84798,1,0,0:0:0:0:
364,264,84873,1,0,0:0:0:0:
384,236,84948,1,0,0:0:0:0:
384,200,85023,1,0,0:0:0:0:
420,188,85098,1,8,0:0:0:0:
212,240,85248,5,0,0:0:0:0:
52,72,85398,1,0,0:0:0:0:
68,104,85473,1,0,0:0:0:0:
56,136,85548,1,0,0:0:0:0:
52,172,85623,1,0,0:0:0:0:
76,196,85698,1,8,0:0:0:0:
308,168,85848,5,0,0:0:0:0:
152,344,85998,1,0,0:0:0:0:
116,336,86073,1,0,0:0:0:0:
104,300,86148,1,0,0:0:0:0:
68,300,86223,1,0,0:0:0:0:
36,316,86298,1,8,0:0:0:0:
192,140,86448,5,0,0:0:0:0:
316,340,86598,2,0,P|400:312|484:244,1,180.000006866455
356,52,86898,1,8,0:0:0:0:
256,264,87048,2,0,P|168:232|100:160,1,180.000006866455
328,260,87348,1,0,0:0:0:0:
364,264,87423,1,0,0:0:0:0:
384,232,87498,1,8,0:0:0:0:
248,44,87648,2,0,P|128:52|52:84,1,180.000006866455
80,308,87948,5,0,0:0:0:0:
245,142,88098,1,8,0:0:0:0:
410,307,88248,1,0,0:0:0:0:
410,73,88398,1,0,0:0:0:0:
244,238,88548,1,0,0:0:0:0:
78,72,88698,2,0,L|160:264,1,180.000006866455,8|0,0:0|0:0,0:0:0:0:
364,144,88998,5,0,0:0:0:0:
388,172,89073,1,0,0:0:0:0:
380,208,89148,1,0,0:0:0:0:
380,244,89223,1,0,0:0:0:0:
360,272,89298,2,0,B|344:308|344:308|312:300|312:300|292:328|292:328|264:344|264:344|232:340|232:340|200:356,1,180.000006866455,8|0,0:0|0:0,0:0:0:0:
48,160,89598,5,0,0:0:0:0:
276,48,89748,1,0,0:0:0:0:
136,256,89898,2,0,P|168:172|160:64,1,180.000006866455,8|0,0:0|0:0,0:0:0:0:
408,12,90198,2,0,P|469:76|501:160,1,180.000006866455
252,128,90498,1,8,0:0:0:0:
20,32,90648,1,0,0:0:0:0:
36,284,90798,5,0,0:0:0:0:
48,316,90873,1,0,0:0:0:0:
84,312,90948,1,0,0:0:0:0:
108,340,91023,1,0,0:0:0:0:
144,340,91098,1,8,0:0:0:0:
172,364,91173,1,0,0:0:0:0:
208,356,91248,2,0,B|248:368|248:368|280:352|280:352|316:368|316:368|346:375|346:375|368:364|368:364|416:360,1,180.000006866455
432,116,91548,5,0,0:0:0:0:
192,36,91698,1,8,0:0:0:0:
96,268,91848,1,0,0:0:0:0:
336,344,91998,1,0,0:0:0:0:
316,92,92148,1,0,0:0:0:0:
404,328,92298,1,8,0:0:0:0:
212,164,92448,5,0,0:0:0:0:
188,136,92523,1,0,0:0:0:0:
152,132,92598,1,0,0:0:0:0:
376,248,92748,5,0,0:0:0:0:
400,224,92823,1,0,0:0:0:0:
432,208,92898,1,8,0:0:0:0:
200,304,93048,5,0,0:0:0:0:
180,336,93123,1,0,0:0:0:0:
144,344,93198,1,0,0:0:0:0:
316,160,93348,6,0,P|296:64|168:40,1,180.000006866455,0|8,0:0|0:0,0:0:0:0:
20,172,93648,1,0,0:0:0:0:
36,204,93723,1,0,0:0:0:0:
72,212,93798,1,0,0:0:0:0:
84,244,93873,1,0,0:0:0:0:
112,264,93948,1,0,0:0:0:0:
148,264,94023,1,0,0:0:0:0:
180,280,94098,1,8,0:0:0:0:
256,40,94248,5,0,0:0:0:0:
500,108,94398,2,0,P|424:168|368:280,1,180.000006866455
152,128,94698,1,8,0:0:0:0:
288,340,94848,1,0,0:0:0:0:
364,100,94998,2,0,P|284:60|152:32,1,180.000006866455
372,216,95298,5,8,0:0:0:0:
160,352,95448,1,0,0:0:0:0:
48,128,95598,2,0,P|113:188|198:217,1,180.000006866455
336,4,95898,5,8,0:0:0:0:
512,182,96048,1,0,0:0:0:0:
335,360,96198,2,0,P|256:304|144:264,1,180.000006866455
264,36,96498,1,8,0:0:0:0:
448,208,96648,2,0,P|380:252|266:230,1,180.000006866455
496,100,96948,2,0,P|428:56|314:78,1,180.000006866455,0|8,0:0|0:0,0:0:0:0:
80,100,97248,5,0,0:0:0:0:
68,132,97323,1,0,0:0:0:0:
88,164,97398,1,0,0:0:0:0:
96,200,97473,1,0,0:0:0:0:
88,236,97548,1,0,0:0:0:0:
116,256,97623,1,0,0:0:0:0:
152,252,97698,1,8,0:0:0:0:
176,280,97773,1,0,0:0:0:0:
212,272,97848,1,0,0:0:0:0:
348,60,97998,5,0,0:0:0:0:
492,260,98148,1,0,0:0:0:0:
248,200,98298,2,0,P|192:192|192:48,1,180.000006866455,8|0,0:0|0:0,0:0:0:0:
464,140,98598,5,0,0:0:0:0:
464,176,98673,1,0,0:0:0:0:
432,192,98748,1,0,0:0:0:0:
416,224,98823,1,0,0:0:0:0:
408,260,98898,2,0,B|364:284|364:284|348:324|348:324|308:332|308:332|280:352|280:352|252:352,1,180.000006866455,8|0,0:0|0:0,0:0:0:0:
36,256,99198,1,0,0:0:0:0:
214,77,99348,1,0,0:0:0:0:
252,324,99498,2,0,P|172:256|136:168,1,180.000006866455,8|0,0:0|0:0,0:0:0:0:
336,28,99798,5,0,0:0:0:0:
320,52,99873,1,0,0:0:0:0:
328,80,99948,1,0,0:0:0:0:
324,108,100023,1,0,0:0:0:0:
336,132,100098,1,8,0:0:0:0:
96,52,100248,1,0,0:0:0:0:
112,304,100398,5,0,0:0:0:0:
124,268,100473,1,0,0:0:0:0:
156,252,100548,1,0,0:0:0:0:
192,252,100623,1,0,0:0:0:0:
212,220,100698,1,8,0:0:0:0:
248,228,100773,1,0,0:0:0:0:
280,212,100848,2,0,B|320:212|320:212|344:224|344:224|380:228|380:228|396:252|396:252|424:268|424:268|456:284,1,180.000006866455
240,120,101148,5,0,0:0:0:0:
40,272,101298,1,8,0:0:0:0:
148,44,101448,1,0,0:0:0:0:
156,296,101598,1,0,0:0:0:0:
48,68,101748,1,0,0:0:0:0:
232,240,101898,5,8,0:0:0:0:
368,28,102048,2,0,P|448:104|448:220,1,180.000006866455
272,340,102348,1,0,0:0:0:0:
312,92,102498,1,8,0:0:0:0:
108,240,102648,2,0,P|28:164|28:48,1,180.000006866455
264,160,102948,2,0,P|340:216|460:200,1,180.000006866455,0|8,0:0|0:0,0:0:0:0:
240,40,103248,5,0,0:0:0:0:
204,48,103323,1,0,0:0:0:0:
188,80,103398,1,0,0:0:0:0:
152,92,103473,1,0,0:0:0:0:
144,128,103548,1,0,0:0:0:0:
380,36,103698,1,8,0:0:0:0:
500,256,103848,1,0,0:0:0:0:
256,324,103998,1,0,0:0:0:0:
236,296,104073,1,0,0:0:0:0:
200,292,104148,1,0,0:0:0:0:
184,260,104223,1,0,0:0:0:0:
152,244,104298,1,8,0:0:0:0:
380,140,104448,5,0,0:0:0:0:
508,356,104598,1,0,0:0:0:0:
476,336,104673,1,0,0:0:0:0:
440,336,104748,1,0,0:0:0:0:
404,340,104823,1,0,0:0:0:0:
380,312,104898,1,8,0:0:0:0:
276,84,105048,5,0,0:0:0:0:
28,48,105198,1,0,0:0:0:0:
16,80,105273,1,0,0:0:0:0:
32,112,105348,1,0,0:0:0:0:
32,148,105423,1,0,0:0:0:0:
64,164,105498,1,8,0:0:0:0:
308,228,105648,5,0,0:0:0:0:
84,340,105798,2,0,P|104:256|172:120,1,180.000006866455
312,356,106098,1,8,0:0:0:0:
504,192,106248,2,0,P|430:146|286:98,1,180.000006866455
100,36,106548,2,0,P|140:120|208:196,1,180.000006866455,0|8,0:0|0:0,0:0:0:0:
400,36,106848,1,0,0:0:0:0:
428,60,106923,1,0,0:0:0:0:
428,96,106998,1,0,0:0:0:0:
452,124,107073,1,0,0:0:0:0:
452,160,107148,1,0,0:0:0:0:
436,192,107223,1,0,0:0:0:0:
444,228,107298,1,8,0:0:0:0:
252,64,107448,5,0,0:0:0:0:
73,242,107598,1,0,0:0:0:0:
324,276,107748,1,0,0:0:0:0:
128,116,107898,1,8,0:0:0:0:
256,192,108048,12,0,111798,0:0:0:0:
116,264,127398,6,0,P|116:200|144:100,1,120
252,32,127698,1,8,0:0:0:0:
336,176,127848,1,0,0:0:0:0:
484,256,127998,2,0,P|440:312|384:340,1,120
272,220,128298,1,8,0:0:0:0:
324,60,128448,1,0,0:0:0:0:
156,36,128598,2,0,P|108:72|76:140,1,120
40,288,128898,5,8,0:0:0:0:
204,256,129048,1,0,0:0:0:0:
372,272,129198,2,0,P|408:216|428:148,1,120
256,144,129498,1,8,0:0:0:0:
96,88,129648,1,0,0:0:0:0:
120,256,129798,2,0,P|148:320|236:364,1,120
376,156,130098,5,8,0:0:0:0:
488,28,130248,1,0,0:0:0:0:
320,16,130398,2,0,L|455:106,1,120
508,228,130698,1,8,0:0:0:0:
424,376,130848,1,0,0:0:0:0:
324,240,130998,2,0,P|260:264|208:300,1,120
284,140,131298,5,8,0:0:0:0:
140,224,131448,2,0,P|198:258|293:274,1,120
130,149,131748,2,0,P|198:155|290:129,1,120,0|8,0:0|0:0,0:0:0:0:
91,84,132048,2,0,P|155:61|228:-1,1,120
496,192,132498,6,0,P|472:244|420:308,1,120,8|0,0:0|0:0,0:0:0:0:
424,128,132798,1,0,0:0:0:0:
344,276,132948,1,0,0:0:0:0:
336,108,133098,2,0,P|296:160|264:256,1,120,8|0,0:0|0:0,0:0:0:0:
436,256,133398,1,0,0:0:0:0:
316,372,133548,1,0,0:0:0:0:
232,228,133698,2,0,P|224:148|200:84,1,120,8|0,0:0|0:0,0:0:0:0:
360,192,133998,1,0,0:0:0:0:
244,316,134148,2,0,P|176:340|108:348,1,120,0|8,0:0|0:0,0:0:0:0:
156,180,134448,2,0,P|84:173|19:151,1,120
368,84,134898,6,0,P|316:48|240:24,1,120,8|0,0:0|0:0,0:0:0:0:
288,196,135198,1,0,0:0:0:0:
400,320,135348,1,0,0:0:0:0:
452,160,135498,2,0,P|464:109|464:32,1,120,8|0,0:0|0:0,0:0:0:0:
324,136,135798,1,4,0:0:0:0:
205,17,135948,1,4,0:0:0:0:
86,135,136098,1,4,0:0:0:0:
204,253,136248,1,4,0:0:0:0:
364,204,136398,1,4,0:0:0:0:
320,40,136548,1,4,0:0:0:0:
156,84,136698,2,0,L|260:192,1,120,8|0,0:0|0:0,0:0:0:0:
488,140,136998,6,0,P|480:216|464:280,1,120,4|0,0:0|0:0,0:0:0:0:
404,104,137298,1,8,0:0:0:0:
244,148,137448,1,0,0:0:0:0:
340,288,137598,2,0,P|284:320|192:344,1,120
100,232,137898,1,8,0:0:0:0:
36,76,138048,1,0,0:0:0:0:
200,48,138198,6,0,P|256:32|344:24,1,120
348,192,138498,1,8,0:0:0:0:
488,284,138648,1,0,0:0:0:0:
496,116,138798,2,0,P|460:56|400:16,1,120
280,116,139098,1,8,0:0:0:0:
112,112,139248,2,0,P|43:179|16:228,2,120
228,232,139698,6,0,P|264:288|320:332,1,120,8|0,0:0|0:0,0:0:0:0:
420,204,139998,1,0,0:0:0:0:
382,40,140148,1,0,0:0:0:0:
218,78,140298,1,8,0:0:0:0:
92,192,140448,2,0,P|92:260|104:340,1,120
176,164,140748,2,0,P|136:108|79:51,1,120,0|8,0:0|0:0,0:0:0:0:
251,146,141048,2,0,P|290:201|347:258,1,120
160,240,141348,2,0,P|200:292|264:348,1,120,0|8,0:0|0:0,0:0:0:0:
408,348,141648,2,0,P|436:296|472:204,1,120
172,64,142098,6,0,P|104:52|32:28,1,120,8|0,0:0|0:0,0:0:0:0:
176,164,142398,1,0,0:0:0:0:
36,260,142548,1,0,0:0:0:0:
192,320,142698,2,0,P|260:312|360:268,1,120,8|0,0:0|0:0,0:0:0:0:
268,132,142998,1,0,0:0:0:0:
404,232,143148,1,0,0:0:0:0:
404,64,143298,1,8,0:0:0:0:
316,208,143448,6,0,P|316:264|336:332,1,120
220,204,143748,2,0,P|199:255|192:326,1,120,0|8,0:0|0:0,0:0:0:0:
136,160,144048,2,0,P|97:200|64:263,1,120
328,44,144498,6,0,P|264:40|204:32,1,120,8|0,0:0|0:0,0:0:0:0:
344,132,144798,1,0,0:0:0:0:
476,236,144948,1,0,0:0:0:0:
316,284,145098,2,0,P|264:312|184:320,1,120,8|0,0:0|0:0,0:0:0:0:
72,220,145398,5,0,0:0:0:0:
68,196,145473,1,0,0:0:0:0:
84,176,145548,1,0,0:0:0:0:
104,164,145623,1,0,0:0:0:0:
112,140,145698,1,8,0:0:0:0:
136,136,145773,1,0,0:0:0:0:
152,116,145848,1,0,0:0:0:0:
176,112,145923,1,0,0:0:0:0:
196,124,145998,5,0,0:0:0:0:
220,124,146073,1,0,0:0:0:0:
236,144,146148,1,0,0:0:0:0:
256,132,146223,1,0,0:0:0:0:
268,108,146298,1,8,0:0:0:0:
288,120,146373,1,0,0:0:0:0:
304,100,146448,1,0,0:0:0:0:
300,76,146523,1,0,0:0:0:0:
324,84,146598,1,0,0:0:0:0:
256,192,146673,12,0,148398,0:0:0:0:
88,124,159198,6,0,L|76:104,11,15,8|0|0|0|8|0|0|0|8|0|0|0,0:0|0:0|0:0|0:0|0:0|0:0|0:0|0:0|0:0|0:0|0:0|0:0,0:0:0:0:
172,56,159498,1,8,0:0:0:0:
464,72,159798,6,0,P|388:128|336:200,1,180.000006866455
88,240,160098,1,8,0:0:0:0:
316,344,160248,1,0,0:0:0:0:
232,104,160398,1,0,0:0:0:0:
160,344,160548,1,0,0:0:0:0:
344,172,160698,1,8,0:0:0:0:
380,168,160773,1,0,0:0:0:0:
404,196,160848,1,0,0:0:0:0:
440,204,160923,1,0,0:0:0:0:
460,236,160998,2,0,B|476:260|476:260|480:288|480:288|512:308|512:308|520:336|520:336|504:368|504:368|484:376,1,180.000006866455
272,244,161298,5,8,0:0:0:0:
88,68,161448,1,0,0:0:0:0:
338,38,161598,2,0,P|426:86|490:146,1,180.000006866455
234,178,161898,1,8,0:0:0:0:
3,278,162048,2,0,P|78:344|156:383,1,180.000006866455
152,128,162348,5,0,0:0:0:0:
300,332,162498,1,8,0:0:0:0:
448,128,162648,1,0,0:0:0:0:
212,36,162798,1,0,0:0:0:0:
372,228,162948,1,0,0:0:0:0:
124,280,163098,1,8,0:0:0:0:
316,116,163248,6,0,P|364:80|480:28,1,180.000006866455
468,284,163548,1,0,0:0:0:0:
220,320,163698,1,8,0:0:0:0:
256,72,163848,2,0,P|176:108|64:132,1,180.000006866455
296,272,164148,2,0,P|368:332|472:368,1,180.000006866455,0|8,0:0|0:0,0:0:0:0:
460,112,164448,1,0,0:0:0:0:
436,84,164523,1,0,0:0:0:0:
412,60,164598,1,0,0:0:0:0:
376,64,164673,1,0,0:0:0:0:
352,36,164748,1,0,0:0:0:0:
100,40,164898,5,8,0:0:0:0:
48,288,165048,1,0,0:0:0:0:
264,156,165198,2,0,P|344:192|456:268,1,180.000006866455
180,320,165498,5,8,0:0:0:0:
8,136,165648,1,0,0:0:0:0:
240,232,165798,2,0,P|320:268|432:344,1,180.000006866455
292,88,166098,1,8,0:0:0:0:
480,256,166248,1,0,0:0:0:0:
380,24,166398,2,0,P|404:124|400:232,1,180.000006866455
216,32,166698,1,8,0:0:0:0:
44,216,166848,1,0,0:0:0:0:
292,176,166998,2,0,P|392:148|464:100,1,180.000006866455
200,112,167298,5,8,0:0:0:0:
364,304,167448,2,0,P|276:340|176:360,1,180.000006866455
200,112,167748,2,0,P|105:107|5:83,1,180.000006866455,0|8,0:0|0:0,0:0:0:0:
112,328,168048,1,0,0:0:0:0:
148,324,168123,1,0,0:0:0:0:
168,292,168198,1,0,0:0:0:0:
200,276,168273,1,0,0:0:0:0:
212,244,168348,1,0,0:0:0:0:
248,240,168423,1,0,0:0:0:0:
264,208,168498,1,8,0:0:0:0:
28,120,168648,5,0,0:0:0:0:
256,16,168798,1,0,0:0:0:0:
484,124,168948,1,0,0:0:0:0:
368,348,169098,2,0,P|280:360|156:352,1,180.000006866455,8|0,0:0|0:0,0:0:0:0:
144,108,169398,5,0,0:0:0:0:
176,96,169473,1,0,0:0:0:0:
208,112,169548,1,0,0:0:0:0:
224,144,169623,1,0,0:0:0:0:
260,144,169698,1,8,0:0:0:0:
296,152,169773,1,0,0:0:0:0:
320,180,169848,1,0,0:0:0:0:
68,164,169998,5,0,0:0:0:0:
304,76,170148,1,0,0:0:0:0:
168,288,170298,2,0,P|260:284|392:252,1,180.000006866455,8|0,0:0|0:0,0:0:0:0:
500,64,170598,2,0,P|453:143|363:244,1,180.000006866455
148,196,170898,1,8,0:0:0:0:
384,104,171048,1,0,0:0:0:0:
140,40,171198,5,0,0:0:0:0:
108,60,171273,1,0,0:0:0:0:
104,96,171348,1,0,0:0:0:0:
72,116,171423,1,0,0:0:0:0:
68,152,171498,1,8,0:0:0:0:
264,312,171648,5,0,0:0:0:0:
288,284,171723,1,0,0:0:0:0:
324,292,171798,1,0,0:0:0:0:
348,316,171873,1,0,0:0:0:0:
380,304,171948,2,0,B|408:296|408:296|424:264|424:264|464:248|464:248|464:208|464:208|492:156,1,180.000006866455,0|8,0:0|0:0,0:0:0:0:
268,40,172248,1,0,0:0:0:0:
188,280,172398,1,0,0:0:0:0:
192,28,172548,1,0,0:0:0:0:
444,60,172698,5,8,0:0:0:0:
200,120,172848,2,0,P|140:184|80:280,1,180.000006866455
300,120,173148,2,0,P|360:184|420:280,1,180.000006866455,0|8,0:0|0:0,0:0:0:0:
184,376,173448,2,0,P|80:348|16:268,1,180.000006866455
56,44,173748,2,0,P|136:32|236:32,1,180.000006866455,0|8,0:0|0:0,0:0:0:0:
104,248,174048,5,0,0:0:0:0:
120,280,174123,1,0,0:0:0:0:
156,280,174198,1,0,0:0:0:0:
184,304,174273,1,0,0:0:0:0:
216,320,174348,1,0,0:0:0:0:
376,124,174498,1,8,0:0:0:0:
500,344,174648,5,0,0:0:0:0:
288,204,174798,2,0,P|204:144|104:108,1,180.000006866455
372,36,175098,1,8,0:0:0:0:
376,288,175248,1,0,0:0:0:0:
480,60,175398,2,0,P|464:152|424:232,1,180.000006866455
252,44,175698,1,8,0:0:0:0:
48,192,175848,5,0,0:0:0:0:
252,340,175998,1,0,0:0:0:0:
272,300,176073,1,0,0:0:0:0:
312,284,176148,1,0,0:0:0:0:
328,240,176223,1,0,0:0:0:0:
372,224,176298,1,8,0:0:0:0:
160,88,176448,5,0,0:0:0:0:
172,340,176598,2,0,P|208:264|296:172,1,180.000006866455
468,352,176898,1,8,0:0:0:0:
492,100,177048,2,0,P|412:64|320:44,1,180.000006866455
156,236,177348,2,0,P|216:160|260:72,1,180.000006866455,0|8,0:0|0:0,0:0:0:0:
468,220,177648,1,0,0:0:0:0:
460,256,177723,1,0,0:0:0:0:
432,280,177798,1,0,0:0:0:0:
396,284,177873,1,0,0:0:0:0:
384,316,177948,1,0,0:0:0:0:
344,68,178098,1,8,0:0:0:0:
96,16,178248,5,0,0:0:0:0:
48,264,178398,1,0,0:0:0:0:
204,64,178548,1,0,0:0:0:0:
168,312,178698,1,8,0:0:0:0:
12,116,178848,2,0,L|188:200,1,180.000006866455
412,108,179148,1,0,0:0:0:0:
304,340,179298,1,8,0:0:0:0:
488,168,179448,1,0,0:0:0:0:
236,144,179598,1,0,0:0:0:0:
460,28,179748,1,0,0:0:0:0:
204,64,179898,6,0,P|136:112|64:196,1,180.000006866455,8|0,0:0|0:0,0:0:0:0:
320,140,180198,2,0,P|278:212|248:318,1,180.000006866455
472,184,180498,2,0,P|465:266|483:376,1,180.000006866455,8|0,0:0|0:0,0:0:0:0:
408,120,180798,1,0,0:0:0:0:
184,232,180948,2,0,P|120:296|24:344,1,180.000006866455,0|8,0:0|0:0,0:0:0:0:
80,88,181248,5,0,0:0:0:0:
104,64,181323,1,0,0:0:0:0:
140,56,181398,1,0,0:0:0:0:
160,84,181473,1,0,0:0:0:0:
196,84,181548,1,0,0:0:0:0:
228,100,181623,1,0,0:0:0:0:
220,136,181698,1,8,0:0:0:0:
252,152,181773,1,0,0:0:0:0:
268,184,181848,5,0,0:0:0:0:
252,216,181923,1,0,0:0:0:0:
280,240,181998,1,0,0:0:0:0:
316,240,182073,1,0,0:0:0:0:
344,260,182148,1,0,0:0:0:0:
368,232,182223,1,0,0:0:0:0:
404,240,182298,1,8,0:0:0:0:
416,204,182373,1,0,0:0:0:0:
452,212,182448,2,0,B|480:164|488:96|488:36,1,180.000006866455
236,16,182748,5,0,0:0:0:0:
20,144,182898,1,8,0:0:0:0:
184,336,183048,1,0,0:0:0:0:
432,292,183198,2,0,P|468:203|488:115,1,180.000006866455
232,112,183498,2,0,P|252:199|287:282,1,180.000006866455,8|0,0:0|0:0,0:0:0:0:
40,332,183798,6,0,P|96:248|110:159,1,180.000006866455
336,60,184098,1,8,0:0:0:0:
88,36,184248,2,0,P|170:138|192:204,1,180.000006866455
428,104,184548,2,0,P|396:132|300:304,1,180.000006866455,0|8,0:0|0:0,0:0:0:0:
72,192,184848,1,0,0:0:0:0:
260,360,184998,6,0,P|216:288|188:176,1,180.000006866455
440,204,185298,1,8,0:0:0:0:
232,64,185448,2,0,P|164:96|38:117,1,180.000006866455
316,140,185748,2,0,P|274:202|236:324,1,180.000006866455,0|8,0:0|0:0,0:0:0:0:
60,344,186198,5,0,0:0:0:0:
88,324,186273,1,0,0:0:0:0:
100,292,186348,1,0,0:0:0:0:
132,276,186423,1,0,0:0:0:0:
404,16,186648,5,0,0:0:0:0:
392,52,186723,1,0,0:0:0:0:
416,76,186798,1,0,0:0:0:0:
420,112,186873,1,0,0:0:0:0:
48,44,187098,5,0,0:0:0:0:
84,52,187173,1,0,0:0:0:0:
104,80,187248,1,0,0:0:0:0:
140,92,187323,1,0,0:0:0:0:
372,188,187548,5,0,0:0:0:0:
496,300,187698,1,0,0:0:0:0:
332,344,187848,1,0,0:0:0:0:
200,236,187998,2,0,P|164:192|68:160,1,120
216,36,188298,2,0,P|269:62|307:107,1,120
456,28,188598,1,4,0:0:0:0:
124,88,188898,5,8,0:0:0:0:
28,228,189048,1,0,0:0:0:0:
180,156,189198,2,0,L|296:88,1,120
448,128,189498,1,8,0:0:0:0:
312,228,189648,1,0,0:0:0:0:
196,352,189798,2,0,L|100:240,1,120
44,108,190098,1,8,0:0:0:0:
204,52,190248,2,0,L|360:32,1,120
184,132,190548,2,0,L|333:179,1,120,0|8,0:0|0:0,0:0:0:0:
132,196,190848,2,0,L|247:302,2,120
292,252,191298,6,0,L|444:264,1,120,8|0,0:0|0:0,0:0:0:0:
496,112,191598,1,0,0:0:0:0:
336,156,191748,2,0,L|223:197,1,120,0|8,0:0|0:0,0:0:0:0:
116,68,192048,2,0,L|28:168,1,120
188,84,192348,2,0,L|188:208,1,120,0|8,0:0|0:0,0:0:0:0:
260,68,192648,2,0,L|348:168,1,120
188,204,192948,2,0,L|288:288,1,120,0|8,0:0|0:0,0:0:0:0:
116,240,193248,2,0,L|216:324,1,120,0|0,0:0|0:0,0:0:0:0:
420,56,193698,6,0,P|460:96|496:168,1,120,8|0,0:0|0:0,0:0:0:0:
324,180,193998,1,0,0:0:0:0:
412,324,194148,1,0,0:0:0:0:
244,308,194298,2,0,L|116:368,1,120,8|0,0:0|0:0,0:0:0:0:
32,228,194598,1,0,0:0:0:0:
56,60,194748,1,0,0:0:0:0:
184,168,194898,2,0,L|309:262,1,120,8|0,0:0|0:0,0:0:0:0:
264,72,195198,5,0,0:0:0:0:
412,148,195348,1,0,0:0:0:0:
332,296,195498,1,8,0:0:0:0:
328,128,195648,2,0,L|404:24,1,120
240,328,196098,6,0,L|120:364,1,120,8|0,0:0|0:0,0:0:0:0:
80,200,196398,1,0,0:0:0:0:
168,56,196548,1,0,0:0:0:0:
236,208,196698,2,0,L|384:216,1,120,8|0,0:0|0:0,0:0:0:0:
364,44,196998,1,0,0:0:0:0:
476,172,197148,1,0,0:0:0:0:
416,328,197298,1,8,0:0:0:0:
240,328,197448,2,0,L|100:332,1,120
236,208,197748,2,0,L|107:152,1,120,0|8,0:0|0:0,0:0:0:0:
240,52,198048,5,0,0:0:0:0:
84,44,198198,2,0,L|24:156,1,120
183,149,198498,2,0,L|123:261,1,120,8|0,0:0|0:0,0:0:0:0:
282,254,198798,2,0,L|222:366,1,120
382,354,199098,2,0,L|510:310,1,120,8|0,0:0|0:0,0:0:0:0:
374,212,199398,2,0,L|502:168,1,120
367,73,199698,2,0,L|495:29,1,120,8|0,0:0|0:0,0:0:0:0:
232,72,199998,6,0,L|256:192,1,120
104,148,200298,2,0,L|192:232,1,120,8|0,0:0|0:0,0:0:0:0:
48,292,200598,2,0,L|168:310,1,120
316,260,200898,2,0,L|352:376,1,120,8|0,0:0|0:0,0:0:0:0:
380,220,201198,2,0,L|416:336,1,120
444,180,201498,2,0,L|480:296,1,120,8|0,0:0|0:0,0:0:0:0:
404,64,201798,5,0,0:0:0:0:
248,84,201948,2,0,L|168:216,1,120,0|8,0:0|0:0,0:0:0:0:
492,244,202398,2,0,L|404:328,1,120
444,180,202698,1,8,0:0:0:0:
328,76,202848,1,0,0:0:0:0:
220,156,202998,6,0,P|172:188|112:260,1,120
104,80,203298,1,8,0:0:0:0:
252,32,203448,1,0,0:0:0:0:
372,132,203598,2,0,P|426:161|467:239,1,120
328,272,203898,1,8,0:0:0:0:
188,344,204048,1,0,0:0:0:0:
76,232,204198,6,0,L|24:104,1,120
184,84,204498,1,8,0:0:0:0:
336,52,204648,1,0,0:0:0:0:
460,148,204798,2,0,L|488:268,1,120
352,344,205098,1,8,0:0:0:0:
224,256,205248,1,0,0:0:0:0:
348,164,205398,6,0,L|436:48,1,120
268,96,205698,1,8,0:0:0:0:
116,132,205848,1,0,0:0:0:0:
40,268,205998,2,0,L|128:364,1,120
156,204,206298,1,8,0:0:0:0:
172,48,206448,1,0,0:0:0:0:
328,28,206598,6,0,L|460:96,1,120
504,224,206898,1,8,0:0:0:0:
368,296,207048,1,0,0:0:0:0:
260,184,207198,2,0,L|128:100,1,120
124,272,207498,1,12,0:0:0:0:
304,252,207648,1,4,0:0:0:0:
428,124,207798,1,4,0:0:0:0:
276,96,207948,1,0,0:0:0:0:
128,52,208098,6,0,L|32:156,1,120,8|0,0:0|0:0,0:0:0:0:
184,216,208398,1,0,0:0:0:0:
206,61,208548,1,0,0:0:0:0:
350,120,208698,2,0,L|386:250,1,120,8|0,0:0|0:0,0:0:0:0:
262,337,208998,1,0,0:0:0:0:
109,370,209148,1,0,0:0:0:0:
102,214,209298,6,0,L|32:108,1,120,8|0,0:0|0:0,0:0:0:0:
191,138,209598,1,0,0:0:0:0:
312,236,209748,1,0,0:0:0:0:
431,136,209898,2,0,L|497:236,1,120,8|0,0:0|0:0,0:0:0:0:
359,311,210198,1,0,0:0:0:0:
214,252,210348,1,0,0:0:0:0:
273,107,210498,6,0,L|350:3,1,120,8|0,0:0|0:0,0:0:0:0:
189,34,210798,1,0,0:0:0:0:
45,94,210948,1,0,0:0:0:0:
150,209,211098,2,0,L|56:314,1,120,8|0,0:0|0:0,0:0:0:0:
108,146,211398,1,0,0:0:0:0:
259,185,211548,1,0,0:0:0:0:
343,53,211698,6,0,L|457:125,1,120,8|0,0:0|0:0,0:0:0:0:
494,264,211998,1,0,0:0:0:0:
359,184,212148,1,0,0:0:0:0:
317,334,212298,2,0,L|195:303,1,120,8|0,0:0|0:0,0:0:0:0:
104,180,212598,6,0,L|38:68,1,120
198,56,212898,2,0,L|77:17,1,120,8|0,0:0|0:0,0:0:0:0:
183,140,213198,2,0,L|206:282,1,120
310,144,213498,2,0,L|263:287,1,120,8|0,0:0|0:0,0:0:0:0:
406,337,213798,2,0,L|506:258,1,120
393,148,214098,2,0,L|508:193,1,120,8|0,0:0|0:0,0:0:0:0:
357,250,214398,2,0,L|264:345,1,120
164,221,214698,2,0,L|205:345,1,120,8|0,0:0|0:0,0:0:0:0:
36,177,214998,5,4,0:0:0:0:
146,66,215148,1,4,0:0:0:0:
256,176,215298,1,12,0:0:0:0:
366,286,215448,1,4,0:0:0:0:
476,175,215598,1,4,0:0:0:0:
365,64,215748,1,4,0:0:0:0:
256,176,215898,1,12,0:0:0:0:
145,286,216048,1,4,0:0:0:0:
36,177,216198,5,0,0:0:0:0:
48,164,216273,1,0,0:0:0:0:
64,164,216348,1,0,0:0:0:0:
80,172,216423,1,0,0:0:0:0:
96,164,216498,1,8,0:0:0:0:
112,176,216573,1,0,0:0:0:0:
120,192,216648,1,0,0:0:0:0:
136,200,216723,5,0,0:0:0:0:
152,212,216798,1,0,0:0:0:0:
168,212,216873,1,0,0:0:0:0:
184,212,216948,1,0,0:0:0:0:
200,220,217023,1,0,0:0:0:0:
208,236,217098,1,8,0:0:0:0:
312,168,217398,1,0,0:0:0:0:
