osu file format v13

[General]
AudioFilename: Helblinde - Disconnected.mp3
AudioLeadIn: 0
PreviewTime: 69348
Countdown: 0
SampleSet: Normal
StackLeniency: 0.2
Mode: 0
LetterboxInBreaks: 1
WidescreenStoryboard: 1

[Editor]
Bookmarks: 18198,19398,28698,28998,33798,48198,52998,56898,60198,64998,67398,69198,69798,79398,88998,98598,108198,111798,112998,118098,122898,127398,137298,145398,146598,148398,149448,159198,159798,187398,188448,188898,198048,199698,202698,207798,212298,214998,216198,217098,217398
DistanceSpacing: 2
BeatDivisor: 4
GridSize: 4
TimelineZoom: 1.2

[Metadata]
Title:Disconnected
TitleUnicode:Disconnected
Artist:Helblinde
ArtistUnicode:Helblinde
Creator:Taikuta
Version:#BLAMEJONIMAY2k14
Source:
Tags:
BeatmapID:465548
BeatmapSetID:169874

[Difficulty]
HPDrainRate:6.8
CircleSize:4.1
OverallDifficulty:8
ApproachRate:10
SliderMultiplier:2.4
SliderTickRate:1

[Events]
//Background and Video events
0,0,"bg.jpg",0,0
//Break Periods
2,111998,126948
2,149448,158523
//Storyboard Layer 0 (Background)
//Storyboard Layer 1 (Fail)
//Storyboard Layer 2 (Pass)
//Storyboard Layer 3 (Foreground)
//Storyboard Sound Samples
//Background Colour Transformations
3,100,0,0,0

[TimingPoints]
9498,300,4,1,0,100,1,0
9498,-76.9230769230769,4,1,0,100,0,0
18198,-66.6666666666667,4,1,0,100,0,0
19098,-66.6666666666667,4,1,0,100,0,0
19173,-76.9230769230769,4,1,0,100,0,0
21948,-76.9230769230769,4,1,0,100,0,0
22248,-66.6666666666667,4,1,0,100,0,0
24348,-76.9230769230769,4,1,0,100,0,0
26748,-66.6666666666667,4,1,0,100,0,0
27798,-83.3333333333333,4,1,0,100,0,0
28098,-71.4285714285714,4,1,0,100,0,0
28398,-62.5,4,1,0,100,0,0
28998,-66.6666666666667,4,1,0,100,0,0
33798,-83.3333333333333,4,1,0,100,0,0
33798,-83.3333333333333,4,1,0,100,0,1
33873,-83.3333333333333,4,1,0,100,0,0
38598,-76.9230769230769,4,1,0,100,0,0
48198,-100,4,1,0,100,0,0
52998,-71.4285714285714,4,1,0,100,0,0
69798,-66.6666666666667,4,1,0,100,0,1
79098,-66.6666666666667,4,1,0,100,0,0
79398,-66.6666666666667,4,1,0,100,0,1
88698,-66.6666666666667,4,1,0,100,0,0
88998,-66.6666666666667,4,1,0,100,0,1
98298,-66.6666666666667,4,1,0,100,0,0
98598,-66.6666666666667,4,1,0,100,0,1
108198,-100,4,1,0,100,0,0
111798,-100,4,1,1,5,0,0
111873,-100,4,1,0,100,0,0
127398,-71.4285714285714,4,1,0,100,0,0
135948,-66.6666666666667,4,1,0,100,0,0
137298,-71.4285714285714,4,1,0,100,0,0
148398,-100,4,1,1,5,0,0
148473,-100,4,1,0,100,0,0
159198,-76.9230769230769,4,1,0,25,0,0
159273,-100,4,1,0,100,0,0
159291,-100,4,1,0,25,0,0
159348,-100,4,1,0,100,0,0
159366,-100,4,1,0,25,0,0
159423,-100,4,1,0,100,0,0
159498,-71.4285714285714,4,1,0,100,0,0
159798,-66.6666666666667,4,1,0,100,0,1
169098,-66.6666666666667,4,1,0,100,0,0
169398,-66.6666666666667,4,1,0,100,0,1
178848,-76.9230769230769,4,1,0,100,0,1
179598,-66.6666666666667,4,1,0,100,0,1
186048,-66.6666666666667,4,1,0,100,0,0
186198,-66.6666666666667,4,1,0,100,0,1
186498,-66.6666666666667,4,1,0,100,0,0
186648,-66.6666666666667,4,1,0,100,0,1
186948,-66.6666666666667,4,1,0,100,0,0
187098,-66.6666666666667,4,1,0,100,0,1
187398,-71.4285714285714,4,1,0,100,0,0
187398,-71.4285714285714,4,1,0,100,0,0
198048,-76.9230769230769,4,1,0,100,0,0
217398,-100,4,1,1,5,0,0

[Colours]
Combo1 : 233,159,37
Combo2 : 185,57,57

[HitObjects]
40,347,9498,5,0,0:0:0:0:
155,63,9798,2,0,P|199:40|315:15,1,155.999992858887,0|0,0:0|0:0,0:0:0:0:
50,200,10098,1,8,0:0:0:0:
325,347,10248,1,0,0:0:0:0:
103,126,10398,2,0,P|171:187|247:214,1,155.999992858887,0|0,0:0|0:0,0:0:0:0:
486,32,10698,5,8,0:0:0:0:
452,342,10848,1,0,0:0:0:0:
145,285,10998,2,0,P|209:302|297:271,1,155.999992858887,0|0,0:0|0:0,0:0:0:0:
90,36,11298,1,8,0:0:0:0:
361,189,11448,1,0,0:0:0:0:
75,313,11598,2,0,P|100:223|165:211,1,155.999992858887,0|0,0:0|0:0,0:0:0:0:
462,239,11898,5,8,0:0:0:0:
185,95,12048,1,0,0:0:0:0:
360,352,12198,6,0,P|340:289|260:216,1,155.999992858887,0|0,0:0|0:0,0:0:0:0:
16,51,12498,1,8,0:0:0:0:
205,298,12648,1,0,0:0:0:0:
396,51,12798,2,0,P|302:102|268:171,1,155.999992858887,0|0,0:0|0:0,0:0:0:0:
48,356,13098,5,8,0:0:0:0:
105,49,13248,1,0,0:0:0:0:
284,303,13398,2,0,P|328:247|345:145,1,155.999992858887,0|0,0:0|0:0,0:0:0:0:
47,254,13698,1,8,0:0:0:0:
288,55,13848,1,0,0:0:0:0:
480,300,13998,2,0,P|489:222|477:126,1,155.999992858887,0|0,0:0|0:0,0:0:0:0:
171,96,14298,5,8,0:0:0:0:
378,328,14448,1,0,0:0:0:0:
102,181,14598,2,0,P|201:171|262:124,1,155.999992858887,0|0,0:0|0:0,0:0:0:0:
448,380,14898,1,8,0:0:0:0:
503,72,15048,1,0,0:0:0:0:
239,239,15198,2,0,P|157:280|96:360,1,155.999992858887,0|0,0:0|0:0,0:0:0:0:
253,47,15498,5,8,0:0:0:0:
471,269,15648,1,0,0:0:0:0:
192,128,15798,2,0,P|279:141|374:80,1,155.999992858887,0|0,0:0|0:0,0:0:0:0:
106,322,16098,1,8,0:0:0:0:
20,21,16248,1,0,0:0:0:0:
179,289,16398,2,0,P|237:329|340:315,1,155.999992858887,0|0,0:0|0:0,0:0:0:0:
463,46,16698,5,8,0:0:0:0:
196,208,16848,1,0,0:0:0:0:
495,119,16998,2,0,P|425:166|407:258,1,155.999992858887,0|0,0:0|0:0,0:0:0:0:
90,228,17298,1,8,0:0:0:0:
312,9,17448,1,0,0:0:0:0:
19,116,17598,2,0,P|83:90|175:95,1,155.999992858887,0|0,0:0|0:0,0:0:0:0:
456,212,17898,1,8,0:0:0:0:
163,320,18048,1,0,0:0:0:0:
385,37,18198,5,4,0:0:0:0:
253,372,18348,1,4,0:0:0:0:
111,41,18498,1,12,0:0:0:0:
428,208,18648,1,4,0:0:0:0:
68,208,18798,1,4,0:0:0:0:
385,37,18948,1,4,0:0:0:0:
253,372,19098,2,0,P|272:280|240:216,1,90.0000034332277,12|0,0:0|0:0,0:0:0:0:
144,140,19398,5,0,0:0:0:0:
454,109,19548,2,0,L|295:158,1,155.999992858887,0|8,0:0|0:0,0:0:0:0:
22,22,19848,2,0,L|65:205,1,155.999992858887,0|0,0:0|0:0,0:0:0:0:
331,323,20148,2,0,L|225:195,1,155.999992858887,0|8,0:0|0:0,0:0:0:0:
489,24,20448,2,0,L|295:47,1,155.999992858887,0|0,0:0|0:0,0:0:0:0:
132,283,20748,2,0,L|191:116,1,155.999992858887,0|8,0:0|0:0,0:0:0:0:
493,172,21048,2,0,L|323:220,1,155.999992858887,0|0,0:0|0:0,0:0:0:0:
102,15,21348,2,0,L|252:94,1,155.999992858887,0|8,0:0|0:0,0:0:0:0:
481,287,21648,2,0,L|324:353,1,155.999992858887,0|0,0:0|0:0,0:0:0:0:
88,219,21948,2,0,P|124:202|132:282,1,155.999992858887,0|0,0:0|0:0,0:0:0:0:
384,20,22248,5,0,0:0:0:0:
384,380,22398,1,0,0:0:0:0:
23,380,22548,1,0,0:0:0:0:
23,20,22698,1,8,0:0:0:0:
180,344,22848,1,0,0:0:0:0:
464,122,22998,1,0,0:0:0:0:
374,122,23148,1,0,0:0:0:0:
284,122,23298,1,8,0:0:0:0:
26,374,23448,5,0,0:0:0:0:
371,274,23598,1,0,0:0:0:0:
49,112,23748,1,0,0:0:0:0:
398,197,23898,1,8,0:0:0:0:
48,282,24048,2,0,P|125:233|167:125,1,180.000006866455,0|0,0:0|0:0,0:0:0:0:
456,264,24348,6,0,L|490:92,1,155.999992858887,0|8,0:0|0:0,0:0:0:0:
179,43,24648,2,0,L|22:126,1,155.999992858887,0|0,0:0|0:0,0:0:0:0:
249,350,24948,2,0,L|133:213,1,155.999992858887,0|8,0:0|0:0,0:0:0:0:
375,14,25248,2,0,L|226:123,1,155.999992858887,0|0,0:0|0:0,0:0:0:0:
420,369,25548,2,0,L|300:235,1,155.999992858887,0|8,0:0|0:0,0:0:0:0:
8,187,25848,2,0,L|175:186,1,155.999992858887,0|0,0:0|0:0,0:0:0:0:
454,65,26148,2,0,L|454:230,1,155.999992858887,0|8,0:0|0:0,0:0:0:0:
162,332,26448,2,0,L|276:217,1,155.999992858887,0|0,0:0|0:0,0:0:0:0:
84,33,26748,6,0,P|40:98|64:224,1,180.000006866455,0|0,0:0|0:0,0:0:0:0:
376,51,27048,1,0,0:0:0:0:
95,277,27198,1,0,0:0:0:0:
425,134,27348,1,0,0:0:0:0:
138,352,27498,1,8,0:0:0:0:
470,214,27648,1,0,0:0:0:0:
227,369,27798,2,0,P|227:274|203:192,1,143.999995605469,0|0,0:0|0:0,0:0:0:0:
297,342,28098,2,0,P|293:258|260:160,1,167.999994873047,8|0,0:0|0:0,0:0:0:0:
365,310,28398,2,0,P|345:187|304:104,1,192,0|0,0:0|0:0,0:0:0:0:
227,369,28698,1,8,0:0:0:0:
48,167,28998,5,0,0:0:0:0:
372,11,29148,2,0,P|272:74|232:165,1,180.000006866455,0|8,0:0|0:0,0:0:0:0:
500,379,29448,2,0,P|497:278|453:192,1,180.000006866455,0|0,0:0|0:0,0:0:0:0:
129,68,29748,2,0,P|158:183|208:230,1,180.000006866455,0|8,0:0|0:0,0:0:0:0:
493,12,30048,1,0,0:0:0:0:
421,364,30198,1,0,0:0:0:0:
296,26,30348,1,0,0:0:0:0:
76,311,30498,1,8,0:0:0:0:
435,289,30648,1,0,0:0:0:0:
79,235,30798,6,0,P|98:178|253:147,1,180.000006866455,0|0,0:0|0:0,0:0:0:0:
494,341,31098,2,0,P|498:248|437:142,1,180.000006866455,8|0,0:0|0:0,0:0:0:0:
125,43,31398,1,0,0:0:0:0:
329,339,31548,1,0,0:0:0:0:
486,15,31698,1,8,0:0:0:0:
140,117,31848,1,0,0:0:0:0:
500,89,31998,1,0,0:0:0:0:
154,191,32148,2,0,P|251:176|321:90,1,180.000006866455,0|8,0:0|0:0,0:0:0:0:
7,324,32448,5,0,0:0:0:0:
53,351,32523,1,0,0:0:0:0:
106,354,32598,1,0,0:0:0:0:
157,338,32673,1,0,0:0:0:0:
204,311,32748,1,0,0:0:0:0:
385,110,32898,2,0,P|448:175|469:283,1,180.000006866455,8|0,0:0|0:0,0:0:0:0:
182,39,33198,2,0,P|61:72|52:137,1,180.000006866455,0|0,0:0|0:0,0:0:0:0:
386,245,33498,2,0,P|416:164|363:96,1,180.000006866455,8|0,0:0|0:0,0:0:0:0:
124,256,33798,5,0,0:0:0:0:
363,96,33948,1,0,0:0:0:0:
90,188,34098,1,8,0:0:0:0:
377,170,34248,1,0,0:0:0:0:
94,112,34398,1,0,0:0:0:0:
351,241,34548,1,0,0:0:0:0:
135,49,34698,5,8,0:0:0:0:
293,289,34848,1,0,0:0:0:0:
202,15,34998,1,0,0:0:0:0:
219,302,35148,1,0,0:0:0:0:
277,20,35298,1,8,0:0:0:0:
147,277,35448,1,0,0:0:0:0:
339,62,35598,1,0,0:0:0:0:
98,220,35748,1,0,0:0:0:0:
371,130,35898,5,8,0:0:0:0:
83,146,36048,1,0,0:0:0:0:
364,206,36198,1,0,0:0:0:0:
107,74,36348,1,0,0:0:0:0:
319,268,36498,1,8,0:0:0:0:
164,24,36648,1,0,0:0:0:0:
250,298,36798,5,0,0:0:0:0:
226,261,36873,1,0,0:0:0:0:
210,220,36948,1,0,0:0:0:0:
219,177,37023,1,0,0:0:0:0:
244,142,37098,1,8,0:0:0:0:
252,99,37173,1,0,0:0:0:0:
245,56,37248,1,0,0:0:0:0:
142,246,37398,5,0,0:0:0:0:
158,286,37473,1,0,0:0:0:0:
181,322,37548,1,0,0:0:0:0:
207,356,37623,1,0,0:0:0:0:
247,370,37698,1,8,0:0:0:0:
288,359,37773,1,0,0:0:0:0:
317,327,37848,1,0,0:0:0:0:
321,284,37923,1,0,0:0:0:0:
300,245,37998,2,0,B|261:200|318:176|344:114,1,143.999995605469,0|0,0:0|0:0,0:0:0:0:
62,39,38298,5,8,0:0:0:0:
8,322,38448,1,0,0:0:0:0:
206,81,38598,1,0,0:0:0:0:
409,317,38748,2,0,P|442:263|446:142,1,155.999992858887,0|8,0:0|0:0,0:0:0:0:
142,219,39048,2,0,P|116:147|143:54,1,155.999992858887,0|0,0:0|0:0,0:0:0:0:
445,58,39348,2,0,P|377:80|342:169,1,155.999992858887,0|8,0:0|0:0,0:0:0:0:
126,380,39648,5,0,0:0:0:0:
84,358,39723,1,0,0:0:0:0:
51,324,39798,1,0,0:0:0:0:
34,280,39873,1,0,0:0:0:0:
42,233,39948,1,0,0:0:0:0:
146,23,40098,5,8,0:0:0:0:
259,313,40248,1,0,0:0:0:0:
2,135,40398,2,0,P|70:143|160:216,1,155.999992858887,0|0,0:0|0:0,0:0:0:0:
421,328,40698,2,0,P|372:267|302:235,1,155.999992858887,8|0,0:0|0:0,0:0:0:0:
49,53,40998,1,0,0:0:0:0:
360,37,41148,1,0,0:0:0:0:
141,259,41298,1,8,0:0:0:0:
436,158,41448,2,0,P|338:175|279:149,1,155.999992858887,0|0,0:0|0:0,0:0:0:0:
46,356,41748,2,0,P|13:307|12:212,1,155.999992858887,0|8,0:0|0:0,0:0:0:0:
322,260,42048,5,0,0:0:0:0:
340,217,42123,1,0,0:0:0:0:
341,170,42198,1,0,0:0:0:0:
321,127,42273,1,0,0:0:0:0:
279,105,42348,1,0,0:0:0:0:
310,336,42498,2,0,P|395:285|408:218,1,155.999992858887,8|0,0:0|0:0,0:0:0:0:
148,63,42798,6,0,P|168:139|258:201,1,155.999992858887,0|0,0:0|0:0,0:0:0:0:
490,28,43098,2,0,P|430:64|320:48,1,155.999992858887,8|0,0:0|0:0,0:0:0:0:
45,152,43398,5,0,0:0:0:0:
258,379,43548,1,0,0:0:0:0:
103,107,43698,1,8,0:0:0:0:
316,334,43848,1,0,0:0:0:0:
160,63,43998,1,0,0:0:0:0:
374,289,44148,1,0,0:0:0:0:
218,18,44298,1,8,0:0:0:0:
431,245,44448,1,0,0:0:0:0:
126,176,44598,5,0,0:0:0:0:
437,173,44748,1,0,0:0:0:0:
134,248,44898,1,8,0:0:0:0:
411,105,45048,1,0,0:0:0:0:
174,308,45198,1,0,0:0:0:0:
357,55,45348,1,0,0:0:0:0:
237,343,45498,1,8,0:0:0:0:
288,35,45648,1,0,0:0:0:0:
310,346,45798,1,0,0:0:0:0:
170,66,45948,5,0,0:0:0:0:
33,346,46098,1,8,0:0:0:0:
285,162,46248,1,0,0:0:0:0:
510,378,46398,1,0,0:0:0:0:
501,332,46473,1,0,0:0:0:0:
482,289,46548,1,0,0:0:0:0:
445,260,46623,1,0,0:0:0:0:
398,260,46698,1,8,0:0:0:0:
354,277,46773,1,0,0:0:0:0:
307,275,46848,1,0,0:0:0:0:
266,251,46923,1,0,0:0:0:0:
235,215,46998,6,0,P|78:201|224:312,1,467.999978576661,0|0,0:0|0:0,0:0:0:0:
286,162,47598,2,0,P|359:22|373:205,1,467.999978576661,0|0,0:0|0:0,0:0:0:0:
178,72,48198,6,0,P|110:96|65:134,1,120,0|0,0:0|0:0,0:0:0:0:
122,361,48498,1,8,0:0:0:0:
213,139,48648,6,0,P|294:119|355:127,1,120,0|0,0:0|0:0,0:0:0:0:
464,275,48948,1,0,0:0:0:0:
236,352,49098,2,0,P|195:299|182:231,1,120,0|0,0:0|0:0,0:0:0:0:
408,334,49398,2,0,P|385:278|412:215,1,120,0|0,0:0|0:0,0:0:0:0:
507,6,49698,1,8,0:0:0:0:
321,157,49848,2,0,P|285:202|207:241,1,120,0|0,0:0|0:0,0:0:0:0:
1,301,50148,1,0,0:0:0:0:
54,66,50298,6,0,P|86:133|149:165,1,120,0|0,0:0|0:0,0:0:0:0:
329,33,50598,2,0,P|260:56|234:113,1,120,0|0,0:0|0:0,0:0:0:0:
112,299,50898,1,8,0:0:0:0:
351,289,51048,2,0,P|398:240|417:155,1,120,0|0,0:0|0:0,0:0:0:0:
179,138,51348,5,0,0:0:0:0:
263,362,51498,2,0,P|320:372|392:368,1,120,0|0,0:0|0:0,0:0:0:0:
185,231,51798,1,0,0:0:0:0:
149,224,51873,1,0,0:0:0:0:
118,204,51948,1,0,0:0:0:0:
96,174,52023,1,0,0:0:0:0:
88,138,52098,1,0,0:0:0:0:
34,309,52248,2,0,P|88:351|172:360,1,120,0|0,0:0|0:0,0:0:0:0:
279,166,52548,5,0,0:0:0:0:
479,34,52698,2,0,L|363:113,1,120,4|0,0:0|0:0,0:0:0:0:
69,54,52998,5,4,0:0:0:0:
169,349,53148,2,0,P|245:340|311:292,1,155.999992858887,4|0,0:0|0:0,0:0:0:0:
159,20,53448,2,0,P|188:91|196:198,1,155.999992858887,4|0,0:0|0:0,0:0:0:0:
482,296,53748,2,0,P|395:261|351:181,1,155.999992858887,4|0,0:0|0:0,0:0:0:0:
65,321,54048,1,0,0:0:0:0:
254,72,54198,1,4,0:0:0:0:
398,348,54348,2,0,P|320:336|235:364,1,155.999992858887,4|0,0:0|0:0,0:0:0:0:
72,45,54798,6,0,P|41:119|50:218,1,155.999992858887,4|0,0:0|0:0,0:0:0:0:
333,80,55098,2,0,P|294:140|204:136,1,155.999992858887,12|0,0:0|0:0,0:0:0:0:
475,319,55398,1,4,0:0:0:0:
417,12,55548,2,0,P|418:92|369:178,1,155.999992858887,4|0,0:0|0:0,0:0:0:0:
151,368,55848,2,0,P|249:314|309:246,1,155.999992858887,4|0,0:0|0:0,0:0:0:0:
3,138,56148,2,0,P|103:171|146:217,1,155.999992858887,4|0,0:0|0:0,0:0:0:0:
406,367,56448,1,4,0:0:0:0:
465,59,56598,1,4,0:0:0:0:
159,1,56748,1,4,0:0:0:0:
100,305,56898,2,0,L|223:174,1,155.999992858887,12|0,0:0|0:0,0:0:0:0:
184,314,57198,2,0,L|307:183,1,155.999992858887,0|0,0:0|0:0,0:0:0:0:
268,323,57498,2,0,L|391:192,1,155.999992858887,8|0,0:0|0:0,0:0:0:0:
256,192,57798,12,0,60198,0:0:0:0:
5,5,60498,5,4,0:0:0:0:
512,0,60798,1,4,0:0:0:0:
0,81,61098,1,4,0:0:0:0:
512,75,61398,1,4,0:0:0:0:
0,157,61698,1,4,0:0:0:0:
512,151,61998,1,4,0:0:0:0:
0,233,62298,1,4,0:0:0:0:
512,227,62598,1,4,0:0:0:0:
0,308,62898,1,4,0:0:0:0:
512,302,63198,1,4,0:0:0:0:
1,384,63498,1,4,0:0:0:0:
512,378,63798,1,4,0:0:0:0:
8,12,64098,5,4,0:0:0:0:
512,8,64398,1,4,0:0:0:0:
0,384,64698,1,4,0:0:0:0:
512,384,64998,5,4,0:0:0:0:
457,76,65148,1,0,0:0:0:0:
290,340,65298,1,0,0:0:0:0:
77,111,65448,1,0,0:0:0:0:
388,111,65598,1,4,0:0:0:0:
84,183,65748,1,0,0:0:0:0:
362,322,65898,1,4,0:0:0:0:
150,92,66048,1,0,0:0:0:0:
408,266,66198,5,4,0:0:0:0:
197,35,66348,1,0,0:0:0:0:
217,346,66498,1,0,0:0:0:0:
338,58,66648,1,0,0:0:0:0:
96,255,66798,1,4,0:0:0:0:
402,197,66948,1,0,0:0:0:0:
96,133,67098,1,4,0:0:0:0:
328,340,67248,1,0,0:0:0:0:
199,55,67398,5,0,0:0:0:0:
45,354,67548,1,0,0:0:0:0:
370,272,67698,1,0,0:0:0:0:
116,50,67848,1,0,0:0:0:0:
244,360,67998,1,0,0:0:0:0:
275,25,68148,1,0,0:0:0:0:
171,344,68298,1,0,0:0:0:0:
403,101,68448,1,0,0:0:0:0:
256,192,68598,12,0,69498,0:0:0:0:
340,20,69798,5,0,0:0:0:0:
85,274,69948,1,0,0:0:0:0:
445,274,70098,1,8,0:0:0:0:
190,19,70248,1,0,0:0:0:0:
190,379,70398,1,0,0:0:0:0:
444,124,70548,1,0,0:0:0:0:
84,124,70698,2,0,P|168:128|264:60,1,180.000006866455,8|0,0:0|0:0,0:0:0:0:
340,384,70998,5,0,0:0:0:0:
32,196,71148,1,0,0:0:0:0:
376,90,71298,1,8,0:0:0:0:
118,341,71448,1,0,0:0:0:0:
448,198,71598,1,0,0:0:0:0:
119,51,71748,1,0,0:0:0:0:
407,265,71898,5,8,0:0:0:0:
47,284,72048,1,0,0:0:0:0:
309,37,72198,1,0,0:0:0:0:
204,381,72348,1,0,0:0:0:0:
42,59,72498,1,8,0:0:0:0:
298,311,72648,1,0,0:0:0:0:
500,13,72798,1,0,0:0:0:0:
384,354,72948,1,0,0:0:0:0:
60,196,73098,5,8,0:0:0:0:
418,165,73248,1,0,0:0:0:0:
108,349,73398,1,0,0:0:0:0:
227,9,73548,1,0,0:0:0:0:
452,289,73698,1,8,0:0:0:0:
92,267,73848,1,0,0:0:0:0:
377,47,73998,1,0,0:0:0:0:
20,96,74148,1,0,0:0:0:0:
285,339,74298,5,8,0:0:0:0:
120,18,74448,1,0,0:0:0:0:
359,286,74598,1,0,0:0:0:0:
6,212,74748,1,0,0:0:0:0:
357,135,74898,1,8,0:0:0:0:
65,346,75048,1,0,0:0:0:0:
223,22,75198,1,0,0:0:0:0:
203,381,75348,1,0,0:0:0:0:
49,55,75498,5,8,0:0:0:0:
359,236,75648,1,0,0:0:0:0:
13,336,75798,1,0,0:0:0:0:
277,91,75948,1,0,0:0:0:0:
499,374,76098,1,8,0:0:0:0:
144,309,76248,1,0,0:0:0:0:
375,33,76398,1,0,0:0:0:0:
49,187,76548,1,0,0:0:0:0:
367,354,76698,5,8,0:0:0:0:
147,68,76848,1,0,0:0:0:0:
446,268,76998,1,0,0:0:0:0:
109,139,77148,1,0,0:0:0:0:
467,165,77298,1,8,0:0:0:0:
113,230,77448,1,0,0:0:0:0:
441,82,77598,1,0,0:0:0:0:
225,370,77748,1,0,0:0:0:0:
196,11,77898,5,8,0:0:0:0:
362,330,78048,1,0,0:0:0:0:
2,341,78198,1,0,0:0:0:0:
247,77,78348,1,0,0:0:0:0:
479,351,78498,1,8,0:0:0:0:
175,157,78648,1,0,0:0:0:0:
508,21,78798,1,0,0:0:0:0:
275,295,78948,1,0,0:0:0:0:
35,25,79098,2,0,P|35:174|87:251,1,180.000006866455,8|0,0:0|0:0,0:0:0:0:
248,377,79398,5,0,0:0:0:0:
291,367,79473,1,0,0:0:0:0:
326,339,79548,1,0,0:0:0:0:
342,297,79623,1,0,0:0:0:0:
329,253,79698,1,8,0:0:0:0:
298,219,79773,1,0,0:0:0:0:
253,211,79848,1,0,0:0:0:0:
215,186,79923,1,0,0:0:0:0:
206,141,79998,1,0,0:0:0:0:
217,97,80073,1,0,0:0:0:0:
246,63,80148,1,0,0:0:0:0:
466,40,80298,6,0,P|497:114|503:227,1,180.000006866455,8|0,0:0|0:0,0:0:0:0:
181,376,80598,1,8,0:0:0:0:
255,23,80748,1,0,0:0:0:0:
352,369,80898,1,8,0:0:0:0:
78,134,81048,1,0,0:0:0:0:
436,106,81198,1,8,0:0:0:0:
118,275,81348,1,0,0:0:0:0:
374,22,81498,5,8,0:0:0:0:
270,366,81648,1,0,0:0:0:0:
143,29,81798,1,0,0:0:0:0:
420,258,81948,1,0,0:0:0:0:
63,210,82098,1,8,0:0:0:0:
421,180,82248,1,0,0:0:0:0:
77,73,82398,1,0,0:0:0:0:
344,314,82548,1,0,0:0:0:0:
145,13,82698,5,8,0:0:0:0:
48,359,82848,1,0,0:0:0:0:
338,146,82998,1,0,0:0:0:0:
5,7,83148,1,0,0:0:0:0:
145,338,83298,1,8,0:0:0:0:
315,21,83448,1,0,0:0:0:0:
45,259,83598,1,0,0:0:0:0:
404,236,83748,1,0,0:0:0:0:
52,160,83898,5,8,0:0:0:0:
356,351,84048,1,0,0:0:0:0:
194,29,84198,1,0,0:0:0:0:
254,383,84348,1,0,0:0:0:0:
445,78,84498,1,8,0:0:0:0:
110,211,84648,1,0,0:0:0:0:
467,165,84798,1,0,0:0:0:0:
117,76,84948,1,0,0:0:0:0:
419,270,85098,5,8,0:0:0:0:
66,341,85248,1,0,0:0:0:0:
368,145,85398,1,0,0:0:0:0:
8,146,85548,1,0,0:0:0:0:
322,321,85698,1,8,0:0:0:0:
145,7,85848,1,0,0:0:0:0:
191,364,85998,1,0,0:0:0:0:
366,49,86148,1,0,0:0:0:0:
60,239,86298,5,8,0:0:0:0:
419,255,86448,1,0,0:0:0:0:
79,135,86598,1,0,0:0:0:0:
436,89,86748,1,0,0:0:0:0:
138,291,86898,1,8,0:0:0:0:
479,177,87048,1,0,0:0:0:0:
135,70,87198,1,0,0:0:0:0:
358,352,87348,1,0,0:0:0:0:
209,23,87498,5,8,0:0:0:0:
49,345,87648,1,0,0:0:0:0:
363,169,87798,1,0,0:0:0:0:
15,261,87948,1,0,0:0:0:0:
374,263,88098,1,8,0:0:0:0:
37,135,88248,1,0,0:0:0:0:
387,54,88398,1,0,0:0:0:0:
233,379,88548,1,0,0:0:0:0:
95,46,88698,2,0,P|159:100|286:79,1,180.000006866455,8|0,0:0|0:0,0:0:0:0:
506,5,88998,5,0,0:0:0:0:
508,49,89073,1,0,0:0:0:0:
494,91,89148,1,0,0:0:0:0:
473,131,89223,1,0,0:0:0:0:
435,155,89298,1,8,0:0:0:0:
390,157,89373,1,0,0:0:0:0:
345,148,89448,1,0,0:0:0:0:
300,140,89523,1,0,0:0:0:0:
255,138,89598,1,0,0:0:0:0:
212,154,89673,1,0,0:0:0:0:
187,191,89748,1,0,0:0:0:0:
359,364,89898,6,0,P|418:322|447:184,1,180.000006866455,8|0,0:0|0:0,0:0:0:0:
144,38,90198,2,0,P|219:35|321:98,1,180.000006866455,0|0,0:0|0:0,0:0:0:0:
22,301,90498,1,8,0:0:0:0:
381,291,90648,1,0,0:0:0:0:
66,115,90798,1,0,0:0:0:0:
418,42,90948,1,0,0:0:0:0:
279,374,91098,5,8,0:0:0:0:
224,18,91248,1,0,0:0:0:0:
83,349,91398,1,0,0:0:0:0:
418,218,91548,1,0,0:0:0:0:
58,229,91698,1,8,0:0:0:0:
407,144,91848,1,0,0:0:0:0:
64,33,91998,1,0,0:0:0:0:
188,370,92148,1,0,0:0:0:0:
338,43,92298,5,8,0:0:0:0:
87,301,92448,1,0,0:0:0:0:
446,325,92598,1,0,0:0:0:0:
130,151,92748,1,0,0:0:0:0:
473,44,92898,1,8,0:0:0:0:
318,368,93048,1,0,0:0:0:0:
246,15,93198,1,0,0:0:0:0:
6,283,93348,1,0,0:0:0:0:
365,288,93498,5,8,0:0:0:0:
117,26,93648,1,0,0:0:0:0:
178,380,93798,1,0,0:0:0:0:
448,142,93948,1,0,0:0:0:0:
125,301,94098,1,8,0:0:0:0:
353,23,94248,1,0,0:0:0:0:
273,374,94398,1,0,0:0:0:0:
47,93,94548,1,0,0:0:0:0:
390,201,94698,5,8,0:0:0:0:
66,359,94848,1,0,0:0:0:0:
195,22,94998,1,0,0:0:0:0:
348,347,95148,1,0,0:0:0:0:
12,215,95298,1,8,0:0:0:0:
359,119,95448,1,0,0:0:0:0:
13,16,95598,1,0,0:0:0:0:
167,341,95748,1,0,0:0:0:0:
298,5,95898,5,8,0:0:0:0:
457,327,96048,1,0,0:0:0:0:
144,147,96198,1,0,0:0:0:0:
483,28,96348,1,0,0:0:0:0:
267,316,96498,1,8,0:0:0:0:
84,5,96648,1,0,0:0:0:0:
34,361,96798,1,0,0:0:0:0:
180,32,96948,1,0,0:0:0:0:
349,349,97098,5,8,0:0:0:0:
112,77,97248,1,0,0:0:0:0:
435,235,97398,1,0,0:0:0:0:
78,286,97548,1,0,0:0:0:0:
346,46,97698,1,8,0:0:0:0:
164,356,97848,1,0,0:0:0:0:
429,113,97998,1,0,0:0:0:0:
69,138,98148,1,0,0:0:0:0:
391,298,98298,2,0,P|309:300|208:228,1,180.000006866455,8|0,0:0|0:0,0:0:0:0:
91,18,98598,5,0,0:0:0:0:
46,24,98673,1,0,0:0:0:0:
23,63,98748,1,0,0:0:0:0:
20,107,98823,1,0,0:0:0:0:
42,146,98898,1,8,0:0:0:0:
86,152,98973,1,0,0:0:0:0:
126,133,99048,1,0,0:0:0:0:
161,104,99123,1,0,0:0:0:0:
205,98,99198,1,0,0:0:0:0:
236,130,99273,1,0,0:0:0:0:
217,171,99348,1,0,0:0:0:0:
45,348,99498,6,0,P|123:380|223:378,1,180.000006866455,8|0,0:0|0:0,0:0:0:0:
217,19,99798,2,0,P|323:18|419:55,1,180.000006866455,0|0,0:0|0:0,0:0:0:0:
480,362,100098,1,8,0:0:0:0:
277,64,100248,1,0,0:0:0:0:
50,343,100398,1,0,0:0:0:0:
207,19,100548,1,0,0:0:0:0:
373,338,100698,5,8,0:0:0:0:
28,233,100848,1,0,0:0:0:0:
387,244,100998,1,0,0:0:0:0:
100,26,101148,1,0,0:0:0:0:
261,347,101298,1,8,0:0:0:0:
459,46,101448,1,0,0:0:0:0:
199,295,101598,1,0,0:0:0:0:
406,0,101748,1,0,0:0:0:0:
465,355,101898,5,8,0:0:0:0:
117,262,102048,1,0,0:0:0:0:
464,168,102198,1,0,0:0:0:0:
105,137,102348,1,0,0:0:0:0:
441,263,102498,1,8,0:0:0:0:
93,357,102648,1,0,0:0:0:0:
361,117,102798,1,0,0:0:0:0:
16,11,102948,1,0,0:0:0:0:
187,327,103098,5,8,0:0:0:0:
452,83,103248,1,0,0:0:0:0:
109,194,103398,1,0,0:0:0:0:
430,354,103548,1,0,0:0:0:0:
331,7,103698,1,8,0:0:0:0:
320,366,103848,1,0,0:0:0:0:
68,107,103998,1,0,0:0:0:0:
395,256,104148,1,0,0:0:0:0:
45,340,104298,5,8,0:0:0:0:
230,31,104448,1,0,0:0:0:0:
482,287,104598,1,0,0:0:0:0:
128,353,104748,1,0,0:0:0:0:
444,181,104898,1,8,0:0:0:0:
88,240,105048,1,0,0:0:0:0:
402,65,105198,1,0,0:0:0:0:
212,370,105348,1,0,0:0:0:0:
98,28,105498,5,8,0:0:0:0:
293,330,105648,1,0,0:0:0:0:
35,77,105798,1,0,0:0:0:0:
390,133,105948,1,0,0:0:0:0:
74,306,106098,1,8,0:0:0:0:
291,19,106248,1,0,0:0:0:0:
452,340,106398,1,0,0:0:0:0:
135,168,106548,1,0,0:0:0:0:
486,88,106698,5,8,0:0:0:0:
204,312,106848,1,0,0:0:0:0:
13,6,106998,1,0,0:0:0:0:
370,48,107148,1,0,0:0:0:0:
51,216,107298,1,8,0:0:0:0:
375,372,107448,1,0,0:0:0:0:
171,75,107598,1,0,0:0:0:0:
475,266,107748,1,0,0:0:0:0:
121,333,107898,1,8,0:0:0:0:
256,192,108048,12,0,111798,0:0:0:0:
256,372,127398,5,0,0:0:0:0:
17,134,127548,1,0,0:0:0:0:
345,61,127698,2,0,P|340:151|307:240,1,167.999994873047,8|0,0:0|0:0,0:0:0:0:
15,375,127998,1,0,0:0:0:0:
241,126,128148,1,0,0:0:0:0:
473,368,128298,1,8,0:0:0:0:
150,273,128448,6,0,P|130:203|138:85,1,167.999994873047,0|0,0:0|0:0,0:0:0:0:
441,245,128748,2,0,P|362:205|257:198,1,167.999994873047,0|8,0:0|0:0,0:0:0:0:
6,5,129048,1,0,0:0:0:0:
88,330,129198,1,0,0:0:0:0:
362,136,129348,2,0,P|313:212|288:301,1,167.999994873047,0|8,0:0|0:0,0:0:0:0:
20,84,129648,2,0,P|81:151|190:180,1,167.999994873047,0|0,0:0|0:0,0:0:0:0:
461,47,129948,1,0,0:0:0:0:
196,254,130098,6,0,P|228:157|229:51,1,167.999994873047,8|0,0:0|0:0,0:0:0:0:
462,339,130398,1,0,0:0:0:0:
308,40,130548,1,0,0:0:0:0:
42,245,130698,1,8,0:0:0:0:
378,245,130848,2,0,P|312:297|226:346,1,167.999994873047,0|0,0:0|0:0,0:0:0:0:
94,36,131148,2,0,P|161:20|299:18,1,167.999994873047,0|8,0:0|0:0,0:0:0:0:
162,336,131448,6,0,P|124:273|123:146,1,167.999994873047,0|0,0:0|0:0,0:0:0:0:
446,117,131748,2,0,P|354:149|287:223,1,167.999994873047,0|8,0:0|0:0,0:0:0:0:
9,33,132048,2,0,P|50:106|133:107,1,167.999994873047,0|0,0:0|0:0,0:0:0:0:
454,35,132348,1,0,0:0:0:0:
164,205,132498,5,8,0:0:0:0:
472,339,132648,1,0,0:0:0:0:
316,40,132798,1,0,0:0:0:0:
296,375,132948,1,0,0:0:0:0:
168,64,133098,1,8,0:0:0:0:
31,371,133248,5,0,0:0:0:0:
345,252,133398,1,0,0:0:0:0:
19,168,133548,1,0,0:0:0:0:
353,137,133698,1,8,0:0:0:0:
49,280,133848,1,0,0:0:0:0:
378,347,133998,1,0,0:0:0:0:
248,36,134148,2,0,P|257:136|295:202,1,167.999994873047,0|8,0:0|0:0,0:0:0:0:
6,8,134448,2,0,P|78:70|127:168,1,167.999994873047,0|0,0:0|0:0,0:0:0:0:
437,233,134748,1,0,0:0:0:0:
126,361,134898,5,8,0:0:0:0:
309,79,135048,1,0,0:0:0:0:
6,224,135198,1,0,0:0:0:0:
340,257,135348,1,0,0:0:0:0:
21,149,135498,1,8,0:0:0:0:
294,344,135648,6,0,P|213:286|178:194,1,167.999994873047,0|4,0:0|0:0,0:0:0:0:
487,33,135948,1,4,0:0:0:0:
127,51,136098,1,4,0:0:0:0:
463,178,136248,1,4,0:0:0:0:
104,207,136398,1,4,0:0:0:0:
433,351,136548,1,4,0:0:0:0:
73,348,136698,1,8,0:0:0:0:
354,122,136848,1,0,0:0:0:0:
25,269,136998,1,4,0:0:0:0:
384,255,137148,1,0,0:0:0:0:
116,52,137298,6,0,P|203:66|293:109,1,167.999994873047,8|0,0:0|0:0,0:0:0:0:
475,370,137598,1,0,0:0:0:0:
147,296,137748,1,0,0:0:0:0:
460,175,137898,1,8,0:0:0:0:
124,151,138048,6,0,P|192:96|230:7,1,167.999994873047,0|0,0:0|0:0,0:0:0:0:
114,344,138348,2,0,P|169:273|256:220,1,167.999994873047,0|8,0:0|0:0,0:0:0:0:
494,18,138648,2,0,P|428:54|355:129,1,167.999994873047,0|0,0:0|0:0,0:0:0:0:
31,190,138948,1,0,0:0:0:0:
337,328,139098,1,8,0:0:0:0:
186,27,139248,2,0,P|260:91|297:165,1,167.999994873047,0|0,0:0|0:0,0:0:0:0:
24,357,139548,1,0,0:0:0:0:
340,244,139698,5,8,0:0:0:0:
53,68,139848,1,0,0:0:0:0:
384,10,139998,1,0,0:0:0:0:
171,269,140148,1,0,0:0:0:0:
480,137,140298,1,8,0:0:0:0:
144,138,140448,6,0,P|83:209|57:292,1,167.999994873047,0|0,0:0|0:0,0:0:0:0:
363,135,140748,2,0,P|429:79|517:24,1,167.999994873047,0|8,0:0|0:0,0:0:0:0:
319,319,141048,2,0,P|258:262|207:167,1,167.999994873047,0|0,0:0|0:0,0:0:0:0:
501,9,141348,2,0,P|398:21|292:69,1,167.999994873047,0|8,0:0|0:0,0:0:0:0:
33,185,141648,2,0,P|63:274|136:338,1,167.999994873047,0|0,0:0|0:0,0:0:0:0:
250,15,141948,1,0,0:0:0:0:
255,350,142098,5,8,0:0:0:0:
33,97,142248,1,0,0:0:0:0:
337,240,142398,1,0,0:0:0:0:
18,347,142548,1,0,0:0:0:0:
270,125,142698,1,8,0:0:0:0:
486,381,142848,6,0,P|480:304|426:198,1,167.999994873047,0|0,0:0|0:0,0:0:0:0:
155,44,143148,2,0,P|161:121|215:227,1,167.999994873047,0|8,0:0|0:0,0:0:0:0:
483,22,143448,1,0,0:0:0:0:
362,335,143598,1,0,0:0:0:0:
34,260,143748,1,0,0:0:0:0:
285,36,143898,1,8,0:0:0:0:
182,355,144048,2,0,P|197:275|165:165,1,167.999994873047,0|0,0:0|0:0,0:0:0:0:
504,108,144348,1,0,0:0:0:0:
168,120,144498,5,8,0:0:0:0:
457,289,144648,1,0,0:0:0:0:
212,59,144798,1,0,0:0:0:0:
396,340,144948,1,0,0:0:0:0:
455,9,145098,1,8,0:0:0:0:
250,275,145248,1,0,0:0:0:0:
36,141,145398,5,0,0:0:0:0:
65,90,145473,1,0,0:0:0:0:
110,52,145548,1,0,0:0:0:0:
165,31,145623,1,0,0:0:0:0:
223,29,145698,5,8,0:0:0:0:
279,46,145773,1,0,0:0:0:0:
327,80,145848,1,0,0:0:0:0:
360,128,145923,1,0,0:0:0:0:
376,184,145998,5,0,0:0:0:0:
373,243,146073,1,0,0:0:0:0:
351,297,146148,1,0,0:0:0:0:
313,341,146223,1,0,0:0:0:0:
262,370,146298,5,8,0:0:0:0:
205,381,146373,1,0,0:0:0:0:
147,373,146448,1,0,0:0:0:0:
256,192,146598,12,0,148398,0:0:0:0:
239,228,159198,6,0,L|205:179,5,38.9999982147218,8|0|8|0|8|0,0:0|0:0|0:0|0:0|0:0|0:0,0:0:0:0:
289,171,159498,2,0,P|241:125|146:152,1,167.999994873047,8|0,0:0|0:0,0:0:0:0:
456,340,159798,5,0,0:0:0:0:
266,34,159948,1,0,0:0:0:0:
58,327,160098,1,8,0:0:0:0:
412,263,160248,1,0,0:0:0:0:
105,73,160398,1,0,0:0:0:0:
463,37,160548,1,0,0:0:0:0:
302,359,160698,5,8,0:0:0:0:
6,153,160848,1,0,0:0:0:0:
365,132,160998,1,0,0:0:0:0:
23,245,161148,1,0,0:0:0:0:
314,33,161298,1,8,0:0:0:0:
162,359,161448,1,0,0:0:0:0:
31,23,161598,1,0,0:0:0:0:
235,318,161748,1,0,0:0:0:0:
493,67,161898,5,8,0:0:0:0:
136,118,162048,1,0,0:0:0:0:
434,318,162198,1,0,0:0:0:0:
74,336,162348,1,0,0:0:0:0:
416,226,162498,1,8,0:0:0:0:
116,26,162648,1,0,0:0:0:0:
337,310,162798,1,0,0:0:0:0:
21,136,162948,1,0,0:0:0:0:
365,29,163098,5,8,0:0:0:0:
176,335,163248,1,0,0:0:0:0:
465,120,163398,1,0,0:0:0:0:
119,221,163548,1,0,0:0:0:0:
436,51,163698,1,8,0:0:0:0:
77,88,163848,1,0,0:0:0:0:
298,371,163998,1,0,0:0:0:0:
179,30,164148,1,0,0:0:0:0:
27,356,164298,5,8,0:0:0:0:
386,341,164448,1,0,0:0:0:0:
269,0,164598,1,0,0:0:0:0:
94,314,164748,1,0,0:0:0:0:
451,272,164898,1,8,0:0:0:0:
98,197,165048,1,0,0:0:0:0:
457,172,165198,1,0,0:0:0:0:
111,72,165348,1,0,0:0:0:0:
469,38,165498,5,8,0:0:0:0:
271,338,165648,1,0,0:0:0:0:
136,4,165798,1,0,0:0:0:0:
357,287,165948,1,0,0:0:0:0:
33,128,166098,1,8,0:0:0:0:
383,47,166248,1,0,0:0:0:0:
187,349,166398,1,0,0:0:0:0:
219,24,166548,1,0,0:0:0:0:
55,344,166698,5,8,0:0:0:0:
372,173,166848,1,0,0:0:0:0:
20,249,166998,1,0,0:0:0:0:
301,24,167148,1,0,0:0:0:0:
311,383,167298,1,8,0:0:0:0:
115,80,167448,1,0,0:0:0:0:
392,309,167598,1,0,0:0:0:0:
60,167,167748,1,0,0:0:0:0:
408,78,167898,5,8,0:0:0:0:
187,362,168048,1,0,0:0:0:0:
190,2,168198,1,0,0:0:0:0:
64,339,168348,1,0,0:0:0:0:
398,206,168498,1,8,0:0:0:0:
41,254,168648,1,0,0:0:0:0:
313,18,168798,1,0,0:0:0:0:
334,377,168948,1,0,0:0:0:0:
76,124,169098,1,8,0:0:0:0:
435,143,169248,1,0,0:0:0:0:
265,353,169398,5,0,0:0:0:0:
220,383,169473,1,0,0:0:0:0:
166,383,169548,1,0,0:0:0:0:
112,373,169623,1,0,0:0:0:0:
73,335,169698,1,8,0:0:0:0:
56,283,169773,1,0,0:0:0:0:
56,229,169848,1,0,0:0:0:0:
75,178,169923,1,0,0:0:0:0:
118,146,169998,1,0,0:0:0:0:
171,135,170073,1,0,0:0:0:0:
223,149,170148,1,0,0:0:0:0:
413,339,170298,6,0,P|479:277|497:155,1,180.000006866455,8|0,0:0|0:0,0:0:0:0:
167,52,170598,2,0,P|257:81|336:150,1,180.000006866455,0|0,0:0|0:0,0:0:0:0:
41,358,170898,1,8,0:0:0:0:
387,259,171048,1,0,0:0:0:0:
77,75,171198,1,0,0:0:0:0:
306,352,171348,1,0,0:0:0:0:
427,13,171498,5,8,0:0:0:0:
197,290,171648,1,0,0:0:0:0:
483,71,171798,1,0,0:0:0:0:
127,14,171948,1,0,0:0:0:0:
125,373,172098,1,8,0:0:0:0:
327,75,172248,1,0,0:0:0:0:
8,242,172398,1,0,0:0:0:0:
360,167,172548,1,0,0:0:0:0:
29,24,172698,5,8,0:0:0:0:
207,336,172848,1,0,0:0:0:0:
413,40,172998,1,0,0:0:0:0:
66,136,173148,1,0,0:0:0:0:
372,324,173298,1,8,0:0:0:0:
13,360,173448,1,0,0:0:0:0:
122,17,173598,1,0,0:0:0:0:
292,334,173748,1,0,0:0:0:0:
486,31,173898,5,8,0:0:0:0:
131,93,174048,1,0,0:0:0:0:
490,118,174198,1,0,0:0:0:0:
204,337,174348,1,0,0:0:0:0:
363,14,174498,1,8,0:0:0:0:
479,354,174648,1,0,0:0:0:0:
130,262,174798,1,0,0:0:0:0:
489,269,174948,1,0,0:0:0:0:
240,8,175098,5,8,0:0:0:0:
24,296,175248,1,0,0:0:0:0:
382,265,175398,1,0,0:0:0:0:
42,144,175548,1,0,0:0:0:0:
398,94,175698,1,8,0:0:0:0:
45,20,175848,1,0,0:0:0:0:
126,370,175998,1,0,0:0:0:0:
431,179,176148,1,0,0:0:0:0:
74,228,176298,5,8,0:0:0:0:
361,11,176448,1,0,0:0:0:0:
346,370,176598,1,0,0:0:0:0:
125,85,176748,1,0,0:0:0:0:
417,295,176898,1,8,0:0:0:0:
57,318,177048,1,0,0:0:0:0:
235,5,177198,1,0,0:0:0:0:
248,364,177348,1,0,0:0:0:0:
5,97,177498,5,8,0:0:0:0:
364,109,177648,1,0,0:0:0:0:
127,380,177798,1,0,0:0:0:0:
59,26,177948,1,0,0:0:0:0:
294,157,178098,1,8,0:0:0:0:
13,203,178248,1,0,0:0:0:0:
349,329,178398,1,0,0:0:0:0:
150,28,178548,1,0,0:0:0:0:
20,364,178698,1,8,0:0:0:0:
244,82,178848,6,0,P|424:59|232:334,1,779.999964294435,0|0,0:0|0:0,0:0:0:0:
7,194,179748,1,0,0:0:0:0:
276,194,179898,2,0,P|182:171|122:74,1,180.000006866455,8|0,0:0|0:0,0:0:0:0:
290,329,180198,2,0,P|218:264|110:238,1,180.000006866455,0|0,0:0|0:0,0:0:0:0:
329,46,180498,2,0,P|326:130|414:220,1,180.000006866455,8|0,0:0|0:0,0:0:0:0:
179,24,180798,1,0,0:0:0:0:
6,231,180948,2,0,P|46:315|150:357,1,180.000006866455,0|8,0:0|0:0,0:0:0:0:
391,341,181248,5,0,0:0:0:0:
417,334,181323,1,0,0:0:0:0:
441,323,181398,1,0,0:0:0:0:
458,302,181473,1,0,0:0:0:0:
465,276,181548,1,0,0:0:0:0:
465,249,181623,1,0,0:0:0:0:
455,223,181698,1,8,0:0:0:0:
438,201,181773,1,0,0:0:0:0:
415,186,181848,1,0,0:0:0:0:
389,178,181923,1,0,0:0:0:0:
362,184,181998,5,0,0:0:0:0:
340,200,182073,1,0,0:0:0:0:
317,215,182148,1,0,0:0:0:0:
290,219,182223,1,0,0:0:0:0:
263,213,182298,1,8,0:0:0:0:
241,196,182373,1,0,0:0:0:0:
229,171,182448,1,0,0:0:0:0:
233,144,182523,1,0,0:0:0:0:
249,122,182598,1,0,0:0:0:0:
486,20,182748,5,0,0:0:0:0:
127,49,182898,1,8,0:0:0:0:
371,312,183048,1,0,0:0:0:0:
11,321,183198,2,0,P|22:212|73:110,1,180.000006866455,0|0,0:0|0:0,0:0:0:0:
401,73,183498,2,0,P|447:136|473:253,1,180.000006866455,8|0,0:0|0:0,0:0:0:0:
120,149,183798,2,0,P|139:238|246:310,1,180.000006866455,0|0,0:0|0:0,0:0:0:0:
500,90,184098,1,8,0:0:0:0:
257,356,184248,2,0,P|308:272|400:220,1,180.000006866455,0|0,0:0|0:0,0:0:0:0:
86,8,184548,2,0,P|44:96|40:195,1,180.000006866455,0|8,0:0|0:0,0:0:0:0:
363,280,184998,6,0,P|379:189|326:107,1,180.000006866455,0|0,0:0|0:0,0:0:0:0:
58,347,185298,1,8,0:0:0:0:
417,353,185448,2,0,P|453:258|459:175,1,180.000006866455,0|0,0:0|0:0,0:0:0:0:
108,100,185748,2,0,P|100:197|141:281,1,180.000006866455,0|8,0:0|0:0,0:0:0:0:
485,32,186198,5,0,0:0:0:0:
434,106,186273,1,0,0:0:0:0:
355,150,186348,1,0,0:0:0:0:
17,23,186648,5,0,0:0:0:0:
3,111,186723,1,0,0:0:0:0:
44,190,186798,1,0,0:0:0:0:
350,379,187098,5,0,0:0:0:0:
360,289,187173,1,0,0:0:0:0:
307,215,187248,1,0,0:0:0:0:
166,5,187398,5,0,0:0:0:0:
125,338,187548,1,0,0:0:0:0:
460,349,187698,1,0,0:0:0:0:
365,26,187848,1,0,0:0:0:0:
108,117,187998,2,0,L|276:199,1,167.999994873047,0|0,0:0|0:0,0:0:0:0:
458,167,188298,2,0,P|465:232|334:273,1,167.999994873047,0|0,0:0|0:0,0:0:0:0:
55,252,188598,5,4,0:0:0:0:
286,8,188748,1,0,0:0:0:0:
337,340,188898,1,8,0:0:0:0:
189,38,189048,1,0,0:0:0:0:
59,347,189198,1,0,0:0:0:0:
301,114,189348,1,0,0:0:0:0:
504,381,189498,1,8,0:0:0:0:
201,235,189648,2,0,P|155:163|72:118,1,167.999994873047,0|0,0:0|0:0,0:0:0:0:
410,28,189948,2,0,P|374:108|365:210,1,167.999994873047,0|8,0:0|0:0,0:0:0:0:
69,19,190248,6,0,P|27:80|13:186,1,167.999994873047,0|0,0:0|0:0,0:0:0:0:
291,361,190548,1,0,0:0:0:0:
490,90,190698,1,8,0:0:0:0:
159,148,190848,2,0,P|166:88|250:22,1,167.999994873047,0|0,0:0|0:0,0:0:0:0:
509,235,191148,1,0,0:0:0:0:
189,337,191298,5,8,0:0:0:0:
310,23,191448,1,0,0:0:0:0:
467,319,191598,1,0,0:0:0:0:
137,255,191748,1,0,0:0:0:0:
398,44,191898,1,8,0:0:0:0:
62,64,192048,6,0,P|30:150|18:249,1,167.999994873047,0|0,0:0|0:0,0:0:0:0:
334,109,192348,2,0,P|252:92|169:45,1,167.999994873047,0|8,0:0|0:0,0:0:0:0:
365,333,192648,2,0,P|391:255|392:135,1,167.999994873047,0|0,0:0|0:0,0:0:0:0:
108,343,192948,2,0,P|196:318|263:264,1,167.999994873047,0|8,0:0|0:0,0:0:0:0:
477,19,193248,2,0,P|491:104|488:199,1,167.999994873047,0|0,0:0|0:0,0:0:0:0:
155,240,193548,1,0,0:0:0:0:
399,9,193698,6,0,P|308:22|230:45,1,167.999994873047,8|0,0:0|0:0,0:0:0:0:
29,308,193998,1,0,0:0:0:0:
357,379,194148,1,0,0:0:0:0:
117,143,194298,1,8,0:0:0:0:
450,98,194448,2,0,P|470:183|467:298,1,167.999994873047,0|0,0:0|0:0,0:0:0:0:
145,351,194748,2,0,P|94:278|72:172,1,167.999994873047,0|8,0:0|0:0,0:0:0:0:
394,310,195048,2,0,P|400:222|386:135,1,167.999994873047,0|0,0:0|0:0,0:0:0:0:
64,54,195348,2,0,P|154:60|236:130,1,167.999994873047,0|8,0:0|0:0,0:0:0:0:
466,327,195648,2,0,P|473:229|464:154,1,167.999994873047,0|0,0:0|0:0,0:0:0:0:
137,245,195948,5,0,0:0:0:0:
369,2,196098,2,0,P|305:80|281:165,1,167.999994873047,8|0,0:0|0:0,0:0:0:0:
37,371,196398,1,0,0:0:0:0:
157,57,196548,1,0,0:0:0:0:
345,335,196698,1,8,0:0:0:0:
38,196,196848,2,0,P|95:161|205:152,1,167.999994873047,0|0,0:0|0:0,0:0:0:0:
506,280,197148,2,0,P|483:199|413:126,1,167.999994873047,0|8,0:0|0:0,0:0:0:0:
94,85,197448,2,0,P|172:52|314:65,1,167.999994873047,0|0,0:0|0:0,0:0:0:0:
24,293,197748,2,0,P|106:246|161:142,1,167.999994873047,0|8,0:0|0:0,0:0:0:0:
445,32,198048,5,0,0:0:0:0:
439,343,198198,1,0,0:0:0:0:
337,47,198348,1,0,0:0:0:0:
178,315,198498,1,8,0:0:0:0:
470,205,198648,1,0,0:0:0:0:
192,62,198798,1,0,0:0:0:0:
318,347,198948,1,0,0:0:0:0:
63,166,199098,5,8,0:0:0:0:
373,135,199248,1,0,0:0:0:0:
93,273,199398,1,0,0:0:0:0:
263,11,199548,1,0,0:0:0:0:
400,291,199698,1,8,0:0:0:0:
141,116,199848,1,0,0:0:0:0:
447,57,199998,1,0,0:0:0:0:
251,299,200148,1,0,0:0:0:0:
63,49,200298,5,8,0:0:0:0:
37,359,200448,1,0,0:0:0:0:
227,111,200598,1,0,0:0:0:0:
483,289,200748,1,0,0:0:0:0:
353,5,200898,1,8,0:0:0:0:
171,258,201048,1,0,0:0:0:0:
468,162,201198,1,0,0:0:0:0:
187,24,201348,1,0,0:0:0:0:
119,328,201498,5,8,0:0:0:0:
357,126,201648,1,0,0:0:0:0:
59,218,201798,1,0,0:0:0:0:
371,218,201948,1,0,0:0:0:0:
76,68,202248,5,0,0:0:0:0:
267,314,202398,1,0,0:0:0:0:
276,2,202548,1,0,0:0:0:0:
154,289,202698,1,8,0:0:0:0:
341,39,202848,1,0,0:0:0:0:
460,327,202998,1,0,0:0:0:0:
191,167,203148,1,0,0:0:0:0:
473,35,203298,1,8,0:0:0:0:
359,325,203448,1,0,0:0:0:0:
196,58,203598,1,0,0:0:0:0:
478,189,203748,1,0,0:0:0:0:
218,361,203898,5,8,0:0:0:0:
80,80,204048,1,0,0:0:0:0:
387,130,204198,1,0,0:0:0:0:
83,201,204348,1,0,0:0:0:0:
323,2,204498,1,8,0:0:0:0:
167,272,204648,1,0,0:0:0:0:
477,298,204798,1,0,0:0:0:0:
202,150,204948,1,0,0:0:0:0:
485,20,205098,5,8,0:0:0:0:
381,314,205248,1,0,0:0:0:0:
70,347,205398,1,0,0:0:0:0:
296,132,205548,1,0,0:0:0:0:
6,16,205698,1,8,0:0:0:0:
171,280,205848,1,0,0:0:0:0:
452,146,205998,1,0,0:0:0:0:
158,40,206148,1,0,0:0:0:0:
269,331,206298,5,8,0:0:0:0:
377,38,206448,1,0,0:0:0:0:
94,169,206598,1,0,0:0:0:0:
400,226,206748,1,0,0:0:0:0:
89,256,206898,1,8,0:0:0:0:
268,1,207048,1,0,0:0:0:0:
356,300,207198,1,0,0:0:0:0:
47,346,207348,1,0,0:0:0:0:
357,375,207498,5,12,0:0:0:0:
357,63,207648,1,4,0:0:0:0:
45,63,207798,1,4,0:0:0:0:
191,338,207948,1,0,0:0:0:0:
163,27,208098,1,8,0:0:0:0:
297,308,208248,1,0,0:0:0:0:
469,47,208398,1,0,0:0:0:0:
242,261,208548,1,0,0:0:0:0:
62,5,208698,5,8,0:0:0:0:
116,312,208848,1,0,0:0:0:0:
271,41,208998,1,0,0:0:0:0:
447,298,209148,1,0,0:0:0:0:
207,97,209298,1,8,0:0:0:0:
31,355,209448,1,0,0:0:0:0:
316,229,209598,1,0,0:0:0:0:
31,100,209748,1,0,0:0:0:0:
341,127,209898,5,8,0:0:0:0:
46,231,210048,1,0,0:0:0:0:
333,351,210198,1,0,0:0:0:0:
463,67,210348,1,0,0:0:0:0:
258,302,210498,1,8,0:0:0:0:
109,27,210648,1,0,0:0:0:0:
132,338,210798,1,0,0:0:0:0:
408,193,210948,1,0,0:0:0:0:
97,161,211098,5,8,0:0:0:0:
373,15,211248,1,0,0:0:0:0:
458,314,211398,1,0,0:0:0:0:
215,117,211548,1,0,0:0:0:0:
26,365,211698,1,8,0:0:0:0:
5,53,211848,1,0,0:0:0:0:
202,294,211998,1,0,0:0:0:0:
439,92,212148,1,0,0:0:0:0:
130,45,212298,5,8,0:0:0:0:
69,117,212598,1,0,0:0:0:0:
370,190,212748,1,0,0:0:0:0:
69,273,212898,1,8,0:0:0:0:
310,75,213048,1,0,0:0:0:0:
461,347,213198,1,0,0:0:0:0:
217,151,213348,1,0,0:0:0:0:
495,11,213498,5,8,0:0:0:0:
269,226,213648,1,0,0:0:0:0:
28,26,213798,1,0,0:0:0:0:
173,302,213948,1,0,0:0:0:0:
410,99,214098,1,8,0:0:0:0:
105,166,214248,1,0,0:0:0:0:
345,365,214398,1,0,0:0:0:0:
233,73,214548,1,0,0:0:0:0:
479,263,214698,5,8,0:0:0:0:
188,377,214848,1,0,0:0:0:0:
129,70,214998,1,4,0:0:0:0:
26,364,215148,1,4,0:0:0:0:
324,272,215298,1,12,0:0:0:0:
61,103,215448,1,4,0:0:0:0:
361,186,215598,1,4,0:0:0:0:
58,262,215748,1,4,0:0:0:0:
331,111,215898,1,12,0:0:0:0:
113,334,216048,1,4,0:0:0:0:
240,49,216198,5,0,0:0:0:0:
289,26,216273,1,0,0:0:0:0:
343,20,216348,1,0,0:0:0:0:
397,29,216423,1,0,0:0:0:0:
445,54,216498,5,8,0:0:0:0:
484,92,216573,1,0,0:0:0:0:
510,140,216648,1,0,0:0:0:0:
512,193,216723,1,0,0:0:0:0:
512,247,216798,5,0,0:0:0:0:
494,297,216873,1,0,0:0:0:0:
459,339,216948,1,0,0:0:0:0:
414,369,217023,1,0,0:0:0:0:
361,383,217098,1,8,0:0:0:0:
346,203,217398,5,4,0:0:0:0:
