osu file format v14

[General]
AudioFilename: Helblinde - Above the Clouds Life Starts at 200bpm CD_132573705_soundcloud.mp3
AudioLeadIn: 0
PreviewTime: 85391
Countdown: 0
SampleSet: Soft
StackLeniency: 0.7
Mode: 0
LetterboxInBreaks: 1
StoryFireInFront: 0
EpilepsyWarning: 1
WidescreenStoryboard: 1

[Editor]
Bookmarks: 21402,42729,64062,82724,85396,106729,109391,122744,125396,129557,152077
DistanceSpacing: 1
BeatDivisor: 4
GridSize: 8
TimelineZoom: 1

[Metadata]
Title:Above the Clouds
TitleUnicode:Above the Clouds
Artist:Helblinde
ArtistUnicode:Helblinde
Creator:[ Rizen ]
Version:Timeless
Source:
Tags:moph remix electronic gajincore sweden life starts at 200bpm drum and bass dnb piano castle in the sky laputa theme remix ghibli
BeatmapID:785162
BeatmapSetID:344252

[Difficulty]
HPDrainRate:6
CircleSize:4.5
OverallDifficulty:8
ApproachRate:9
SliderMultiplier:1.6
SliderTickRate:1

[Events]
//Background and Video events
0,0,"background_normal.jpg",0,0
//Break Periods
//Storyboard Layer 0 (Background)
//Storyboard Layer 1 (Fail)
//Storyboard Layer 2 (Pass)
//Storyboard Layer 3 (Foreground)
Sprite,Foreground,Centre,"bubble.png",320,240 M,0,85387,,432,274 F,0,85387,85720,1 S,0,85387,86053,0.3192728,1.657454 F,0,85720,86053,1,0
Sprite,Foreground,Centre,"bubble.png",320,240 M,0,86387,,96,226 F,0,86387,86720,1 S,0,86387,87053,0.3192728,1.657454 F,0,86720,87053,1,0
Sprite,Foreground,Centre,"bubble.png",320,240 M,0,86720,,409,190 F,0,86720,87053,1 S,0,86720,87386,0.3192728,1.657454 F,0,87053,87386,1,0
Sprite,Foreground,Centre,"bubble.png",320,240 M,0,87387,,403,365 F,0,87387,87720,1 S,0,87387,88053,0.3192728,1.657454 F,0,87720,88053,1,0
Sprite,Foreground,Centre,"bubble.png",320,240 M,0,88053,,310,184 F,0,88053,88386,1 S,0,88053,88719,0.3192728,1.657454 F,0,88386,88719,1,0
Sprite,Foreground,Centre,"bubble.png",320,240 M,0,89387,,310,184 F,0,89387,89720,1 S,0,89387,90053,0.3192728,1.657454 F,0,89720,90053,1,0
Sprite,Foreground,Centre,"bubble.png",320,240 M,0,90053,,310,184 F,0,90053,90386,1 S,0,90053,90719,0.3192728,1.657454 F,0,90386,90719,1,0
Sprite,Foreground,Centre,"bubble.png",320,240 M,0,90720,,310,184 F,0,90720,91053,1 S,0,90720,91386,0.3192728,1.657454 F,0,91053,91386,1,0
Sprite,Foreground,Centre,"bubble.png",320,240 M,0,92053,,319,255 F,0,92053,92386,1 S,0,92053,92719,0.3192728,1.657454 F,0,92386,92719,1,0
Sprite,Foreground,Centre,"bubble.png",320,240 M,0,92720,,319,255 F,0,92720,93053,1 S,0,92720,93386,0.3192728,1.657454 F,0,93053,93386,1,0
Sprite,Foreground,Centre,"bubble.png",320,240 M,0,93387,,319,255 F,0,93387,93720,1 S,0,93387,94053,0.3192728,1.657454 F,0,93720,94053,1,0
Sprite,Foreground,Centre,"bubble.png",320,240 M,0,94720,,405,213 F,0,94720,95053,1 S,0,94720,95386,0.3192728,1.657454 F,0,95053,95386,1,0
Sprite,Foreground,Centre,"bubble.png",320,240 M,0,95387,,198,354 F,0,95387,95720,1 S,0,95387,96053,0.3192728,1.657454 F,0,95720,96053,1,0
Sprite,Foreground,Centre,"bubble.png",320,240 M,0,96053,,135,285 F,0,96053,96386,1 S,0,96053,96719,0.3192728,1.657454 F,0,96386,96719,1,0
Sprite,Foreground,Centre,"bubble.png",320,240 M,0,96387,,204,230 F,0,96387,96720,1 S,0,96387,97053,0.3192728,1.657454 F,0,96720,97053,1,0
Sprite,Foreground,Centre,"bubble.png",320,240 M,0,96720,,285,206 F,0,96720,97053,1 S,0,96720,97386,0.3192728,1.657454 F,0,97053,97386,1,0
Sprite,Foreground,Centre,"bubble.png",320,240 M,0,97387,,423,184 F,0,97387,97720,1 S,0,97387,98053,0.3192728,1.657454 F,0,97720,98053,1,0
Sprite,Foreground,Centre,"bubble.png",320,240 M,0,97720,,362,290 F,0,97720,98053,1 S,0,97720,98386,0.3192728,1.657454 F,0,98053,98386,1,0
Sprite,Foreground,Centre,"bubble.png",320,240 M,0,98053,,348,414 F,0,98053,98386,1 S,0,98053,98719,0.3192728,1.657454 F,0,98386,98719,1,0
Sprite,Foreground,Centre,"bubble.png",320,240 M,0,98720,,364,294 F,0,98720,99053,1 S,0,98720,99386,0.3192728,1.657454 F,0,99053,99386,1,0
Sprite,Foreground,Centre,"bubble.png",320,240 M,0,99720,,259,218 F,0,99720,100053,1 S,0,99720,100386,0.3192728,1.657454 F,0,100053,100386,1,0
Sprite,Foreground,Centre,"bubble.png",320,240 M,0,100053,,449,123 F,0,100053,100386,1 S,0,100053,100719,0.3192728,1.657454 F,0,100386,100719,1,0
Sprite,Foreground,Centre,"bubble.png",320,240 M,0,100720,,365,290 F,0,100720,101053,1 S,0,100720,101386,0.3192728,1.657454 F,0,101053,101386,1,0
Sprite,Foreground,Centre,"bubble.png",320,240 M,0,101387,,346,200 F,0,101387,101720,1 S,0,101387,102053,0.3192728,1.657454 F,0,101720,102053,1,0
Sprite,Foreground,Centre,"bubble.png",320,240 M,0,102720,,206,198 F,0,102720,103053,1 S,0,102720,103386,0.3192728,1.657454 F,0,103053,103386,1,0
Sprite,Foreground,Centre,"bubble.png",320,240 M,0,102053,,206,198 F,0,102053,102386,1 S,0,102053,102719,0.3192728,1.657454 F,0,102386,102719,1,0
Sprite,Foreground,Centre,"bubble.png",320,240 M,0,105387,,344,177 F,0,105387,105720,1 S,0,105387,106053,0.3192728,1.657454 F,0,105720,106053,1,0
Sprite,Foreground,Centre,"bubble.png",320,240 M,0,104053,,448,436 F,0,104053,104386,1 S,0,104053,104719,0.3192728,1.657454 F,0,104386,104719,1,0
Sprite,Foreground,Centre,"bubble.png",320,240 M,0,106720,,183,204 F,0,106720,107053,1 S,0,106720,107386,0.3192728,1.657454 F,0,107053,107386,1,0
Sprite,Foreground,Centre,"mapper1.png",320,240 S,0,5387,,0.6916363 F,0,5387,5720,0,1 M,0,5387,10053,264,249,309,267 F,0,5720,9387,1 F,0,9387,10053,1,0
//Storyboard Sound Samples

[TimingPoints]
54,333.333333333333,4,2,1,65,1,0
21387,-100,4,2,1,65,0,0
40053,-133.333333333333,4,2,1,55,0,0
42387,-133.333333333333,4,2,1,5,0,0
42720,-133.333333333333,4,2,1,35,0,0
44970,-133.333333333333,4,2,1,25,0,0
45387,-133.333333333333,4,2,1,35,0,0
64053,-100,4,2,1,65,0,0
82720,-100,4,2,1,55,0,0
83387,-100,4,2,1,70,0,0
84053,-100,4,2,1,75,0,0
84720,-100,4,2,1,80,0,0
85387,-83.3333333333333,4,2,1,80,0,1
106720,-83.3333333333333,4,2,1,80,0,0
109387,-83.3333333333333,4,2,1,80,0,1
125387,-83.3333333333333,4,2,1,80,0,0

[Colours]
Combo1 : 255,121,121
Combo2 : 14,172,248
Combo3 : 22,133,133
Combo4 : 180,89,187

[HitObjects]
256,192,18720,12,0,21053,0:0:0:0:
136,244,21387,5,4,0:0:0:0:
186,182,21553,1,0,0:0:0:0:
161,105,21720,1,8,0:0:0:0:
205,196,21887,1,0,0:0:0:0:
224,209,21970,1,0,0:0:0:0:
243,222,22053,2,0,P|281:229|319:216,1,80,2|0,0:0|0:0,0:0:0:0:
275,71,22387,2,0,P|266:110|274:149,1,80,10|0,0:0|0:0,0:0:0:0:
399,226,22720,5,2,0:0:0:0:
449,163,22887,1,0,0:0:0:0:
411,92,23053,1,8,0:0:0:0:
319,216,23220,1,0,0:0:0:0:
306,236,23303,1,0,0:0:0:0:
295,257,23387,2,0,B|258:359|258:359|292:321,1,160,2|8,0:0|0:0,0:0:0:0:
365,151,24053,6,0,P|352:115|320:91,1,80,6|0,0:0|0:0,0:0:0:0:
232,66,24387,1,8,0:0:0:0:
214,179,24553,1,0,0:0:0:0:
214,179,24637,1,0,0:0:0:0:
213,178,24720,2,0,P|252:182|287:164,1,80,2|0,0:0|0:0,0:0:0:0:
232,66,25053,1,10,0:0:0:0:
122,44,25220,1,0,0:0:0:0:
81,186,25387,6,0,P|89:224|111:257,1,80,2|0,0:0|0:0,0:0:0:0:
186,304,25720,1,8,0:0:0:0:
270,280,25887,1,0,0:0:0:0:
293,274,25970,1,0,0:0:0:0:
316,270,26053,2,0,B|405:284,1,80,2|0,0:0|0:0,0:0:0:0:
478,169,26387,1,10,0:0:0:0:
468,248,26553,1,0,0:0:0:0:
417,116,26720,6,0,P|347:80|268:88,1,160,4|0,0:0|0:0,0:0:0:0:
213,177,27220,1,0,0:0:0:0:
213,177,27303,1,0,0:0:0:0:
211,177,27387,2,0,P|166:113|178:36,1,160,2|2,0:0|0:0,0:0:0:0:
268,88,27887,1,0,0:0:0:0:
268,88,27970,1,0,0:0:0:0:
268,88,28053,6,0,P|298:113|313:150,1,80,2|0,0:0|0:0,0:0:0:0:
285,250,28387,1,8,0:0:0:0:
154,222,28720,6,0,L|183:250,3,40,2|0|0|0,0:0|0:0|0:0|0:0,0:0:0:0:
206,259,29053,2,0,P|245:261|284:250,1,80,10|0,0:0|0:0,0:0:0:0:
358,198,29387,5,6,0:0:0:0:
339,120,29553,1,0,0:0:0:0:
281,175,29720,1,8,0:0:0:0:
380,207,29887,1,0,0:0:0:0:
401,216,29970,1,0,0:0:0:0:
422,225,30053,1,2,0:0:0:0:
444,234,30137,1,0,0:0:0:0:
465,244,30220,1,0,0:0:0:0:
484,321,30387,2,0,L|462:232,1,80,10|0,0:0|0:0,0:0:0:0:
358,198,30720,6,0,L|336:109,1,80,2|0,0:0|0:0,0:0:0:0:
263,93,31053,1,10,0:0:0:0:
303,257,31220,1,0,0:0:0:0:
414,147,31387,1,2,0:0:0:0:
203,148,31553,1,0,0:0:0:0:
243,311,31720,1,8,0:0:0:0:
358,198,31887,1,0,0:0:0:0:
143,204,32053,6,0,L|68:230,1,80,6|0,0:0|0:0,0:0:0:0:
31,302,32387,1,10,0:0:0:0:
73,206,32553,1,0,0:0:0:0:
81,183,32637,1,0,0:0:0:0:
89,160,32720,2,0,P|86:119|69:84,1,80,2|0,0:0|0:0,0:0:0:0:
183,72,33053,2,0,P|185:112|203:148,1,80,10|0,0:0|0:0,0:0:0:0:
270,204,33387,5,0,0:0:0:0:
358,198,33553,1,0,0:0:0:0:
202,147,33720,1,8,0:0:0:0:
380,206,33887,1,0,0:0:0:0:
402,215,33970,1,0,0:0:0:0:
423,225,34053,2,0,P|440:260|442:300,1,80,2|0,0:0|0:0,0:0:0:0:
294,373,34387,1,8,0:0:0:0:
344,290,34553,1,0,0:0:0:0:
368,126,34720,6,0,L|380:206,1,80,14|0,0:0|0:0,0:0:0:0:
285,96,35053,1,0,0:0:0:0:
202,147,35220,1,0,0:0:0:0:
183,162,35303,1,0,0:0:0:0:
163,176,35387,2,0,P|124:183|86:169,1,80,2|0,0:0|0:0,0:0:0:0:
66,55,35720,1,2,0:0:0:0:
140,25,35887,1,0,0:0:0:0:
140,25,35970,1,0,0:0:0:0:
140,25,36053,6,0,P|147:63|132:100,1,80
163,176,36387,2,0,P|201:168|239:182,1,80,10|0,0:0|0:0,0:0:0:0:
292,241,36720,1,0,0:0:0:0:
306,259,36803,1,0,0:0:0:0:
321,277,36887,1,0,0:0:0:0:
336,294,36970,1,0,0:0:0:0:
352,311,37053,2,0,P|371:281|375:237,1,80,10|0,0:0|0:0,0:0:0:0:
261,109,37387,6,0,P|242:139|238:183,1,80,6|0,0:0|0:0,0:0:0:0:
368,219,37720,2,0,P|349:185|316:163,1,80,10|0,0:0|0:0,0:0:0:0:
217,260,38053,2,0,P|256:260|291:242,1,80,2|0,0:0|0:0,0:0:0:0:
159,204,38387,1,8,0:0:0:0:
217,260,38553,1,0,0:0:0:0:
369,220,38720,6,0,P|379:178|382:133,1,80,6|0,0:0|0:0,0:0:0:0:
217,260,39053,2,0,P|207:302|204:347,1,80,8|0,0:0|0:0,0:0:0:0:
284,313,39387,1,2,0:0:0:0:
159,204,39553,1,0,0:0:0:0:
80,220,39720,1,10,0:0:0:0:
135,277,39887,1,0,0:0:0:0:
292,238,40053,6,0,P|309:189|299:111,1,120.000004577637,2|0,0:0|0:0,0:0:0:0:
212,42,40720,1,2,0:0:0:0:
256,192,40803,12,0,42387,0:0:0:0:
214,290,42720,5,0,0:0:0:0:
155,185,43053,1,0,0:0:0:0:
224,87,43387,1,2,0:0:0:0:
104,75,43720,1,0,0:0:0:0:
155,185,44053,2,0,P|209:208|268:201,1,120.000004577637,2|0,0:0|0:0,0:0:0:0:
305,180,44553,2,0,P|296:254|324:323,1,150.000005722046
444,232,45387,6,0,P|473:181|476:122,1,120.000004577637,0|0,0:0|0:0,0:0:0:0:
427,12,46053,1,2,0:0:0:0:
91,73,47387,1,0,0:0:0:0:
198,287,48053,6,0,P|191:227|168:172,1,120.000004577637,0|0,0:0|0:0,0:0:0:0:
91,73,48720,1,2,0:0:0:0:
362,309,49720,2,0,P|317:197|305:78,1,240.000009155274,0|0,0:0|0:0,0:0:0:0:
199,21,50720,6,0,P|191:80|168:135,1,120.000004577637,0|0,0:0|0:0,0:0:0:0:
60,188,51387,1,2,0:0:0:0:
203,327,53387,5,0,0:0:0:0:
287,242,53720,1,0,0:0:0:0:
202,157,54054,1,2,0:0:0:0:
286,72,54720,5,0,0:0:0:0:
202,157,55053,1,0,0:0:0:0:
116,71,55387,1,2,0:0:0:0:
286,72,56053,6,0,P|323:117|320:201,2,120.000004577637,2|0|0,0:0|0:0|0:0,0:0:0:0:
202,157,57053,1,0,0:0:0:0:
248,267,57387,1,2,0:0:0:0:
202,157,58720,5,0,0:0:0:0:
117,72,59053,1,0,0:0:0:0:
3,111,59387,1,2,0:0:0:0:
93,189,60053,2,0,P|178:265|288:234,2,240.000009155274,0|0|2,0:0|0:0|0:0,0:0:0:0:
256,192,61720,12,0,63720,0:0:0:0:
121,152,64053,6,0,P|159:163|199:164,1,80,2|0,1:0|0:0,0:0:0:0:
301,139,64387,1,8,0:0:0:0:
390,191,64553,1,0,0:0:0:0:
390,191,64720,2,0,P|404:227|402:268,1,80
271,330,65053,1,10,0:0:0:0:
326,241,65220,1,0,0:0:0:0:
300,138,65387,6,0,P|264:124|224:126,1,80,2|0,0:0|0:0,0:0:0:0:
390,191,65720,2,0,P|426:205|466:203,1,80,0|0,1:0|0:0,0:0:0:0:
443,101,66053,1,2,0:0:0:0:
224,126,66387,1,2,1:0:0:0:
172,36,66553,1,2,0:0:0:0:
164,200,66720,6,0,P|197:221|236:223,1,80,2|0,1:0|0:0,0:0:0:0:
300,138,67053,1,10,0:0:0:0:
236,223,67220,1,0,0:0:0:0:
403,157,67387,2,0,P|404:118|387:82,1,80
300,138,67720,1,8,0:0:0:0:
387,82,67887,1,0,0:0:0:0:
192,108,68053,6,0,L|116:80,1,80,2|0,0:0|0:0,0:0:0:0:
103,184,68387,2,0,L|26:211,1,80,10|0,0:0|0:0,0:0:0:0:
83,298,68720,2,0,L|42:367,1,80,2|0,0:0|0:0,0:0:0:0:
192,108,69053,1,2,1:0:0:0:
103,184,69220,1,0,0:0:0:0:
300,138,69387,6,0,L|380:146,1,80,2|0,1:0|0:0,0:0:0:0:
448,223,69720,1,8,0:0:0:0:
395,313,69887,1,0,0:0:0:0:
300,138,70053,2,0,P|292:100|307:54,1,80,2|0,0:0|0:0,0:0:0:0:
379,145,70387,2,0,P|367:182|339:210,1,80,10|0,0:0|0:0,0:0:0:0:
135,256,70887,5,0,0:0:0:0:
134,255,71053,2,0,P|115:221|113:182,1,80,10|0,0:0|0:0,0:0:0:0:
148,50,71387,2,0,P|167:84|169:123,1,80,2|0,0:0|0:0,0:0:0:0:
270,198,71720,2,8,P|232:209|194:199,1,80,2|0,1:0|0:0,0:0:0:0:
262,75,72053,6,8,P|299:63|337:73,1,80,2|0,1:0|0:0,0:0:0:0:
434,115,72387,1,10,0:0:0:0:
300,135,72553,1,0,0:0:0:0:
472,174,72720,2,8,P|434:185|396:175,1,80,2|0,0:0|0:0,0:0:0:0:
432,39,73053,2,8,P|443:76|433:114,1,80,10|0,0:0|0:0,0:0:0:0:
397,251,73387,6,8,P|385:213|395:175,1,80,2|0,1:0|0:0,0:0:0:0:
368,78,73720,1,8,0:0:0:0:
283,24,73887,1,0,0:0:0:0:
181,45,74053,2,0,L|100:62,1,80,2|0,1:0|0:0,0:0:0:0:
67,230,74387,2,0,L|51:152,1,80,10|0,0:0|0:0,0:0:0:0:
282,124,74720,6,0,L|360:107,1,80,2|0,1:0|0:0,0:0:0:0:
420,196,75053,2,0,L|341:185,1,80,10|0,0:0|0:0,0:0:0:0:
438,274,75387,2,0,P|490:233|478:142,1,160,2|8,0:0|0:0,0:0:0:0:
402,119,75887,1,0,0:0:0:0:
341,185,76053,6,0,P|342:226|355:265,1,80,2|0,1:0|0:0,0:0:0:0:
282,124,76387,2,0,P|281:83|268:44,1,80,0|0,1:0|0:0,0:0:0:0:
204,95,76720,2,0,P|130:113|71:63,1,160,2|10,0:0|0:0,0:0:0:0:
149,32,77220,1,0,0:0:0:0:
205,95,77387,6,0,L|191:173,1,80,2|0,1:0|0:0,0:0:0:0:
198,342,77720,1,0,1:0:0:0:
134,261,77887,1,0,0:0:0:0:
301,344,78053,2,0,P|338:356|378:351,1,80,2|0,0:0|0:0,0:0:0:0:
474,265,78387,1,10,0:0:0:0:
347,271,78553,1,0,0:0:0:0:
320,56,78887,5,0,0:0:0:0:
402,56,79053,2,0,P|440:67|468:95,1,80,10|0,0:0|0:0,0:0:0:0:
362,209,79387,2,0,P|368:169|394:140,1,80,2|0,0:0|0:0,0:0:0:0:
468,95,79720,1,0,1:0:0:0:
468,95,79803,1,0,0:0:0:0:
468,95,79887,1,0,0:0:0:0:
320,56,80053,5,2,1:0:0:0:
243,79,80220,1,0,0:0:0:0:
168,109,80387,2,0,P|163:70|176:33,1,80,10|0,0:0|0:0,0:0:0:0:
233,158,80720,2,0,P|204:183|165:192,1,80,2|0,0:0|0:0,0:0:0:0:
116,61,81053,1,10,0:0:0:0:
263,11,81220,1,0,0:0:0:0:
377,121,81387,5,2,0:0:0:0:
449,262,81553,1,0,0:0:0:0:
449,261,81720,2,0,P|455:222|450:183,1,80,8|0,0:0|0:0,0:0:0:0:
356,218,82053,1,2,1:0:0:0:
468,95,82387,1,2,1:0:0:0:
281,153,82720,5,0,1:0:0:0:
209,219,82887,1,0,1:0:0:0:
196,123,83053,1,0,1:0:0:0:
297,246,83220,1,0,1:0:0:0:
123,185,83387,5,0,1:0:0:0:
268,61,83553,1,0,1:0:0:0:
297,246,83720,1,0,1:0:0:0:
268,61,83887,1,0,1:0:0:0:
355,92,84053,5,0,1:0:0:0:
297,246,84220,1,0,1:0:0:0:
123,185,84387,1,0,1:0:0:0:
177,30,84553,1,0,1:0:0:0:
123,185,84720,2,0,B|99:77|99:77|139:110,1,160
369,204,85387,5,4,0:0:0:0:
463,178,85553,1,2,0:0:0:0:
369,204,85720,2,0,P|322:199|278:180,1,95.9999970703126,0|0,0:0|0:0,0:0:0:0:
231,96,86053,2,0,P|186:77|139:72,1,95.9999970703126,0|0,0:0|0:0,0:0:0:0:
33,155,86387,1,4,0:0:0:0:
162,190,86553,1,0,0:0:0:0:
344,116,86720,6,0,P|390:112|431:87,1,95.9999970703126,4|0,0:0|0:0,0:0:0:0:
297,33,87053,1,0,0:0:0:0:
278,166,87220,1,0,0:0:0:0:
341,296,87387,2,0,P|321:339|283:368,1,95.9999970703126,4|0,0:0|0:0,0:0:0:0:
152,336,87720,1,8,0:0:0:0:
268,268,87887,1,0,0:0:0:0:
248,109,88053,6,0,L|376:117,1,95.9999970703126,4|0,0:0|0:0,0:0:0:0:
369,204,88387,2,0,L|240:195,1,95.9999970703126,8|0,0:0|0:0,0:0:0:0:
341,296,88720,1,0,0:0:0:0:
369,204,88887,1,0,0:0:0:0:
397,112,89053,2,0,L|388:-16,1,95.9999970703126,8|0,0:0|0:0,0:0:0:0:
248,109,89387,6,0,L|152:114,1,95.9999970703126,4|0,0:0|0:0,0:0:0:0:
110,202,89720,1,8,0:0:0:0:
173,284,89887,1,0,0:0:0:0:
248,109,90054,2,0,L|254:205,1,95.9999970703126,4|2,0:0|0:0,0:0:0:0:
173,284,90387,1,10,0:0:0:0:
110,202,90553,1,2,0:0:0:0:
248,109,90720,6,0,L|343:103,1,95.9999970703126,4|0,0:0|0:0,0:0:0:0:
481,33,91053,1,8,0:0:0:0:
347,218,91387,1,0,0:0:0:0:
258,182,91553,1,0,0:0:0:0:
183,242,91720,2,0,L|66:257,1,95.9999970703126,8|0,0:0|0:0,0:0:0:0:
258,182,92053,6,0,L|273:65,1,95.9999970703126,4|0,0:0|0:0,0:0:0:0:
194,26,92387,2,0,L|181:121,1,95.9999970703126,8|0,0:0|0:0,0:0:0:0:
258,182,92720,1,4,0:0:0:0:
341,141,92887,1,0,0:0:0:0:
181,121,93053,2,0,L|85:108,1,95.9999970703126,8|0,0:0|0:0,0:0:0:0:
258,182,93387,5,4,0:0:0:0:
258,182,93553,1,0,0:0:0:0:
429,168,93720,2,0,P|433:120|410:79,2,95.9999970703126,8|0|0,0:0|0:0|0:0,0:0:0:0:
347,218,94220,1,0,0:0:0:0:
258,182,94387,2,0,P|246:136|262:91,1,95.9999970703126,8|0,0:0|0:0,0:0:0:0:
341,141,94720,5,4,0:0:0:0:
341,141,94887,1,0,0:0:0:0:
258,182,95053,2,0,L|157:195,1,95.9999970703126,8|0,0:0|0:0,0:0:0:0:
135,282,95387,1,4,0:0:0:0:
237,363,95554,1,0,0:0:0:0:
237,363,95721,2,0,L|225:268,1,95.9999970703126,10|2,0:0|0:0,0:0:0:0:
70,211,96053,6,0,L|58:116,1,95.9999970703126,4|0,0:0|0:0,0:0:0:0:
145,156,96387,2,0,L|166:62,1,95.9999970703126,12|0,0:0|0:0,0:0:0:0:
231,133,96720,2,0,L|282:52,1,95.9999970703126,4|0,0:0|0:0,0:0:0:0:
403,21,97053,1,10,0:0:0:0:
283,52,97220,1,2,0:0:0:0:
360,108,97387,6,0,L|482:126,1,95.9999970703126,4|0,0:0|0:0,0:0:0:0:
301,217,97720,2,0,L|396:198,1,95.9999970703126,12|0,0:0|0:0,0:0:0:0:
284,339,98053,2,0,L|366:289,1,95.9999970703126,4|0,0:0|0:0,0:0:0:0:
486,254,98387,1,10,0:0:0:0:
366,288,98553,1,2,0:0:0:0:
301,217,98720,6,0,L|203:237,1,95.9999970703126,4|0,0:0|0:0,0:0:0:0:
117,200,99053,1,8,0:0:0:0:
110,103,99220,1,0,0:0:0:0:
24,59,99387,1,0,0:0:0:0:
197,144,99553,1,0,0:0:0:0:
197,144,99720,2,0,P|243:133|283:108,1,95.9999970703126,4|0,0:0|0:0,0:0:0:0:
390,48,100053,6,0,P|364:88|354:134,1,95.9999970703126,4|0,0:0|0:0,0:0:0:0:
415,209,100387,1,8,0:0:0:0:
454,122,100553,1,0,0:0:0:0:
301,217,100720,2,0,P|253:206|213:179,1,95.9999970703126,4|0,0:0|0:0,0:0:0:0:
202,44,101053,1,10,0:0:0:0:
145,123,101220,1,2,0:0:0:0:
286,125,101387,6,0,P|292:76|281:29,1,95.9999970703126,4|0,0:0|0:0,0:0:0:0:
214,180,101720,2,0,P|207:228|218:275,1,95.9999970703126,8|0,0:0|0:0,0:0:0:0:
145,123,102053,1,4,0:0:0:0:
69,64,102220,1,0,0:0:0:0:
69,64,102387,2,0,P|55:111|58:158,1,95.9999970703126,8|0,0:0|0:0,0:0:0:0:
145,123,102720,6,0,P|158:75|155:28,1,95.9999970703126,4|0,0:0|0:0,0:0:0:0:
58,157,103053,1,8,0:0:0:0:
127,224,103220,1,0,0:0:0:0:
214,180,103387,2,0,L|315:191,1,95.9999970703126,2|0,0:0|0:0,0:0:0:0:
348,278,103720,2,0,L|253:268,1,95.9999970703126,10|0,0:0|0:0,0:0:0:0:
386,364,104053,6,0,P|437:288|402:202,1,191.999994140625,4|8,0:0|0:0,0:0:0:0:
309,190,104553,1,0,0:0:0:0:
214,180,104720,2,0,P|180:94|231:17,1,191.999994140625,0|8,0:0|0:0,0:0:0:0:
327,19,105220,1,0,0:0:0:0:
283,104,105387,6,0,L|57:86,1,191.999994140625,4|8,0:0|0:0,0:0:0:0:
16,148,105887,1,0,0:0:0:0:
89,292,106053,5,2,0:0:0:0:
214,180,106220,1,2,0:0:0:0:
52,206,106387,1,10,0:0:0:0:
197,278,106553,1,2,0:0:0:0:
120,133,106720,1,6,0:0:0:0:
362,283,108387,5,8,0:0:0:0:
224,180,108720,1,2,0:0:0:0:
224,180,108887,1,2,0:0:0:0:
283,104,109053,1,10,0:0:0:0:
283,104,109220,1,2,0:0:0:0:
135,163,109387,6,0,P|142:222|171:253,1,95.9999970703126,4|0,0:0|0:0,0:0:0:0:
259,266,109720,1,8,0:0:0:0:
318,193,109887,1,0,0:0:0:0:
195,95,110053,2,0,P|140:71|99:81,1,95.9999970703126,0|0,0:0|0:0,0:0:0:0:
41,150,110387,1,8,0:0:0:0:
78,237,110553,1,0,0:0:0:0:
204,341,110720,6,0,P|295:353|351:281,1,191.999994140625,4|8,0:0|0:0,0:0:0:0:
318,193,111220,1,0,0:0:0:0:
434,48,111387,1,6,0:0:0:0:
434,48,111553,1,2,0:0:0:0:
343,94,111720,2,0,P|334:47|339:0,1,95.9999970703126,10|2,0:0|0:0,0:0:0:0:
431,149,112053,6,0,P|439:226|433:253,1,95.9999970703126,4|0,0:0|0:0,0:0:0:0:
254,202,112387,2,0,P|301:193|349:197,1,95.9999970703126,8|0,0:0|0:0,0:0:0:0:
435,243,112720,1,0,0:0:0:0:
444,340,112887,1,0,0:0:0:0:
349,197,113053,2,0,L|340:101,1,95.9999970703126,8|0,0:0|0:0,0:0:0:0:
257,29,113387,6,0,P|211:24|161:32,1,95.9999970703126,4|0,0:0|0:0,0:0:0:0:
104,109,113720,1,8,0:0:0:0:
136,199,113887,1,0,0:0:0:0:
349,197,114053,2,0,P|301:193|256:207,1,95.9999970703126,2|0,0:0|0:0,0:0:0:0:
94,285,114387,2,0,P|141:288|187:274,1,95.9999970703126,10|2,0:0|0:0,0:0:0:0:
310,281,114720,6,0,L|318:376,1,95.9999970703126,4|0,0:0|0:0,0:0:0:0:
136,199,115053,2,0,L|128:104,1,95.9999970703126,8|0,0:0|0:0,0:0:0:0:
284,12,115387,1,4,0:0:0:0:
376,35,115553,1,0,0:0:0:0:
376,35,115720,2,0,P|398:107|395:138,1,95.9999970703126,8|0,0:0|0:0,0:0:0:0:
309,280,116053,6,0,P|287:208|290:177,1,95.9999970703126,4|0,0:0|0:0,0:0:0:0:
376,35,116387,1,8,0:0:0:0:
307,101,116553,1,0,0:0:0:0:
216,136,116720,2,0,P|169:143|122:134,1,95.9999970703126,6|2,0:0|0:0,0:0:0:0:
50,71,117053,1,10,0:0:0:0:
50,71,117220,1,2,0:0:0:0:
173,42,117387,5,4,0:0:0:0:
212,192,117553,1,0,0:0:0:0:
364,178,117720,2,0,L|404:77,1,95.9999970703126,12|0,0:0|0:0,0:0:0:0:
488,257,118053,2,0,L|453:168,1,95.9999970703126,4|0,0:0|0:0,0:0:0:0:
307,101,118387,1,10,0:0:0:0:
216,136,118553,1,2,0:0:0:0:
102,103,118720,6,0,L|64:191,1,95.9999970703126,4|0,0:0|0:0,0:0:0:0:
134,286,119053,2,0,L|172:198,1,95.9999970703126,12|0,0:0|0:0,0:0:0:0:
270,190,119387,2,0,L|307:101,1,95.9999970703126,4|0,0:0|0:0,0:0:0:0:
250,22,119720,1,10,0:0:0:0:
211,111,119887,1,2,0:0:0:0:
234,277,120053,6,0,P|281:283|324:263,1,95.9999970703126,4|0,0:0|0:0,0:0:0:0:
363,175,120387,1,8,0:0:0:0:
250,22,120720,1,0,0:0:0:0:
211,111,120887,1,0,0:0:0:0:
211,111,121053,2,0,P|182:148|172:195,1,95.9999970703126,8|0,0:0|0:0,0:0:0:0:
234,277,121387,6,0,L|346:264,1,95.9999970703126,4|0,0:0|0:0,0:0:0:0:
363,175,121720,2,0,L|251:188,1,95.9999970703126,8|0,0:0|0:0,0:0:0:0:
172,198,122053,1,0,0:0:0:0:
72,135,122220,1,0,0:0:0:0:
72,135,122387,2,0,P|64:65|75:30,1,95.9999970703126,8|0,0:0|0:0,0:0:0:0:
197,85,122720,6,0,P|244:91|291:83,1,95.9999970703126,2|0,2:0|2:0,0:0:0:0:
512,234,123053,2,0,P|464:240|417:232,1,95.9999970703126,0|0,2:0|2:0,0:0:0:0:
366,28,123387,2,0,P|382:77|374:121,1,95.9999970703126,2|0,2:0|2:0,0:0:0:0:
253,293,123720,2,0,P|237:244|245:200,1,95.9999970703126,0|0,2:0|2:0,0:0:0:0:
417,232,124053,6,0,P|368:248|324:240,1,95.9999970703126,2|0,2:0|2:0,0:0:0:0:
105,93,124387,2,0,P|149:77|196:84,1,95.9999970703126,0|0,2:0|2:0,0:0:0:0:
253,293,124720,2,0,P|217:261|200:217,1,95.9999970703126,2|0,2:0|2:0,0:0:0:0:
360,72,125053,2,0,P|350:118|320:155,1,95.9999970703126,2|0,2:0|2:0,0:0:0:0:
200,217,125387,5,4,0:0:0:0:
256,192,125470,12,4,128053,0:1:0:0:
