osu file format v14

[General]
AudioFilename: Helblinde - Above the Clouds Life Starts at 200bpm CD_132573705_soundcloud.mp3
AudioLeadIn: 0
PreviewTime: 85391
Countdown: 0
SampleSet: Soft
StackLeniency: 0.4
Mode: 0
LetterboxInBreaks: 1
StoryFireInFront: 0
EpilepsyWarning: 1
WidescreenStoryboard: 1

[Editor]
Bookmarks: 21402,42729,64062,82724,85396,106729,109391,122744,125396
DistanceSpacing: 1
BeatDivisor: 2
GridSize: 32
TimelineZoom: 1

[Metadata]
Title:Above the Clouds
TitleUnicode:Above the Clouds
Artist:Helblinde
ArtistUnicode:Helblinde
Creator:[ Rizen ]
Version:Normal
Source:
Tags:moph remix electronic gajincore sweden life starts at 200bpm drum and bass dnb piano castle in the sky laputa theme remix ghibli
BeatmapID:764573
BeatmapSetID:344252

[Difficulty]
HPDrainRate:4
CircleSize:3
OverallDifficulty:4
ApproachRate:5
SliderMultiplier:0.8
SliderTickRate:1

[Events]
//Background and Video events
0,0,"background_normal.jpg",0,0
//Break Periods
//Storyboard Layer 0 (Background)
//Storyboard Layer 1 (Fail)
//Storyboard Layer 2 (Pass)
//Storyboard Layer 3 (Foreground)
Sprite,Foreground,Centre,"bubble.png",320,240 M,0,85387,,191,206 F,0,85387,85720,1 S,0,85387,86053,0.3192728,1.657454 F,0,85720,86053,1,0
Sprite,Foreground,Centre,"bubble.png",320,240 M,0,86387,,290,402 F,0,86387,86720,1 S,0,86387,87053,0.3192728,1.657454 F,0,86720,87053,1,0
Sprite,Foreground,Centre,"bubble.png",320,240 M,0,86720,,365,379 F,0,86720,87053,1 S,0,86720,87386,0.3192728,1.657454 F,0,87053,87386,1,0
Sprite,Foreground,Centre,"bubble.png",320,240 M,0,87387,,471,260 F,0,87387,87720,1 S,0,87387,88053,0.3192728,1.657454 F,0,87720,88053,1,0
Sprite,Foreground,Centre,"bubble.png",320,240 M,0,88053,,555,277 F,0,88053,88386,1 S,0,88053,88719,0.3192728,1.657454 F,0,88386,88719,1,0
Sprite,Foreground,Centre,"bubble.png",320,240 M,0,89387,,273,367 F,0,89387,89720,1 S,0,89387,90053,0.3192728,1.657454 F,0,89720,90053,1,0
Sprite,Foreground,Centre,"bubble.png",320,240 M,0,90053,,118,339 F,0,90053,90386,1 S,0,90053,90719,0.3192728,1.657454 F,0,90386,90719,1,0
Sprite,Foreground,Centre,"bubble.png",320,240 M,0,90720,,137,185 F,0,90720,91053,1 S,0,90720,91386,0.3192728,1.657454 F,0,91053,91386,1,0
Sprite,Foreground,Centre,"bubble.png",320,240 M,0,92053,,408,218 F,0,92053,92386,1 S,0,92053,92719,0.3192728,1.657454 F,0,92386,92719,1,0
Sprite,Foreground,Centre,"bubble.png",320,240 M,0,92720,,354,358 F,0,92720,93053,1 S,0,92720,93386,0.3192728,1.657454 F,0,93053,93386,1,0
Sprite,Foreground,Centre,"bubble.png",320,240 M,0,93387,,200,346 F,0,93387,93720,1 S,0,93387,94053,0.3192728,1.657454 F,0,93720,94053,1,0
Sprite,Foreground,Centre,"bubble.png",320,240 M,0,94720,,195,125 F,0,94720,95053,1 S,0,94720,95386,0.3192728,1.657454 F,0,95053,95386,1,0
Sprite,Foreground,Centre,"bubble.png",320,240 M,0,95387,,301,207 F,0,95387,95720,1 S,0,95387,96053,0.3192728,1.657454 F,0,95720,96053,1,0
Sprite,Foreground,Centre,"bubble.png",320,240 M,0,96053,,462,201 F,0,96053,96386,1 S,0,96053,96719,0.3192728,1.657454 F,0,96386,96719,1,0
Sprite,Foreground,Centre,"bubble.png",320,240 M,0,96387,,488,121 F,0,96387,96720,1 S,0,96387,97053,0.3192728,1.657454 F,0,96720,97053,1,0
Sprite,Foreground,Centre,"bubble.png",320,240 M,0,96720,,408,135 F,0,96720,97053,1 S,0,96720,97386,0.3192728,1.657454 F,0,97053,97386,1,0
Sprite,Foreground,Centre,"bubble.png",320,240 M,0,97387,,513,254 F,0,97387,97720,1 S,0,97387,98053,0.3192728,1.657454 F,0,97720,98053,1,0
Sprite,Foreground,Centre,"bubble.png",320,240 M,0,97720,,434,269 F,0,97720,98053,1 S,0,97720,98386,0.3192728,1.657454 F,0,98053,98386,1,0
Sprite,Foreground,Centre,"bubble.png",320,240 M,0,98053,,485,329 F,0,98053,98386,1 S,0,98053,98719,0.3192728,1.657454 F,0,98386,98719,1,0
Sprite,Foreground,Centre,"bubble.png",320,240 M,0,98720,,334,383 F,0,98720,99053,1 S,0,98720,99386,0.3192728,1.657454 F,0,99053,99386,1,0
Sprite,Foreground,Centre,"bubble.png",320,240 M,0,99720,,252,257 F,0,99720,100053,1 S,0,99720,100386,0.3192728,1.657454 F,0,100053,100386,1,0
Sprite,Foreground,Centre,"bubble.png",320,240 M,0,100053,,280,181 F,0,100053,100386,1 S,0,100053,100719,0.3192728,1.657454 F,0,100386,100719,1,0
Sprite,Foreground,Centre,"bubble.png",320,240 M,0,100720,,154,96 F,0,100720,101053,1 S,0,100720,101386,0.3192728,1.657454 F,0,101053,101386,1,0
Sprite,Foreground,Centre,"bubble.png",320,240 M,0,101387,,236,117 F,0,101387,101720,1 S,0,101387,102053,0.3192728,1.657454 F,0,101720,102053,1,0
Sprite,Foreground,Centre,"bubble.png",320,240 M,0,102053,,360,174 F,0,102053,102386,1 S,0,102053,102719,0.3192728,1.657454 F,0,102386,102719,1,0
Sprite,Foreground,Centre,"bubble.png",320,240 M,0,102720,,501,228 F,0,102720,103053,1 S,0,102720,103386,0.3192728,1.657454 F,0,103053,103386,1,0
Sprite,Foreground,Centre,"bubble.png",320,240 M,0,104053,,338,351 F,0,104053,104386,1 S,0,104053,104719,0.3192728,1.657454 F,0,104386,104719,1,0
Sprite,Foreground,Centre,"bubble.png",320,240 M,0,105387,,154,216 F,0,105387,105720,1 S,0,105387,106053,0.3192728,1.657454 F,0,105720,106053,1,0
Sprite,Foreground,Centre,"bubble.png",320,240 M,0,106720,,394,107 F,0,106720,107053,1 S,0,106720,107386,0.3192728,1.657454 F,0,107053,107386,1,0
Sprite,Foreground,Centre,"mapper1.png",320,240 S,0,5387,,0.6916363 F,0,5387,5720,0,1 M,0,5387,10053,264,249,309,267 F,0,5720,9387,1 F,0,9387,10053,1,0
//Storyboard Sound Samples

[TimingPoints]
54,333.333333333333,4,2,1,65,1,0
21387,-100,4,2,1,65,0,0
41387,-100,4,2,1,5,0,0
42720,-100,4,2,1,35,0,0
45053,-100,4,2,1,25,0,0
45387,-100,4,2,1,35,0,0
64053,-100,4,2,1,65,0,0
82720,-100,4,2,1,55,0,0
83387,-100,4,2,1,70,0,0
84053,-100,4,2,1,75,0,0
84720,-100,4,2,1,80,0,0
85387,-100,4,2,1,80,0,1
106720,-100,4,2,1,80,0,0
109387,-100,4,2,1,80,0,1
125387,-100,4,2,1,80,0,0

[Colours]
Combo1 : 255,121,121
Combo2 : 14,172,248
Combo3 : 22,133,133
Combo4 : 180,89,187

[HitObjects]
256,192,18720,12,0,20053,0:0:0:0:
321,274,21387,6,0,P|362:208|334:137,1,160,4|2,0:0|0:0,0:0:0:0:
260,106,22387,1,10,0:0:0:0:
181,118,22720,2,0,L|102:104,1,80,2|8,0:0|0:0,0:0:0:0:
88,183,23387,2,0,L|166:196,1,80,2|8,0:0|0:0,0:0:0:0:
243,220,24053,6,0,P|266:252|279:290,2,80,6|8|2,0:0|0:0|0:0,0:0:0:0:
166,196,25053,1,10,0:0:0:0:
88,183,25387,2,0,P|64:150|51:112,2,80,2|8|2,0:0|0:0|0:0,0:0:0:0:
116,257,26387,1,10,0:0:0:0:
187,292,26720,6,0,P|263:305|321:254,1,160,4|2,0:0|0:0,0:0:0:0:
332,175,27720,1,2,0:0:0:0:
375,107,28053,2,0,P|338:95|299:101,1,80,2|8,0:0|0:0,0:0:0:0:
252,166,28720,2,0,L|181:157,2,40,2|0|10,0:0|0:0|0:0,0:0:0:0:
332,175,29387,5,6,0:0:0:0:
396,222,29720,1,8,0:0:0:0:
321,253,30053,2,0,L|241:258,1,80,2|10,0:0|0:0,0:0:0:0:
161,261,30720,1,2,0:0:0:0:
124,189,31053,1,10,0:0:0:0:
178,129,31387,2,0,P|213:112|233:78,1,80,2|8,0:0|0:0,0:0:0:0:
308,51,32053,6,0,P|342:70|381:67,1,80,6|10,0:0|0:0,0:0:0:0:
460,80,32720,1,2,0:0:0:0:
470,159,33053,2,0,P|430:227|444:306,1,160,10|8,0:0|0:0,0:0:0:0:
385,359,34053,2,0,P|348:347|308:349,1,80,2|8,0:0|0:0,0:0:0:0:
230,366,34720,5,6,0:0:0:0:
179,304,35053,1,0,0:0:0:0:
218,233,35387,2,0,P|235:198|237:158,1,80,2|2,0:0|0:0,0:0:0:0:
205,85,36053,2,0,L|220:48,2,40,0|0|10,0:0|0:0|0:0,0:0:0:0:
130,115,36720,2,0,P|105:146|96:185,1,80,0|10,0:0|0:0,0:0:0:0:
138,253,37387,6,0,P|182:317|273:345,1,160,6|2,0:0|0:0,0:0:0:0:
336,338,38387,1,8,0:0:0:0:
403,294,38720,2,0,P|431:267|448:231,1,80,6|8,0:0|0:0,0:0:0:0:
383,185,39387,2,0,P|355:213|338:249,1,80,2|10,0:0|0:0,0:0:0:0:
256,192,40053,12,0,41387,0:0:0:0:
325,232,42720,5,0,0:0:0:0:
256,192,43053,1,0,0:0:0:0:
235,115,43387,2,0,P|198:135|178:172,1,80,2|0,0:0|0:0,0:0:0:0:
199,245,44053,2,0,P|307:248|312:140,1,240,2|0,0:0|0:0,0:0:0:0:
267,72,45387,6,0,P|235:47|198:32,1,80
119,11,46053,1,2,0:0:0:0:
422,113,47387,1,0,0:0:0:0:
327,242,48053,6,0,P|290:254|251:248,1,80,0|0,0:0|0:0,0:0:0:0:
187,200,48720,1,2,0:0:0:0:
396,311,49720,2,0,P|424:238|390:168,1,160
313,151,50720,6,0,P|273:158|234:151,1,80,0|0,0:0|0:0,0:0:0:0:
163,114,51387,1,2,0:0:0:0:
87,324,53387,6,0,P|62:274|74:216,2,80,0|0|2,0:0|0:0|0:0,0:0:0:0:
103,164,54720,2,0,P|64:155|24:162,2,80,0|0|2,0:0|0:0|0:0,0:0:0:0:
251,222,56053,6,0,P|265:146|224:75,1,160,2|0,0:0|0:0,0:0:0:0:
151,48,57053,1,0,0:0:0:0:
76,76,57387,1,2,0:0:0:0:
394,48,58720,5,0,0:0:0:0:
469,75,59053,1,0,0:0:0:0:
498,149,59387,1,2,0:0:0:0:
346,204,60053,2,0,P|272:230|199:203,1,160,0|0,0:0|0:0,0:0:0:0:
256,192,61387,12,0,62720,0:0:0:0:
380,275,64053,6,0,L|299:289,1,80,2|8,1:0|0:0,0:0:0:0:
229,253,64720,1,0,0:0:0:0:
158,216,65053,1,10,0:0:0:0:
79,198,65387,2,0,P|84:248|108:280,1,80,2|0,0:0|1:0,0:0:0:0:
171,307,66053,1,2,0:0:0:0:
229,253,66387,2,0,L|268:245,1,40,2|2,1:0|0:0,0:0:0:0:
302,225,66720,6,0,P|278:194|274:155,1,80,2|10,1:0|0:0,0:0:0:0:
326,94,67387,2,0,P|350:125|354:164,1,80,2|8,0:0|0:0,0:0:0:0:
274,155,68053,1,2,0:0:0:0:
197,179,68387,1,10,0:0:0:0:
124,146,68720,2,0,L|104:56,1,80,2|2,0:0|1:0,0:0:0:0:
27,77,69387,6,0,L|47:167,1,80,2|8,1:0|0:0,0:0:0:0:
92,218,70053,1,2,0:0:0:0:
163,253,70387,2,0,P|238:267|265:339,1,160,10|10,0:0|0:0,0:0:0:0:
185,332,71387,1,2,0:0:0:0:
108,310,71720,1,2,1:0:0:0:
87,232,72053,5,2,1:0:0:0:
163,252,72387,2,0,P|200:239|230:213,1,80,10|2,0:0|0:0,0:0:0:0:
257,138,73053,1,10,0:0:0:0:
322,184,73387,2,0,P|361:184|399:170,1,80,2|8,1:0|0:0,0:0:0:0:
442,103,74053,1,2,1:0:0:0:
395,37,74387,1,10,0:0:0:0:
316,27,74720,6,0,L|231:40,1,80,2|10,1:0|0:0,0:0:0:0:
164,74,75387,2,0,P|162:113|152:152,1,80,2|8,0:0|0:0,0:0:0:0:
142,231,76053,2,0,P|173:255|212:264,1,80,2|0,1:0|1:0,0:0:0:0:
292,272,76720,1,2,0:0:0:0:
366,300,77053,1,10,0:0:0:0:
446,294,77387,6,0,P|453:256|447:216,1,80,2|0,1:0|1:0,0:0:0:0:
413,145,78053,1,2,0:0:0:0:
340,110,78387,2,0,P|256:106|182:70,1,160,10|10,0:0|0:0,0:0:0:0:
132,16,79387,1,2,0:0:0:0:
107,92,79720,1,0,1:0:0:0:
162,149,80053,6,0,P|185:224|178:303,1,160,2|2,1:0|0:0,0:0:0:0:
107,340,81053,1,10,0:0:0:0:
177,304,81387,2,0,P|216:298|256:298,1,80,2|8,0:0|0:0,0:0:0:0:
331,327,82053,1,2,1:0:0:0:
400,286,82387,1,2,1:0:0:0:
425,210,82720,6,0,B|418:131|484:70|484:70|410:17|334:54|334:54|269:125|182:62,1,480,0|0,1:0|0:0,0:0:0:0:
108,58,85053,1,0,0:0:0:0:
124,136,85387,6,0,P|148:167|162:205,1,80,4|0,0:0|0:0,0:0:0:0:
162,284,86053,1,0,0:0:0:0:
227,330,86387,1,4,0:0:0:0:
303,305,86720,2,0,P|335:282|353:247,1,80,4|0,0:0|0:0,0:0:0:0:
410,188,87387,2,0,P|427:152|460:130,1,80,4|8,0:0|0:0,0:0:0:0:
488,205,88053,5,4,0:0:0:0:
433,265,88387,1,8,0:0:0:0:
354,248,88720,2,0,L|268:254,1,80,0|8,0:0|0:0,0:0:0:0:
207,297,89387,2,0,L|121:303,1,80,4|8,0:0|0:0,0:0:0:0:
58,261,90053,2,0,P|45:223|44:183,1,80,4|10,0:0|0:0,0:0:0:0:
74,109,90720,6,0,P|150:88|229:99,1,160,4|0,0:0|0:0,0:0:0:0:
307,78,91720,1,8,0:0:0:0:
344,147,92053,2,0,P|332:184|337:224,1,80,4|8,0:0|0:0,0:0:0:0:
289,288,92720,2,0,P|248:296|207:284,1,80,4|8,0:0|0:0,0:0:0:0:
137,255,93387,6,0,L|97:248,2,40,4|0|8,0:0|0:0|0:0,0:0:0:0:
175,184,94053,1,0,0:0:0:0:
117,129,94387,1,8,0:0:0:0:
135,52,94720,2,0,P|174:53|242:68,1,80,4|8,0:0|0:0,0:0:0:0:
242,134,95387,2,0,P|281:140|321:141,1,80,4|10,0:0|0:0,0:0:0:0:
399,125,96053,5,4,0:0:0:0:
426,49,96387,1,12,0:0:0:0:
347,63,96720,1,4,0:0:0:0:
451,184,97387,5,4,0:0:0:0:
372,197,97720,1,12,0:0:0:0:
423,258,98053,1,4,0:0:0:0:
273,314,98720,6,0,P|196:318|153:254,1,160,4|0,0:0|0:0,0:0:0:0:
190,183,99720,1,4,0:0:0:0:
216,106,100053,2,0,P|202:69|173:43,1,80,4|8,0:0|0:0,0:0:0:0:
95,24,100720,2,0,L|54:27,2,40,4|0|10,0:0|0:0|0:0,0:0:0:0:
173,43,101387,6,0,L|252:38,1,80,4|8,0:0|0:0,0:0:0:0:
299,102,102053,2,0,L|378:106,1,80,4|8,0:0|0:0,0:0:0:0:
440,157,102720,2,0,L|444:236,1,80,4|8,0:0|0:0,0:0:0:0:
418,312,103387,1,2,0:0:0:0:
340,333,103720,1,10,0:0:0:0:
278,279,104053,6,0,P|225:222|148:206,1,160,4|0,0:0|0:0,0:0:0:0:
69,220,105053,1,8,0:0:0:0:
96,143,105387,2,0,P|121:113|133:75,1,80,4|8,0:0|0:0,0:0:0:0:
202,35,106053,1,2,0:0:0:0:
267,81,106387,1,10,0:0:0:0:
331,33,106720,1,6,0:0:0:0:
289,175,108387,5,8,0:0:0:0:
370,167,108720,2,0,L|379:205,2,40,2|2|10,0:0|0:0|0:0,0:0:0:0:
442,131,109387,6,0,P|462:97|464:57,1,80,4|8,0:0|0:0,0:0:0:0:
386,72,110053,2,0,P|352:51|312:49,1,80,0|8,0:0|0:0,0:0:0:0:
256,105,110720,2,0,P|216:102|182:81,1,80,4|8,0:0|0:0,0:0:0:0:
126,25,111387,1,6,0:0:0:0:
49,48,111720,1,10,0:0:0:0:
37,127,112053,6,0,P|42:166|58:203,1,80,4|8,0:0|0:0,0:0:0:0:
138,196,112720,2,0,P|156:231|184:260,1,80,0|8,0:0|0:0,0:0:0:0:
263,247,113387,2,0,P|292:273|328:291,1,80,4|8,0:0|0:0,0:0:0:0:
408,291,114053,1,2,0:0:0:0:
474,245,114387,2,0,L|481:204,1,40,10|2,0:0|0:0,0:0:0:0:
466,166,114720,6,0,P|435:142|397:129,1,80,4|8,0:0|0:0,0:0:0:0:
324,164,115387,2,0,P|283:164|245:152,1,80,4|8,0:0|0:0,0:0:0:0:
188,97,116053,2,0,L|180:57,2,40,4|0|8,0:0|0:0|0:0,0:0:0:0:
134,157,116720,1,6,0:0:0:0:
80,216,117053,2,0,L|40:223,2,40,10|2|0,0:0|0:0|0:0,0:0:0:0:
120,285,117720,5,12,0:0:0:0:
199,281,118053,1,4,0:0:0:0:
358,298,118720,5,4,0:0:0:0:
437,292,119053,1,12,0:0:0:0:
480,224,119387,1,4,0:0:0:0:
441,154,119720,2,0,L|446:105,1,40,10|2,0:0|0:0,0:0:0:0:
430,75,120053,6,0,P|395:57|356:49,1,80,4|8,0:0|0:0,0:0:0:0:
276,49,120720,2,0,L|243:-1,2,40,0|0|8,0:0|0:0|0:0,0:0:0:0:
315,118,121387,2,0,P|312:157|300:195,1,80,4|8,0:0|0:0,0:0:0:0:
220,195,122053,2,0,P|207:157|205:117,1,80,0|8,0:0|0:0,0:0:0:0:
179,41,122720,6,0,P|144:65|122:111,1,80,2|0,2:0|2:0,0:0:0:0:
52,64,123387,2,0,P|44:105|61:153,1,80,2|0,2:0|2:0,0:0:0:0:
124,177,124053,2,0,P|133:215|125:254,2,80,2|0|2,2:0|2:0|2:0,0:0:0:0:
53,141,125053,1,2,2:0:0:0:
48,221,125387,5,4,0:0:0:0:
256,192,125553,12,4,128053,0:1:0:0:
