osu file format v7

[General]
AudioFilename: Seitokai No Ichizon - op(TV Size).mp3
AudioLeadIn: 1996
PreviewTime: 53441
Countdown: 1
SampleSet: Soft
StackLeniency: 0.3
Mode: 0
LetterboxInBreaks: 1

[Editor]
DistanceSpacing: 0.790000021457672
BeatDivisor: 4
GridSize: 8

[Metadata]
Title:Treasure (TV Size)
Artist:Hekiyou Gakuen Seitokai
Creator:Licnect
Version:Insane
Source:Seitokai no Ichizon
Tags:Anime blissfulyoshi

[Difficulty]
HPDrainRate:6
CircleSize:4
OverallDifficulty:8
SliderMultiplier:1.4
SliderTickRate:2

[Events]
//Background and Video events
0,0,"01.jpg"
Video,0,"Seitokai No Ichizon - op(TV Size) - movie.AVI"
//Break Periods
//Storyboard Layer 0 (Background)
//Storyboard Layer 1 (Fail)
//Storyboard Layer 2 (Pass)
//Storyboard Layer 3 (Foreground)
//Storyboard Sound Samples
//Background Colour Transformations
3,100,163,162,255

[TimingPoints]
990,368.098159509202,4,2,1,60,1,0
40368,-200,4,2,1,60,0,0
45803,-100,4,2,1,60,0,0
53441,-100,4,2,1,60,0,1
79208,-100,4,2,1,60,0,0
82337,-100,4,2,1,40,0,0
82613,-100,4,2,1,61,0,0
82981,-100,4,2,1,79,0,0
85926,-100,4,2,1,50,0,0
88135,-100,4,2,1,50,0,0
88503,-100,4,2,1,40,0,0
88779,-100,4,2,1,30,0,0
89055,-100,4,2,1,20,0,0
89331,-100,4,2,1,10,0,0
89515,-100,4,2,1,0,0,0

[Colours]
Combo1 : 248,7,68
Combo2 : 244,11,134
Combo3 : 156,55,200

[HitObjects]
176,56,437,1,0
104,128,621,1,2
176,200,805,1,0
248,128,990,1,2
248,128,1082,1,0
248,128,1174,2,0,B|328:128|336:176|336:232,1,140,0|0
304,288,1726,1,0
224,312,1910,1,0
144,288,2094,1,2
64,248,2278,5,0
64,248,2370,1,0
64,248,2462,1,2
264,344,2830,1,2
464,248,3198,1,2
264,144,3566,1,2
440,192,3934,5,2
440,192,4026,1,0
440,192,4118,1,0
360,192,4302,2,0,B|328:208|288:192,1,70,2|0
208,184,4670,1,2
120,184,4855,1,0
160,256,5039,1,2
160,256,5223,2,0,B|160:344,2,70,0|2|0
160,176,5775,1,2
160,96,5959,1,0
160,96,6051,1,0
160,96,6143,1,2
368,128,6511,5,2
320,272,6879,5,2
280,240,6971,1,0
248,224,7063,1,0
208,240,7155,1,0
176,272,7247,1,2
96,224,7431,1,0
96,184,7523,1,0
96,144,7615,1,8
168,80,7799,5,8
168,80,7891,1,0
168,80,7983,1,8
248,80,8167,1,4
256,192,8351,12,0,11296
256,192,11664,5,8
104,88,12216,1,0
48,152,12401,1,8
104,216,12585,1,0
160,152,12769,1,0
240,152,12953,1,0
320,152,13137,1,8
400,152,13321,1,0
376,232,13505,2,0,B|304:248|216:224,1,140,0|8
238,232,13965,1,0
238,232,14057,1,0
232,312,14241,6,0,B|264:304|304:312,2,70,0|0|8
152,312,14793,2,0,B|136:240|152:168,1,140
150,173,15253,1,0
150,173,15345,1,8
150,173,15437,1,0
150,173,15529,1,4
312,128,15897,5,8
376,176,16082,1,8
376,176,16174,1,0
368,256,16358,1,8
368,256,16450,1,8
288,264,16634,1,8
208,256,16818,1,4
88,160,17186,5,2
184,56,17370,1,0
328,56,17554,1,2
432,160,17738,1,0
256,192,17922,1,2
256,328,18106,1,0
72,272,18474,5,2
72,272,18566,1,0
72,272,18658,2,0,B|136:272|176:272,1,70,0|2
168,192,19026,1,0
152,112,19210,1,2
216,56,19394,2,0,B|288:32|368:64,1,140,2|0
424,104,19947,1,0
368,168,20131,6,0,B|408:184|456:168,2,70
376,248,20683,2,0,B|336:264|280:240,2,70
376,248,21235,1,0
488,336,21419,2,0,B|376:248,1,140,2|0
376,248,21971,1,0
328,320,22155,1,2
296,248,22339,2,0,B|296:104,1,140,2|8
280,32,22891,1,0
200,56,23075,1,0
200,56,23167,1,0
200,56,23259,1,0
152,128,23443,1,8
64,120,23628,5,0
64,120,23812,2,0,B|48:200|64:272,1,140,2|8
144,304,24364,1,0
144,304,24548,2,0,B|224:296|304:312,1,140,2|8
360,256,25100,1,0
360,256,25284,2,0,B|376:192|360:112,1,140,2|8
328,40,25836,1,0
240,40,26020,5,0
160,48,26204,2,0,B|128:88|176:136,1,70,0|8
157,112,26572,1,0
232,128,26756,1,0
232,208,26940,2,0,B|272:200|320:216,2,70,0|8|0
232,288,27493,1,2
232,288,27585,1,0
232,288,27677,2,0,B|312:296|376:288,1,140,2|2
368,216,28229,2,0,B|368:168|304:152,1,70,8|0
304,88,28597,2,0,B|264:64|216:104,1,70,8|0
112,80,28965,5,2
56,160,29149,1,0
168,160,29333,1,2
112,80,29517,1,0
56,160,29701,1,2
112,240,29885,1,0
112,336,30069,1,0
216,336,30253,5,2
216,264,30437,1,0
216,336,30621,2,0,B|296:352|384:336,1,140,2|0
328,256,31174,2,0,B|368:280|424:240,2,70,0|0|8
240,256,31726,1,0
152,224,31910,6,0,B|96:192|48:112,1,140,0|8
80,48,32462,1,0
160,64,32646,2,0,B|240:48|320:56,1,140,0|8
256,128,33198,2,0,B|296:160|344:112,2,70,0|0|0
256,128,33750,1,8
176,128,33934,1,0
256,128,34118,2,0,B|240:208|256:272,1,140,0|8
256,264,34578,1,0
256,264,34670,1,0
256,264,34855,6,0,B|330:286|402:262,2,140,0|8|0
168,272,35775,2,0,B|120:288|80:256,1,70,0|8
96,192,36143,2,0,B|120:152|80:112,2,70,0|0|0
96,272,36695,6,0,B|176:288|256:272,1,140,8|0
312,280,37247,1,0
392,272,37431,1,8
392,272,37523,1,0
392,272,37615,1,0
392,272,37799,6,0,B|440:184|368:120,1,140,2|2
320,216,38351,1,0
248,144,38536,2,0,B|208:216|256:288,1,140,2|2
248,360,39088,2,0,B|296:376|344:352,2,70,4|0|0
160,352,39640,1,2
160,352,39824,2,0,B|128:280|168:192,1,140
168,88,40376,5,8
224,200,40560,1,8
304,104,40744,1,4
456,192,41112,6,0,B|408:160|344:192,1,105
88,112,42032,2,0,B|144:88|200:112,1,105,0|2
440,184,42953,2,0,B|384:160|328:184,1,105
320,264,43689,2,0,B|344:336|256:304,1,105,2|2
192,264,44425,2,0,B|192:336|272:304,1,105,10|2
440,280,45345,1,0
440,192,45529,1,8
440,192,45621,1,0
440,192,45713,1,0
440,112,45897,6,0,B|472:80|432:40,2,70,0|0|8
440,112,46450,1,0
360,112,46634,2,0,B|280:96|216:120,1,140,8|8
96,120,47186,1,0
96,232,47370,1,8
200,176,47554,1,0
200,64,47738,1,8
312,120,47922,1,0
312,120,48106,6,0,B|288:176|320:264,1,140,8|8
352,328,48658,2,0,B|392:352|448:320,2,70,0|8|0
272,328,49210,2,0,B|192:344|112:336,1,140,8|8
136,336,49670,1,0
136,336,49763,1,0
56,344,49947,2,0,B|24:296|56:256,1,70,8|0
112,232,50315,1,8
40,200,50499,2,2,B|16:168|56:120,1,70,0|8
256,192,51051,12,0,52891
336,112,53443,5,0
256,168,53628,1,8
336,112,53812,1,0
256,48,53996,2,0,B|176:32|88:56,1,140,0|8
116,49,54548,1,0
40,120,54732,1,0
120,192,54916,1,0
192,120,55100,1,8
192,120,55284,6,2,B|176:208|192:264,1,140
192,256,55836,2,0,B|264:216|304:136,1,140,10|0
291,159,56296,1,0
291,159,56388,1,0
208,160,56572,1,8
88,88,56940,2,0,B|184:56|248:104,1,140,0|8
336,144,57493,1,0
424,224,57677,2,0,B|352:184|264:232,1,140,0|8
216,296,58229,1,0
96,304,58413,2,0,B|64:216|112:152,1,140,0|8
101,168,58965,5,4
104,80,59149,1,0
192,80,59333,1,0
280,80,59517,1,8
280,168,59701,1,0
280,256,59885,2,0,B|376:256,2,70,0|0|8
200,216,60437,1,0
200,216,60529,1,0
200,216,60621,1,0
136,160,60805,6,0,B|104:184|56:152,2,70,0|8|0
160,152,61266,1,0
184,144,61358,1,0
208,136,61450,1,0
232,128,61542,1,0
256,120,61634,1,0
280,112,61726,1,8
304,104,61818,1,0
328,96,61910,1,0
352,88,62002,1,0
376,80,62094,1,0
376,160,62278,6,0,B|416:232|368:312,1,140
304,304,62830,2,0,B|272:312|232:304,1,70,0|0
160,304,63198,2,0,B|136:264|184:224,2,70,8|0|0
80,304,63750,2,0,B|56:232|88:160,1,140
96,144,64210,1,0
112,120,64302,1,8
176,64,64486,1,8
96,48,64670,1,4
176,64,64855,1,8
288,112,65223,6,0,B|344:128|376:104,2,70,0|8|0
256,184,65775,2,0,B|208:200|160:168,2,70,2|0|8
336,184,66327,1,0
416,184,66511,1,2
408,264,66695,2,0,B|448:288|488:256,2,70,0|8|0
408,264,67155,1,0
408,264,67247,1,2
328,264,67431,6,0,B|296:280|240:256,1,70,0|2
240,328,67799,2,0,B|264:304|256:240,1,70,0|2
280,200,68167,2,0,B|248:224|264:288,1,70,0|2
259,263,68536,2,0,B|208:272|184:248,2,70,0|8|0
336,264,69088,2,0,B|376:288|424:240,2,70,0|0|8
256,264,69640,6,0,B|192:280|96:256,1,140
112,176,70192,1,8
168,32,70376,1,0
224,176,70560,1,8
280,32,70744,1,12
440,128,71112,5,2
440,208,71296,1,8
440,128,71480,1,2
440,208,71664,2,0,B|352:216|288:208,1,140,0|8
224,208,72216,1,0
144,208,72401,1,0
144,208,72493,1,0
144,208,72585,2,0,B|104:232|48:192,2,70,0|8|0
144,128,73137,5,0
224,128,73321,1,0
224,208,73505,2,0,B|264:232|304:200,2,70,8|0|0
144,208,74057,1,0
144,208,74149,1,0
144,208,74241,2,0,B|224:224|312:200,1,140,8|0
320,208,74701,1,0
352,208,74793,1,8
448,208,74977,5,8
384,136,75161,1,8
296,80,75345,1,8
216,136,75529,1,8
152,208,75713,1,0
80,136,75897,1,8
152,56,76082,6,2,B|256:40|296:64,1,140,0|2
432,168,76634,2,0,B|360:192|272:168,1,140
293,173,77186,1,8
208,176,77370,1,0
208,256,77554,1,0
208,256,77646,1,0
208,256,77738,2,0,B|112:280|56:256,1,140
69,260,78290,5,8
24,168,78474,1,8
72,72,78658,1,8
120,168,78842,1,12
256,56,79210,5,0
256,56,79394,1,8
256,136,79578,1,0
256,136,79763,2,0,B|304:152|352:128,2,70,0|0|8
256,216,80315,1,0
256,216,80499,2,0,B|184:240|104:216,1,140,0|8
112,144,81051,2,0,B|112:104,2,35,0|0|0
112,144,81419,5,0
112,248,81603,1,8
200,192,81787,1,0
112,248,81971,2,0,B|184:264|256:248,1,140,0|8
280,240,82431,1,0
312,232,82523,1,8
384,176,82707,1,8
400,144,82799,1,0
392,112,82891,1,8
336,56,83075,5,8
304,40,83167,1,8
272,32,83259,1,8
240,40,83351,1,8
208,56,83443,1,4
256,192,83812,12,0,86020
56,104,86388,5,2
56,272,86572,1,2
152,192,86756,1,2
184,192,86848,1,2
216,192,86940,1,2
264,136,87124,1,0
312,192,87309,1,2
344,192,87401,1,2
376,192,87493,1,2
376,272,87677,6,0,B|224:272,1,140
240,272,88229,2,2,B|200:272,16,35
