osu file format v7

[General]
AudioFilename: Seitokai No Ichizon - op(TV Size).mp3
AudioLeadIn: 1996
PreviewTime: 53441
Countdown: 1
SampleSet: Soft
StackLeniency: 0.3
Mode: 0
LetterboxInBreaks: 1

[Editor]
DistanceSpacing: 1
BeatDivisor: 4
GridSize: 8

[Metadata]
Title:Treasure (TV Size)
Artist:Hekiyou Gakuen Seitokai
Creator:Licnect
Version:Hard
Source:Seitokai no Ichizon
Tags:Anime blissfulyoshi

[Difficulty]
HPDrainRate:6
CircleSize:4
OverallDifficulty:7
SliderMultiplier:1.5
SliderTickRate:2

[Events]
//Background and Video events
0,0,"02.jpg"
Video,0,"Seitokai No Ichizon - op(TV Size) - movie.AVI"
//Break Periods
2,11496,16286
//Storyboard Layer 0 (Background)
//Storyboard Layer 1 (Fail)
//Storyboard Layer 2 (Pass)
//Storyboard Layer 3 (Foreground)
//Storyboard Sound Samples
//Background Colour Transformations
3,100,163,162,255

[TimingPoints]
990,368.098159509202,4,2,0,60,1,0
9822,-100,4,1,0,40,0,0
9914,-100,4,1,0,45,0,0
10006,-100,4,1,0,50,0,0
10098,-100,4,1,0,56,0,0
10190,-100,4,1,0,60,0,0
11294,-100,4,2,0,60,0,0
29042,-100,4,2,1,60,0,0
41018,-200,4,2,0,60,0,0
45981,-100,4,2,1,60,0,0
53435,-100,4,2,1,60,0,1
71570,-100,4,2,1,60,0,0
88135,-100,4,2,0,50,0,0
88503,-100,4,2,0,40,0,0
88779,-100,4,2,0,30,0,0
88963,-100,4,2,0,20,0,0
89239,-100,4,2,0,10,0,0
89515,-100,4,2,0,0,0,0

[Colours]
Combo1 : 249,6,67
Combo2 : 244,11,134
Combo3 : 156,55,200

[HitObjects]
360,64,437,1,0
360,64,621,2,0,B|296:40|208:64,1,150,0|0
88,96,1358,2,0,B|64:176|96:264,1,150,2|0
248,248,2094,2,0,B|280:184|248:80,1,150,2|0
424,104,2830,1,2
424,240,3198,1,0
248,104,3566,2,0,B|280:192|248:256,2,150,2|0|2
64,88,4670,1,0
64,88,4855,2,0,L|64:192,1,75,0|2
64,232,5223,1,0
64,304,5407,2,0,B|136:328|216:312,1,150,0|2
208,240,5959,5,0
208,240,6143,2,0,B|280:224|360:240,1,150,0|2
216,312,6879,2,0,B|200:240|216:160,1,150,0|2
328,96,7615,1,0
328,96,7799,2,0,L|432:96,2,75,0|2|0
256,96,8351,2,0,B|224:176|264:256,1,150,0|2
384,296,9088,1,0
432,240,9272,1,2
400,176,9456,1,0
280,128,9824,2,0,L|280:88,6,37.5
232,200,10560,2,0,L|232:240,8,37.5,0|0|0|0|0|0|0|0|4
168,64,17186,6,0,B|216:72|264:56,2,75,2|0|2
168,136,17738,2,0,B|136:144|88:136,2,75,0|2|0
264,264,18474,1,2
400,208,18842,1,2
304,104,19210,1,2
304,104,19394,2,0,B|224:88|144:104,1,150,2|2
154,104,19947,1,0
152,176,20131,6,0,B|216:200|248:160,2,75,0|0|0
152,248,20683,2,0,B|96:256|56:232,2,75,0|0|0
328,248,21419,2,0,B|376:184|328:96,1,150
208,168,22155,2,2,B|160:184|120:160,1,75,0|0
136,296,22707,2,0,B|248:328|312:280,1,150,2|0
400,296,23443,6,0,B|448:208|400:136,1,150,2|0
240,152,24180,2,0,B|208:240|256:320,1,150,2|0
336,248,24916,1,2
336,248,25284,2,0,B|384:264|432:240,3,75,0|0|2|0
408,248,26020,5,0
408,176,26204,1,0
408,104,26388,1,2
408,32,26572,2,0,B|448:32,2,37.5
328,56,26940,2,0,B|280:72|240:48,2,75,0|2|0
336,128,27493,1,0
336,200,27677,1,0
336,272,27861,2,0,B|264:296|160:272,1,150,2|0
192,280,28413,1,0
120,280,28597,5,2
120,280,28781,1,0
120,280,28965,2,0,B|80:200|128:112,1,150,0|2
112,64,29517,2,0,B|224:32|280:80,1,150,2|2
424,200,30253,2,0,B|328:224|264:192,1,150
168,264,30989,1,2
168,336,31174,2,0,B|128:352|88:336,2,75,2|0|2
240,336,31726,5,0
312,336,31910,2,2,B|352:352|392:336,2,75,0|0|2
352,272,32462,2,2,B|360:232|352:192,2,75,0|0|2
208,264,33198,2,0,B|192:184|208:96,1,150
72,120,33934,5,2
72,120,34118,2,0,B|104:144|144:120,1,75,0|0
144,120,34486,1,2
288,120,34855,2,0,B|312:208|272:296,1,150,0|8
120,264,35591,2,0,B|96:192|120:104,1,150,0|8
200,32,36327,1,0
296,88,36695,1,8
200,152,37063,2,0,B|200:200,2,37.5,0|0|0
200,152,37431,1,8
256,32,37799,5,8
256,144,38167,1,8
256,256,38536,1,8
416,208,38904,1,2
416,136,39088,1,2
256,176,39456,1,0
96,248,39824,2,0,B|64:168|112:80,1,150,0|8
176,104,40376,1,8
176,104,40560,2,0,B|216:128|264:96,1,75,8|4
392,88,41112,6,2,B|400:128|392:168,1,75
392,160,41664,1,0
400,240,42032,2,0,B|336:264|272:240,1,112.5,2|2
176,248,42953,1,2
96,168,43321,1,0
176,88,43689,1,2
256,168,44057,1,0
248,272,44425,2,0,B|208:288|168:272,1,75,2|0
176,200,44977,2,0,B|240:184|296:200,1,112.5,2|2
56,96,45897,5,0
56,96,46266,1,8
56,256,46634,2,0,B|136:264|208:256,1,150,0|8
280,256,47186,2,0,B|288:184|280:104,1,150
280,112,47738,1,8
64,112,48106,2,0,B|144:120|224:112,1,150,0|8
216,184,48658,2,0,B|296:176|384:184,1,150
368,184,49210,1,8
408,64,49578,5,0
280,56,49947,2,0,B|256:136|288:224,1,150,8|0
280,280,50499,2,0,B|336:296|384:272,2,75,0|8|0
280,280,51051,2,0,B|208:296|128:280,1,150,0|8
131,280,51603,1,0
128,208,51787,2,2,B|72:224|32:200,2,75,0|0|8
264,112,52523,2,0,B|240:192|272:288,1,150,2|4
408,128,53443,5,0
352,80,53628,1,8
288,40,53812,1,0
288,40,53996,2,0,B|264:120|288:200,1,150,0|8
288,264,54548,2,0,B|336:288|368:256,3,75,0|0|0|8
432,264,55284,1,0
432,192,55468,1,0
432,40,55836,6,0,B|360:24|280:40,1,150,8|0
136,128,56572,2,0,B|216:152|312:128,1,150,8|0
216,248,57309,1,8
80,248,57677,1,0
88,320,57861,1,0
160,320,58045,1,8
224,296,58229,2,0,B|248:256|224:224,1,75,0|0
224,152,58597,2,0,B|288:128|320:168,1,75,0|8
296,152,58965,1,8
144,152,59333,1,8
144,152,59517,1,4
144,312,59885,6,0,B|224:320|296:312,1,150,0|8
368,312,60437,2,0,B|384:240|368:144,1,150
368,32,61174,1,0
208,32,61542,2,0,B|184:72|216:112,1,75,0|8
209,102,61910,1,0
208,176,62094,2,0,B|168:192|120:168,2,75,0|0|8
208,176,62646,1,0
208,248,62830,2,0,B|288:264|360:248,1,150,0|8
376,48,63750,5,8
304,64,63934,1,8
256,128,64118,1,8
256,208,64302,1,0
256,208,64486,2,0,B|256:288,2,75,0|8|12
248,80,65223,5,0
320,88,65407,1,8
384,128,65591,1,0
392,200,65775,1,0
392,200,65959,2,0,B|352:208|312:200,1,75,0|8
264,264,66327,2,0,B|224:272|184:264,3,75,0|0|0|8
112,264,67063,1,0
112,264,67247,1,0
104,80,67615,6,0,B|184:48|272:88,1,150,8|0
408,80,68351,2,0,B|440:160|416:256,1,150,8|0
416,344,69088,1,8
288,216,69456,1,8
232,168,69640,1,4
56,64,70008,2,0,B|104:56|144:64,2,75,0|0|0
56,64,70560,1,8
56,64,70744,1,4
56,192,71112,1,8
56,192,71296,1,4
272,192,71664,5,0
144,272,72032,1,8
128,120,72401,2,0,L|232:264,3,150,0|8|0|8
216,240,73689,1,0
408,288,74057,6,0,L|408:208,1,75,0|8
408,216,74425,1,0
408,144,74609,1,0
408,72,74793,1,0
408,72,74977,2,0,L|232:72,1,150,8|0
256,152,75529,5,8
256,256,75713,1,8
160,200,75897,1,8
64,152,76082,2,0,B|64:232|64:304,1,150,4|0
64,302,76634,1,0
256,192,76818,12,0,78842
112,80,79210,5,8
112,80,79394,1,4
112,216,79763,2,0,B|192:224|280:216,1,150,0|8
261,217,80315,1,0
336,216,80499,2,0,B|360:144|336:64,1,150,0|8
337,68,81051,1,0
136,96,81419,5,0
64,176,81603,1,8
136,248,81787,1,0
200,176,81971,2,0,B|352:176,1,150,2|8
350,176,82523,1,0
352,256,82707,5,2
256,96,83075,1,2
152,256,83443,1,2
256,192,83996,12,0,86020
160,72,86388,5,2
240,72,86572,1,0
200,144,86756,1,0
200,144,86940,2,0,B|272:144|352:144,1,150,2|2
352,224,87493,2,0,B|280:224|192:224,1,150,0|0
200,304,88045,1,12
280,304,88229,2,2,B|320:304,16,37.5
