osu file format v5

[General]
AudioFilename: 04 Narcissist.mp3
AudioLeadIn: 0
PreviewTime: 35551
Countdown: 1
SampleSet: Normal
StackLeniency: 0.3
Mode: 0
LetterboxInBreaks: 1
EditorBookmarks: 35724,60897,90725,118829

[Metadata]
Title:Narcissist
Artist:Hedley
Creator:0_o
Version:Hard
Source:
Tags:punk rock famous last words

[Difficulty]
HPDrainRate:6
CircleSize:5
OverallDifficulty:8
SliderMultiplier:1.4
SliderTickRate:2

[Events]
//Background and Video events
0,0,"611f1Zef0tL.jpg"
//Break Periods
2,14199,16353
2,25234,27387
2,44544,46009
2,58338,60492
2,69373,71526
2,80407,82561
2,99718,101182
2,119029,123941
2,132823,134976
2,143857,148425
//Storyboard Layer 0 (Background)
//Storyboard Layer 1 (Failing)
//Storyboard Layer 2 (Passing)
//Storyboard Layer 3 (Foreground)
//Storyboard Sound Samples
//Background Colour Transformations
3,100,163,162,255

[TimingPoints]
206.256580070595,344.835359908231,4,1,0,100,1,0
60897,-100,4,1,1,100,0,0
82277,-100,4,1,0,100,0,0
118829,-200,4,2,1,100,0,0
149175,-100,4,1,0,100,0,0
165727,-100,4,1,1,100,0,1
184865,-100,4,2,1,100,0,0

[HitObjects]
88,64,6068,1,0
224,80,6413,1,0
352,128,6758,1,0
296,176,6930,2,0,B|464:272,3,140
112,296,8827,5,0
112,144,9171,1,0
248,144,9516,1,0
320,144,9689,1,0
392,240,10034,1,0
280,304,10378,1,0
200,176,10723,1,0
376,96,11240,6,4,B|464:144|424:240,3,140
320,312,12620,2,4,B|248:360|160:288,3,140
256,168,13999,1,0
152,192,17103,5,0
256,280,17448,1,0
392,240,17792,1,0
344,184,17965,2,0,B|344:40,1,140
240,136,18654,2,2,B|184:184|264:224|272:224|304:232,1,140
432,48,19861,5,0
296,96,20206,1,0
248,144,20379,1,0
160,32,20723,1,0
88,152,21068,1,0
208,224,21413,1,0
408,176,21930,5,0
456,224,22103,2,4,B|520:152|472:96|368:72,1,210
320,48,22792,2,6,B|248:-32|184:72,3,140
104,168,24172,1,6
200,280,24517,2,6,B|256:304|280:304|264:104,1,210,6|6
120,80,28137,5,0
256,80,28482,1,0
392,80,28827,1,0
344,208,29172,1,0
296,336,29517,1,0
224,336,29689,1,0
136,128,30206,5,0
256,32,30551,2,4,B|256:248,2,210,4|4|4
376,128,31931,1,4
256,40,32965,5,0
360,168,33310,1,4
256,304,33655,1,4
152,168,34000,5,4
360,168,34344,1,0
256,32,34689,1,4
256,32,34862,1,4
256,32,35034,5,4
416,112,35724,5,0
312,207,36069,2,0,B|247:150|319:86,2,140
192,48,37276,5,0
264,48,37448,1,0
160,136,37793,1,0
272,224,38138,5,0
136,256,38482,1,0
256,328,38827,6,0,B|192:400|88:304,2,140
256,328,39862,5,0
368,240,40207,1,0
288,120,40551,1,0
168,192,40896,1,0
168,48,41241,1,0
288,120,41586,6,4,B|148:120,2,140
408,240,42621,1,4
288,360,42965,2,4,B|148:360,2,140
408,240,44000,2,4,B|232:240,1,140
128,128,46759,5,0
240,40,47103,2,0,B|360:56|448:176|456:232,1,280
280,336,48310,5,0
208,336,48483,2,0,B|144:392|72:336,3,140
144,216,49862,2,2,B|40:128|200:120|192:88|240:288|304:56,1,280
48,320,51241,5,0
184,320,51586,1,0
320,320,51931,1,0
456,320,52276,1,0
392,192,52621,5,4
456,64,52966,1,4
312,64,53310,1,4
392,192,53655,5,4
256,80,54000,1,4
120,192,54345,1,4
256,288,54690,5,4
256,80,55035,1,4
256,192,55379,12,4,58138
88,304,61242,5,0
104,168,61586,1,0
208,80,61931,1,0
208,152,62104,2,0,B|352:152,1,140,0|0
272,272,62793,1,2
272,272,63138,1,2
376,80,64000,5,0
280,128,64345,2,0,B|152:128,1,70
128,240,64862,1,0
104,104,65207,1,0
128,240,65552,1,0
256,176,65897,1,0
256,336,66414,5,0
256,336,66587,1,0
352,232,66931,2,0,B|456:104,4,140
256,336,68656,1,0
48,336,69173,1,0
80,72,72276,5,0
192,152,72621,1,0
192,224,72794,1,0
328,224,73138,5,0
328,360,73483,1,0
205,292,73828,2,0,B|365:292,1,140,2|2
400,80,75035,5,0
256,80,75380,1,0
256,80,75552,1,0
136,160,75897,1,0
256,232,76242,1,0
376,160,76587,1,0
256,80,76932,1,0
72,184,77449,6,0,B|88:320|168:408|280:424|408:384|512:312|528:120|504:56|344:-80|176:-64|72:64|72:160,1,1120,0|0
48,72,83311,5,0
184,72,83656,1,0
320,72,84001,1,0
392,192,84346,1,0
248,192,84690,2,0,B|160:192,1,70
40,192,85208,1,2
40,192,85553,2,2,B|16:272|48:320|160:320,1,210,2|2
152,320,86242,2,2,B|302:323,1,140,2|2
504,320,87104,1,10
256,24,88484,5,0
256,192,88828,1,0
336,336,89173,1,0
168,336,89518,1,0
256,192,89863,1,0
256,192,90035,1,0
256,192,90208,1,0
448,360,90897,5,0
384,232,91242,2,0,B|328:192|264:224|288:288|288:288,2,140
256,64,92449,5,0
256,64,92622,1,0
185,184,92966,1,0
327,184,93311,1,0
185,184,93656,1,0
120,304,94001,6,0,B|192:344|256:368|264:200|278:364|344:352|408:320|424:272,1,280
488,216,95035,5,0
368,136,95380,1,0
368,272,95725,1,0
256,192,96070,1,0
136,272,96415,1,0
96,120,96760,6,4,C|48:168|120:240,2,140
256,168,97794,1,4
416,120,98139,2,4,C|464:168|392:240,2,140
256,168,99174,2,4,B|256:320,1,140
168,136,101932,5,0
256,24,102277,2,0,B|352:88|168:208|272:296,1,280
360,160,103484,5,0
432,160,103656,1,0
400,296,104001,1,0
256,296,104346,1,0
256,152,104691,1,0
120,184,105036,2,2,B|208:256|312:256|384:176,1,280
88,192,106415,5,0
256,288,106760,1,0
256,88,107105,1,0
416,192,107450,1,0
256,288,107794,5,4
160,120,108139,1,4
352,120,108484,1,4
160,280,108829,5,4
352,280,109174,1,4
256,120,109519,1,4
112,192,109863,5,4
392,192,110208,1,4
256,192,110553,12,0,113312
256,192,115208,12,0,116070
256,192,117967,12,4,118829
88,192,124691,6,0,B|152:112|232:72|264:328|384:192|440:128,1,385,0|2
192,240,127450,5,0
144,184,127795,1,0
168,80,128312,1,0
304,48,129002,1,0
480,24,129864,5,2
240,176,131243,1,2
8,344,132623,1,2
156,204,135726,6,0,B|144:144|192:72|232:56|280:56|312:56|344:88|376:136|376:168|376:208|368:240,1,385,0|2
221,293,138485,5,0
293,293,138830,1,0
256,192,139347,1,0
256,48,140036,1,0
120,224,140899,5,0
256,224,142278,1,0
392,224,143657,1,4
256,192,149175,12,0,154002
288,40,154692,6,0,B|376:40|432:88|488:176|392:288|392:288,1,280
232,344,155899,5,0
160,328,156071,2,0,B|64:248|48:168|152:56,1,280
248,152,157106,5,0
192,24,157451,2,2,B|304:8|352:16|432:88|448:168,1,280
256,336,158830,5,0
256,56,159520,1,0
32,200,160209,2,0,B|56:112|168:32|280:24|392:56|448:128|512:256,2,560,4|4|4
256,192,163658,5,4
256,0,164347,5,4
256,64,164692,1,0
256,128,165037,1,0
256,192,165382,1,0
256,192,165727,6,0,B|176:224|160:296,1,140,0|0
288,352,166416,2,0,B|448:352,1,140,0|8
360,224,167106,2,0,B|360:144|360:72,1,140,0|0
248,160,167796,2,0,B|80:160,1,140,0|8
208,56,168485,2,0,B|360:56,1,140
416,176,169175,2,0,B|416:32,1,140,0|8
416,176,169865,5,0
336,320,170210,1,0
248,176,170554,1,0
336,32,170899,1,0
168,32,171244,5,4
336,168,171589,5,4
168,304,171934,5,4
336,304,172279,5,4
168,168,172623,5,4
336,32,172968,5,4
168,32,173313,5,4
336,168,173658,5,4
256,192,174003,12,0,175382
256,112,175899,5,0
256,112,176244,1,0
256,112,176589,1,0
256,112,176761,1,4
256,192,176934,12,4,178141
256,192,178658,5,0
256,192,179003,1,0
256,192,179348,1,0
256,192,179520,1,4
256,192,179865,12,4,180899
256,272,181417,5,0
256,272,181762,1,0
256,272,182106,1,0
256,272,182279,1,4
256,192,182624,12,4,185038
