osu file format v9

[General]
AudioFilename: h_destruct.mp3
AudioLeadIn: 0
PreviewTime: 30050
Countdown: 0
SampleSet: Normal
StackLeniency: 0.7
Mode: 0
LetterboxInBreaks: 1

[Editor]
Bookmarks: 7550,22550,30050
DistanceSpacing: 1
BeatDivisor: 2
GridSize: 4

[Metadata]
Title:Dstrukt
Artist:Hecq
Creator:grumd
Version:Normal
Source:
Tags:breakbeat orchestra loctav ben lukas boysen destruct

[Difficulty]
HPDrainRate:3
CircleSize:3
OverallDifficulty:3
ApproachRate:4
SliderMultiplier:0.8
SliderTickRate:1

[Events]
//Background and Video events
0,0,"318009-1024x768.jpg"
//Break Periods
2,22750,28730
2,45249,51230
//Storyboard Layer 0 (Background)
//Storyboard Layer 1 (Fail)
//Storyboard Layer 2 (Pass)
//Storyboard Layer 3 (Foreground)
//Storyboard Sound Samples
//Background Colour Transformations
3,100,0,0,0

[TimingPoints]
7550,234.375,4,1,0,40,1,0
7608,-100,4,2,0,50,0,0
8253,-100,4,1,0,40,0,0
8311,-100,4,2,0,50,0,0
8604,-100,4,1,0,40,0,0
8721,-100,4,1,0,30,0,0
8780,-100,4,2,0,50,0,0
8956,-100,4,1,0,40,0,0
9014,-100,4,2,0,50,0,0
9425,-100,4,1,0,40,0,0
9483,-100,4,2,0,50,0,0
9776,-100,4,1,0,40,0,0
9835,-100,4,2,0,50,0,0
11300,-100,4,1,0,40,0,0
11358,-100,4,2,0,50,0,0
11885,-100,4,1,0,40,0,0
11944,-100,4,2,0,50,0,0
12120,-100,4,1,0,35,0,0
12178,-100,4,2,0,50,0,0
12706,-100,4,1,0,40,0,0
12823,-100,4,1,0,35,0,0
12882,-100,4,2,0,50,0,0
13643,-100,4,1,0,35,0,0
14053,-100,4,2,0,50,0,0
14581,-100,4,2,0,30,0,0
15050,-100,4,1,0,50,0,0
15108,-100,4,2,0,60,0,0
15225,-100,4,2,0,50,0,0
15753,-100,4,1,0,40,0,0
15811,-100,4,2,0,50,0,0
16221,-100,4,1,0,35,0,0
16280,-100,4,2,0,50,0,0
16456,-100,4,1,0,35,0,0
16514,-100,4,2,0,50,0,0
16690,-100,4,1,0,35,0,0
16749,-100,4,2,0,50,0,0
16925,-100,4,1,0,40,0,0
16983,-100,4,2,0,50,0,0
17276,-100,4,1,0,40,0,0
17335,-100,4,2,0,50,0,0
18800,-100,4,1,0,40,0,0
18858,-100,4,2,0,50,0,0
19385,-100,4,1,0,35,0,0
19737,-100,4,2,0,50,0,0
20206,-100,4,1,0,40,0,0
20264,-100,4,2,0,50,0,0
21143,-100,4,1,0,30,0,0
21553,-100,4,2,0,50,0,0
30050,-100,4,1,0,40,0,0
30108,-100,4,2,0,50,0,0
30401,-100,4,1,0,30,0,0
30518,-100,4,2,0,50,0,0
30753,-100,4,1,0,30,0,0
30811,-100,4,2,0,50,0,0
31925,-100,4,1,0,40,0,0
31983,-100,4,2,0,50,0,0
32628,-100,4,1,0,30,0,0
32862,-100,4,2,0,50,0,0
33800,-100,4,1,0,40,0,0
33858,-100,4,2,0,50,0,0
34151,-100,4,1,0,30,0,0
34210,-100,4,2,0,50,0,0
34503,-100,4,1,0,35,0,0
34737,-100,4,2,0,50,0,0
35675,-100,4,1,0,40,0,0
35733,-100,4,2,0,50,0,0
36378,-100,4,1,0,40,0,0
36436,-100,4,2,0,50,0,0
37550,-100,4,1,0,40,0,0
37608,-100,4,2,0,50,0,0
37784,-100,4,1,0,30,0,0
37901,-100,4,1,0,40,0,0
38018,-100,4,1,0,30,0,0
38077,-100,4,2,0,50,0,0
38253,-100,4,1,0,30,0,0
38370,-100,4,2,0,50,0,0
39425,-100,4,1,0,40,0,0
39483,-100,4,2,0,50,0,0
40128,-100,4,1,0,35,0,0
40362,-100,4,2,0,50,0,0
41300,-100,4,1,0,40,0,0
41358,-100,4,2,0,50,0,0
41651,-100,4,1,0,30,0,0
41710,-100,4,2,0,50,0,0
42003,-100,4,1,0,30,0,0
42237,-100,4,2,0,50,0,0
43175,-100,4,1,0,40,0,0
43233,-100,4,2,0,50,0,0
43878,-100,4,1,0,35,0,0
44112,-100,4,2,0,50,0,0
44346,-100,4,1,0,35,0,0
44405,-100,4,2,0,50,0,0
52550,-100,4,1,0,35,0,0
65675,-100,4,1,0,40,0,0
66143,-100,4,1,0,45,0,0
66612,-100,4,1,0,50,0,0
67081,-100,4,1,0,55,0,0
67608,-100,4,2,0,50,0,0
68956,-100,4,1,0,40,0,0
69014,-100,4,2,0,50,0,0
69425,-100,4,1,0,40,0,0
69483,-100,4,2,0,50,0,0
70128,-100,4,1,0,35,0,0
70186,-100,4,1,0,30,0,0
70362,-100,4,2,0,50,0,0
70714,-100,4,1,0,30,0,0
70831,-100,4,2,0,50,0,0
71300,-100,4,1,0,40,0,0
71358,-100,4,2,0,50,0,0
72003,-100,4,1,0,30,0,0
72471,-100,4,2,0,45,0,0
72940,-100,4,1,0,30,0,0
73175,-100,4,2,0,50,0,0
73643,-100,4,1,0,40,0,0
74112,-100,4,2,0,50,0,0
74346,-100,4,1,0,30,0,0
74405,-100,4,2,0,30,0,0
74815,-133.333333333333,4,2,0,30,0,0
78800,-100,4,1,0,30,0,0
83487,-100,4,2,0,40,0,0
84425,-100,4,2,0,30,0,0
85362,-100,4,2,0,10,0,0

[Colours]
Combo1 : 169,199,165
Combo2 : 125,145,181
Combo3 : 111,111,111

[HitObjects]
86,156,7550,2,0,B|156:117|242:129,1,160,0|2
299,183,8253,1,0
295,262,8487,2,0,B|340:264|378:236|388:190|372:152,1,160,8|0
227,219,9425,6,0,B|204:254|212:303|250:329,2,120
285,164,10362,2,8,B|415:145,2,120,8|8|8
214,125,11300,6,0,B|150:188|47:187,2,160,0|0|2
254,56,12471,1,2
333,67,12706,2,0,B|375:113|375:113|410:208,1,160,0|8
435,280,13409,6,0,B|473:294|506:322,2,80,2|0|0
355,267,14112,2,0,B|297:328|205:329,1,160,8|0
88,226,15050,6,0,B|72:146|72:145,1,80
152,146,15518,2,0,B|136:66|136:65,1,80
215,57,15987,2,0,B|297:53|378:94,1,160,8|0
349,249,16925,6,0,B|355:309|392:359,2,120
390,180,17862,2,8,B|352:156|296:171|279:212,2,120
349,249,18800,6,0,B|310:324|223:349,1,160
74,304,19737,2,0,B|56:251|56:251|67:146,1,160,8|0
146,143,20440,6,0,B|136:248,2,80,2|8|2
103,75,21143,2,0,B|156:44|220:76|226:137,1,160,0|8
220,212,21846,2,0,B|264:213|292:178,2,80,0|2|0
152,168,22550,1,0
288,292,30050,6,0,B|356:252|440:248,1,160,0|2
487,183,30753,1,0
473,104,30987,2,0,B|439:112|415:133|408:171|408:171|354:176|324:192,1,160,8|0
245,58,31925,6,0,B|308:69|372:42,2,120
205,127,32862,2,0,B|190:246,2,120,8|2|2
162,58,33800,6,0,B|86:76|31:148,1,160,0|2
26,226,34503,1,0
18,305,34737,2,0,B|91:309|118:240|99:198,2,160,8|0|0
167,361,36143,5,2
321,318,36612,1,8
436,207,37081,1,0
426,47,37550,6,0,B|391:100|326:111,1,120
209,93,38253,1,0
142,49,38487,2,0,B|110:102|139:162|198:173,1,160,8|0
297,297,39425,6,0,B|413:321,2,120,0|2|0
215,297,40362,2,0,B|99:321,2,120,8|2|2
256,228,41300,6,0,B|297:199|297:199|365:181,1,120
480,150,42003,1,0
437,82,42237,2,0,B|362:53|277:59,1,160,8|2
130,116,43175,6,0,B|117:76|86:52,2,80,0|2|0
115,194,43878,1,0
80,266,44112,2,0,B|161:276|224:333,2,160,8|0|0
91,278,52550,6,0,B|99:198,1,80
176,219,53018,2,0,B|184:139,1,80,0|0
118,93,53487,2,0,B|147:53|196:46|243:67|257:110,1,160,4|0
421,106,54425,6,0,B|413:186,1,80
336,165,54893,2,0,B|328:245,1,80,0|0
394,291,55362,2,0,B|365:331|316:338|269:317|255:274,1,160,4|0
107,234,56300,6,0,B|108:192|96:156,1,80
67,80,56768,2,0,B|101:55|142:48,1,80
219,42,57237,1,4
256,192,57706,1,0
405,150,58175,6,0,B|404:192|416:228,1,80
445,304,58643,2,0,B|411:329|370:336,1,80
293,342,59112,1,0
256,192,59581,1,0
118,108,60050,6,0,B|145:76|152:36,2,80
70,172,60753,1,0
109,241,60987,2,0,B|131:295|177:318|242:309,1,160,4|0
394,276,61925,6,0,B|367:308|360:348,2,80
442,212,62628,1,0
403,143,62862,2,0,B|381:89|335:66|270:75,1,160,4|0
126,139,63800,6,0,B|101:62,2,80
185,192,64503,1,0
126,245,64737,2,0,B|101:322,2,80,4|0|0
185,192,65440,1,0
253,150,65675,6,0,B|294:138|324:112,1,80
393,150,66143,2,0,B|382:191|390:230,1,80
322,272,66612,2,0,B|291:242|253:229,1,80
185,192,67081,2,0,B|104:170|51:93,1,160
87,27,67784,5,2
147,79,68018,2,0,B|131:165|57:223,1,160,2|8
113,280,68721,1,0
188,252,68956,2,0,B|208:312|164:366|100:359,2,160,0|0|2
199,172,70128,1,0
265,127,70362,6,0,B|326:128|385:94,2,120,8|0|2
194,89,71300,2,0,B|169:136|195:202|262:208,1,160,0|2
338,199,72003,1,0
402,246,72237,2,0,B|351:312|265:322,1,160,0|2
105,306,73175,6,0,B|44:249|45:153,1,160,8|0
63,84,73878,1,0
140,63,74112,2,0,B|180:52|212:24,2,80,8|0|0
203,165,75050,6,0,B|199:208|173:253|173:253|243:281|285:346,1,239.999992847443
403,361,76456,1,0
455,253,76925,2,0,B|397:284|329:251|339:142|417:138|458:164,1,239.999992847443
139,81,78800,6,0,B|225:93,1,80
194,167,79268,2,0,B|280:179,1,80
248,254,79737,2,0,B|334:266,1,80
328,345,80206,2,0,B|393:344|423:278|401:230,1,160
359,163,80909,5,0
279,156,81143,2,0,B|236:152|204:131,1,80
145,75,81612,1,0
125,152,81846,2,0,B|112:192|79:219,2,80
69,94,82550,5,4
256,192,82784,12,0,85362
