osu file format v9

[General]
AudioFilename: h_destruct.mp3
AudioLeadIn: 0
PreviewTime: 30050
Countdown: 0
SampleSet: Normal
StackLeniency: 0.7
Mode: 0
LetterboxInBreaks: 1

[Editor]
DistanceSpacing: 1
BeatDivisor: 4
GridSize: 4

[Metadata]
Title:Dstrukt
Artist:Hecq
Creator:grumd
Version:Insane
Source:
Tags:breakbeat orchestra loctav ben lukas boysen destruct

[Difficulty]
HPDrainRate:7
CircleSize:4
OverallDifficulty:7
ApproachRate:9
SliderMultiplier:1.5
SliderTickRate:1

[Events]
//Background and Video events
0,0,"318009-1024x768.jpg"
//Break Periods
2,22749,29450
2,45250,51950
//Storyboard Layer 0 (Background)
//Storyboard Layer 1 (Fail)
//Storyboard Layer 2 (Pass)
//Storyboard Layer 3 (Foreground)
//Storyboard Sound Samples
//Background Colour Transformations
3,100,0,0,0

[TimingPoints]
7550,234.375,4,1,0,40,1,0
7608,-100,4,2,0,50,0,0
8253,-100,4,1,0,40,0,0
8311,-100,4,2,0,50,0,0
8604,-100,4,1,0,40,0,0
8721,-100,4,1,0,30,0,0
8780,-100,4,2,0,50,0,0
8956,-100,4,1,0,40,0,0
9014,-100,4,2,0,50,0,0
9425,-100,4,1,0,40,0,0
9483,-100,4,2,0,50,0,0
9776,-100,4,1,0,40,0,0
9835,-100,4,2,0,50,0,0
11300,-100,4,1,0,40,0,0
11358,-100,4,2,0,50,0,0
11885,-100,4,1,0,40,0,0
11944,-100,4,2,0,50,0,0
12120,-100,4,1,0,35,0,0
12178,-100,4,2,0,50,0,0
12706,-100,4,1,0,40,0,0
12823,-100,4,1,0,35,0,0
12882,-100,4,2,0,50,0,0
13643,-100,4,1,0,35,0,0
14053,-100,4,2,0,50,0,0
14581,-100,4,2,0,30,0,0
15050,-100,4,1,0,50,0,0
15108,-100,4,2,0,60,0,0
15225,-100,4,2,0,50,0,0
15753,-100,4,1,0,40,0,0
15811,-100,4,2,0,50,0,0
16221,-100,4,1,0,35,0,0
16280,-100,4,2,0,50,0,0
16456,-100,4,1,0,35,0,0
16514,-100,4,2,0,50,0,0
16690,-100,4,1,0,35,0,0
16749,-100,4,2,0,50,0,0
16925,-100,4,1,0,40,0,0
16983,-100,4,2,0,50,0,0
17276,-100,4,1,0,40,0,0
17335,-100,4,2,0,50,0,0
18800,-100,4,1,0,40,0,0
18858,-100,4,2,0,50,0,0
19385,-100,4,1,0,35,0,0
19737,-100,4,2,0,50,0,0
20206,-100,4,1,0,40,0,0
20264,-100,4,2,0,50,0,0
21143,-100,4,1,0,30,0,0
21553,-100,4,2,0,50,0,0
30050,-100,4,1,0,40,0,0
30108,-100,4,2,0,50,0,0
30401,-100,4,1,0,30,0,0
30518,-100,4,2,0,50,0,0
30753,-100,4,1,0,30,0,0
30811,-100,4,2,0,50,0,0
31925,-100,4,1,0,40,0,0
31983,-100,4,2,0,50,0,0
32628,-100,4,1,0,30,0,0
32862,-100,4,2,0,50,0,0
33800,-100,4,1,0,40,0,0
33858,-100,4,2,0,50,0,0
34151,-100,4,1,0,30,0,0
34210,-100,4,2,0,50,0,0
34503,-100,4,1,0,35,0,0
34737,-100,4,2,0,50,0,0
35675,-100,4,1,0,40,0,0
35733,-100,4,2,0,50,0,0
36378,-100,4,1,0,40,0,0
36436,-100,4,2,0,50,0,0
37550,-100,4,1,0,40,0,0
37608,-100,4,2,0,50,0,0
37784,-100,4,1,0,30,0,0
37901,-100,4,1,0,40,0,0
38018,-100,4,1,0,30,0,0
38077,-100,4,2,0,50,0,0
38253,-100,4,1,0,30,0,0
38370,-100,4,2,0,50,0,0
39425,-100,4,1,0,40,0,0
39483,-100,4,2,0,50,0,0
40128,-100,4,1,0,35,0,0
40362,-100,4,2,0,50,0,0
41300,-100,4,1,0,40,0,0
41358,-100,4,2,0,50,0,0
41651,-100,4,1,0,30,0,0
41710,-100,4,2,0,50,0,0
42003,-100,4,1,0,30,0,0
42237,-100,4,2,0,50,0,0
43175,-100,4,1,0,40,0,0
43233,-100,4,2,0,50,0,0
43878,-100,4,1,0,35,0,0
44112,-100,4,2,0,50,0,0
44346,-100,4,1,0,35,0,0
44405,-100,4,2,0,50,0,0
52550,-100,4,1,0,40,0,0
52667,-100,4,1,0,25,0,0
52901,-100,4,1,0,40,0,0
53018,-100,4,1,0,25,0,0
53253,-100,4,1,0,40,0,0
53370,-100,4,1,0,25,0,0
53487,-100,4,1,0,30,0,0
54425,-100,4,1,0,40,0,0
54542,-100,4,1,0,25,0,0
54776,-100,4,1,0,40,0,0
54893,-100,4,1,0,25,0,0
55128,-100,4,1,0,40,0,0
55245,-100,4,1,0,25,0,0
55362,-100,4,1,0,30,0,0
56300,-100,4,1,0,40,0,0
56417,-100,4,1,0,25,0,0
56651,-100,4,1,0,40,0,0
56768,-100,4,1,0,25,0,0
57003,-100,4,1,0,40,0,0
57120,-100,4,1,0,25,0,0
57237,-100,4,1,0,30,0,0
58175,-100,4,1,0,40,0,0
58292,-100,4,1,0,25,0,0
58526,-100,4,1,0,40,0,0
58643,-100,4,1,0,25,0,0
58878,-100,4,1,0,40,0,0
58995,-100,4,1,0,25,0,0
59112,-100,4,1,0,40,0,0
59171,-100,4,1,0,30,0,0
60050,-100,4,1,0,40,0,0
60167,-100,4,1,0,25,0,0
60401,-100,4,1,0,40,0,0
60518,-100,4,1,0,25,0,0
60753,-100,4,1,0,40,0,0
60870,-100,4,1,0,25,0,0
60987,-100,4,1,0,30,0,0
61925,-100,4,1,0,40,0,0
62042,-100,4,1,0,25,0,0
62276,-100,4,1,0,40,0,0
62393,-100,4,1,0,25,0,0
62628,-100,4,1,0,40,0,0
62745,-100,4,1,0,25,0,0
62862,-100,4,1,0,30,0,0
63800,-100,4,1,0,40,0,0
63917,-100,4,1,0,25,0,0
64151,-100,4,1,0,40,0,0
64268,-100,4,1,0,25,0,0
64503,-100,4,1,0,40,0,0
64620,-100,4,1,0,25,0,0
64737,-100,4,1,0,30,0,0
65675,-100,4,1,0,40,0,0
66143,-100,4,1,0,45,0,0
66612,-100,4,1,0,50,0,0
67081,-100,4,1,0,55,0,0
67608,-100,4,2,0,50,0,0
68253,-100,4,1,0,40,0,0
68311,-100,4,2,0,50,0,0
68956,-100,4,1,0,40,0,0
69014,-100,4,2,0,50,0,0
69425,-100,4,1,0,40,0,0
69483,-100,4,2,0,50,0,0
70128,-100,4,1,0,35,0,0
70186,-100,4,1,0,30,0,0
70362,-100,4,2,0,50,0,0
70831,-100,4,1,0,30,0,0
70889,-100,4,2,0,50,0,0
71300,-100,4,1,0,40,0,0
71358,-100,4,2,0,50,0,0
72003,-100,4,1,0,30,0,0
72471,-100,4,2,0,45,0,0
72940,-100,4,1,0,30,0,0
73175,-100,4,2,0,50,0,0
73643,-100,4,1,0,40,0,0
74112,-100,4,2,0,50,0,0
74346,-100,4,1,0,30,0,0
74405,-100,4,2,0,30,0,0
75050,-200,4,2,0,30,0,0
75870,-200,4,2,0,20,0,0
75909,-200,4,2,0,30,0,0
78800,-200,4,1,0,30,0,0
83487,-200,4,2,0,40,0,0
84425,-200,4,2,0,30,0,0
85362,-200,4,2,0,10,0,0

[Colours]
Combo1 : 169,199,165
Combo2 : 125,145,181
Combo3 : 111,111,111

[HitObjects]
250,322,7550,2,0,B|308:330|363:304,1,112.5
360,306,7784,2,2,B|369:260|417:219,1,75
291,240,8018,1,2
424,150,8135,1,2
309,141,8253,2,0,B|231:120|160:153,1,150,0|8
80,197,8604,5,0
123,116,8721,2,0,B|132:80|125:42,1,75,0|2
188,192,8956,2,0,B|217:216|256:222,1,75,0|2
230,99,9190,2,0,B|262:74|307:73,1,75,2|2
379,128,9425,6,0,B|381:211|449:256,1,150,0|2
447,254,9776,2,0,B|372:243|293:280,1,150,0|2
137,311,10128,2,0,B|213:324,1,75,0|2
326,353,10362,2,0,B|314:278|257:221,1,150,8|0
169,227,10714,2,0,B|205:159|192:78,1,150,8|0
88,30,11065,2,0,B|54:51|38:93,1,75,8|0
79,243,11300,6,0,B|79:204|54:168,1,75
129,120,11534,2,0,B|172:160|243:158,1,112.5,0|0
232,158,11768,1,8
333,128,11885,2,0,B|268:173|249:252,1,150
297,339,12237,5,8
169,227,12354,1,2
71,296,12471,2,0,B|58:368,1,75,2|2
56,188,12706,2,0,B|69:116,1,75,0|0
295,76,13057,1,0
232,158,13175,6,0,B|296:122|380:136,1,150,8|2
398,143,13467,1,2
418,151,13526,1,2
436,251,13643,2,0,B|464:283,1,37.5
418,262,13760,2,0,B|434:300,1,37.5
399,273,13878,2,0,B|365:294|328:296,1,75
232,338,14112,6,0,B|192:280|206:188,1,150,8|2
351,109,14464,1,2
296,191,14581,2,0,B|292:260|244:297|172:304|130:246,1,225
92,150,15050,6,0,B|104:113|140:88,1,75
236,108,15284,2,2,B|268:130|308:133,1,75
465,111,15518,1,2
345,217,15635,1,2
453,248,15753,2,0,B|460:283|488:315,1,75
371,324,15987,6,0,B|350:360|309:374,1,75,8|0
160,329,16221,1,0
295,271,16339,1,2
163,229,16456,1,0
275,232,16573,1,2
203,156,16690,1,0
284,198,16807,1,2
312,173,16925,6,0,B|385:141|424:70,1,150,0|2
471,179,17276,2,0,B|421:125|336:102,1,150,0|2
192,81,17628,2,0,B|230:71|259:42,1,75,2|0
253,148,17862,6,0,B|243:207|271:262|271:261,1,112.5,8|0
269,257,18096,1,2
178,315,18214,2,0,B|226:341|286:340,1,112.5,8|0
286,339,18448,2,0,B|315:313|354:306,1,75,2|8
461,303,18682,1,0
401,212,18800,6,0,B|334:187|254:204,1,150
164,247,19151,1,0
85,321,19268,2,0,B|88:282|76:246,1,75
240,33,19620,5,0
112,80,19737,2,0,B|144:98|189:103,1,75,8|0
310,120,19971,2,0,B|233:133|169:173,2,150,2|0|0
452,282,20675,6,0,B|419:264|380:264,1,75,8|0
284,316,20909,2,2,B|256:340|216:344,1,75
78,290,21143,1,0
97,300,21202,1,0
118,306,21260,1,0
213,253,21378,2,0,B|245:229|259:193,1,75
281,80,21612,5,8
365,154,21729,1,0
466,105,21846,2,2,B|487:140|488:177,2,75
385,46,22198,1,0
281,80,22315,2,0,B|231:140|140:149,1,150,2|0
119,96,30050,6,0,B|151:78|190:75,1,75
349,125,30284,1,2
190,74,30401,1,0
285,189,30518,2,0,B|308:220|342:236,1,75,0|2
476,274,30753,2,0,B|437:281|403:305,1,75,0|2
304,344,30987,6,0,B|238:309|156:321,1,150,8|2
52,342,31339,1,2
116,249,31456,2,0,B|136:217|140:180,1,75,0|2
72,104,31690,2,0,B|52:72|48:35,1,75,0|2
72,103,31925,6,0,B|135:144|220:136,1,150,0|2
396,88,32276,1,2
320,166,32393,2,0,B|307:201|306:243,1,75,0|2
291,72,32628,2,0,B|260:52|220:49,1,75
407,172,32862,6,0,B|436:232|429:319,1,150,8|2
336,340,33214,1,2
239,322,33331,2,0,B|200:312|160:319,2,75,2|0|2
336,340,33682,1,0
199,238,33800,6,0,B|139:218|108:167,1,112.5
111,172,34034,2,0,B|128:140|130:100,1,75,2|0
208,40,34268,2,0,B|232:69|241:108,1,75,2|0
199,238,34503,1,0
111,172,34620,1,0
250,181,34737,6,0,B|286:169|314:143,1,75,8|0
471,32,34971,1,2
324,62,35089,1,0
418,149,35206,2,0,B|454:164|495:167,1,75,2|0
354,212,35440,2,0,B|320:232|301:264,1,75,2|0
240,348,35675,6,0,B|205:363|166:356,1,75
46,276,35909,2,2,B|124:265|197:287,1,150,2|2
305,283,36260,1,2
391,233,36378,2,0,B|411:196|411:160,1,75
281,65,36612,6,0,B|303:100|334:118,1,75,8|0
480,56,36846,2,2,B|437:57|406:75,1,75
304,195,37081,1,2
281,64,37198,1,0
210,174,37315,2,0,B|193:210|155:228,1,75,2|0
41,193,37550,5,0
158,308,37667,1,0
269,314,37784,2,0,B|302:293|343:293,2,75
158,308,38135,1,2
269,314,38253,1,0
402,262,38370,1,0
461,143,38487,6,0,B|389:159|313:136,1,150,8|2
174,76,38839,1,2
307,49,38956,2,0,B|339:72|352:110,1,75,2|0
244,228,39190,2,0,B|257:189|288:167,1,75,2|0
378,193,39425,6,0,B|384:268|437:327,1,150,0|2
337,325,39776,2,0,B|270:293|188:301,1,150,0|2
8,278,40128,2,0,B|83:268,1,75
241,187,40362,6,0,B|166:197,1,75,8|0
73,247,40596,1,2
158,177,40714,2,0,B|224:136|251:59,1,150,2|0
351,61,41065,2,0,B|381:85|424:88,1,75,2|0
257,81,41300,6,0,B|180:75|110:112,1,150,0|2
93,279,41651,2,0,B|136:221|216:200,1,150
340,235,42003,2,0,B|374:254|413:253,1,75
216,199,42237,1,8
364,146,42354,5,0
430,63,42471,1,2
430,63,42589,1,2
273,105,42706,2,0,B|200:96,1,75
374,163,42940,2,0,B|447:172,1,75,2|0
388,318,43175,6,0,B|416:345|456:352,1,75
388,318,43409,2,0,B|334:307|334:307|240:320,1,150,2|2
96,340,43760,1,2
188,270,43878,1,0
218,159,43995,1,0
138,79,44112,6,0,B|102:65|63:69,1,75,8|0
104,161,44346,2,0,B|65:156|28:170,1,75
99,250,44581,2,0,B|60:255|29:278,1,75,2|0
176,210,44815,1,2
276,234,44932,1,0
363,176,45050,1,0
89,145,52550,5,0
96,174,52667,1,0
110,200,52784,1,0
132,220,52901,1,0
159,231,53018,1,0
188,236,53135,1,0
217,233,53253,1,0
244,220,53370,1,0
264,198,53487,6,0,B|288:125,1,75,4|0
330,227,53721,2,0,B|366:159,1,75
391,269,53956,2,0,B|438:208,1,75
445,318,54190,2,0,B|502:266,1,75
374,343,54425,5,0
344,345,54542,1,0
314,338,54659,1,0
288,322,54776,1,0
267,300,54893,1,0
253,273,55010,1,0
247,243,55128,1,0
246,213,55245,1,0
250,184,55362,6,0,B|263:99,1,75,4|0
172,104,55596,2,0,B|176:178,1,75
104,191,55831,2,0,B|84:120,1,75
1,158,56065,2,0,B|37:224,1,75
61,296,56300,5,0
85,315,56417,1,0
114,325,56534,1,0
144,327,56651,1,0
174,323,56768,1,0
201,309,56885,1,0
222,287,57003,1,0
237,261,57120,1,0
244,232,57237,6,0,B|244:193|229:158,1,75
90,207,57471,2,0,B|129:207|164:192,1,75,4|0
115,52,57706,2,0,B|115:91|130:126,1,75,4|0
269,78,57940,2,0,B|230:78|195:93,1,75,4|0
327,126,58175,5,0
352,109,58292,1,0
379,96,58409,1,0
408,93,58526,1,0
440,95,58643,1,0
470,103,58760,1,0
491,126,58878,1,0
501,155,58995,1,0
499,185,59112,6,0,B|495:225|468:257,1,75,0|0
450,338,59346,2,0,B|410:334|378:307,1,75
292,290,59581,2,0,B|296:250|323:218,1,75
344,137,59815,2,0,B|384:141|416:168,1,75
264,163,60050,5,0
249,138,60167,1,0
225,121,60284,1,0
196,116,60401,1,0
167,123,60518,1,0
143,140,60635,1,0
131,168,60753,1,0
131,199,60870,1,0
140,227,60987,6,0,B|134:308,1,75,4|0
204,347,61221,2,0,B|210:266,1,75,4|0
285,245,61456,2,0,B|279:319,1,75
350,358,61690,2,0,B|355:283,1,75
416,240,61925,5,0
441,223,62042,1,0
459,199,62159,1,0
471,172,62276,1,0
476,143,62393,1,0
474,114,62510,1,0
464,86,62628,1,0
445,64,62745,1,0
419,49,62862,6,0,B|382:42|346:51,1,75,4|0
374,119,63096,2,0,B|336:121|302:139,1,75
350,197,63331,2,0,B|314:209|287:235,1,75
351,277,63565,2,0,B|319:298|300:330,1,75
227,325,63800,5,0
201,340,63917,1,0
171,347,64034,1,0
141,343,64151,1,0
114,329,64268,1,0
92,307,64385,1,0
75,282,64503,1,0
66,253,64620,1,0
65,223,64737,6,0,B|75:150,1,75,4|0
168,49,64971,2,0,B|157:123,1,75
219,262,65206,2,0,B|229:187,1,75
318,31,65440,2,0,B|307:105,1,75
397,185,65675,6,0,B|399:224|423:256,1,75
263,333,65909,2,0,B|224:335|192:359,1,75
115,199,66143,2,0,B|113:160|89:128,1,75
249,51,66378,2,0,B|288:49|320:25,1,75
385,134,66612,6,0,B|400:170|434:191,1,75
313,321,66846,2,0,B|277:336|256:370,1,75
126,249,67081,2,0,B|111:213|77:192,1,75
198,62,67315,2,0,B|234:47|255:13,1,75
348,38,67550,6,0,B|348:110|384:186,1,150,0|2
485,223,67901,1,2
337,251,68018,2,0,B|299:261|273:287,1,75,2|0
195,332,68253,2,0,B|144:280|141:194,1,150,0|8
264,111,68604,5,2
151,176,68721,1,2
315,175,68839,1,2
151,176,68956,2,0,B|126:148|88:133,1,75,0|2
185,268,69190,2,0,B|210:296|248:311,1,75,0|2
403,168,69425,6,0,B|344:217|264:219,1,150,0|2
214,120,69776,1,2
194,256,69893,2,2,B|189:296|161:327,1,75
273,172,70128,2,0,B|305:150|343:143,1,75
440,214,70362,6,0,B|389:271|385:353,1,150,8|2
295,295,70714,2,0,B|269:265|233:251,2,75,2|0|0
440,214,71065,2,2,B|464:184|470:146,1,75
411,60,71300,6,0,B|367:117|284:136,1,150
139,126,71651,1,2
295,59,71768,1,2
149,143,71885,1,2
285,135,72003,2,0,B|322:150|350:176,1,75
463,292,72237,6,0,B|426:277|398:251,1,75
271,249,72471,1,2
476,187,72589,1,2
333,287,72706,2,2,B|309:318|304:357,1,75
208,374,72940,1,0
176,281,73057,1,0
84,319,73175,6,0,B|139:271|173:193,1,150,8|2
176,180,73468,1,0
179,161,73527,1,2
92,100,73644,2,0,B|52:105,1,37.5
99,81,73761,2,0,B|56:79,1,37.5
112,64,73878,2,0,B|148:76|190:71,1,75
268,120,74113,6,0,B|346:111|405:52,2,150,8|0|0
210,310,75050,6,0,B|148:289|70:299|70:299|138:254|145:206,1,262.5
120,178,75987,2,0,B|64:172,2,50
133,129,76456,2,0,B|87:108,2,37.5
179,97,76866,6,0,B|197:73|197:73|213:97|213:97|243:65|286:56|286:56|331:120|408:128,1,281.25
447,185,77979,2,0,B|365:188|314:249,1,150
167,117,78800,6,0,B|158:82,2,37.5
127,125,79151,2,0,B|106:95,2,37.5
92,145,79503,2,0,B|62:123,2,37.5
69,176,79854,2,0,B|25:168,2,37.5
59,211,80206,6,0,B|42:246|43:286,2,75
89,220,80792,5,0
118,222,80909,1,0
147,218,81026,1,0
175,209,81143,1,0
200,193,81260,1,0
217,168,81378,1,0
225,139,81495,1,0
222,109,81612,5,0
203,85,81729,1,0
175,72,81846,1,0
144,73,81964,1,0
117,86,82081,1,0
102,111,82198,1,0
99,140,82315,1,0
112,166,82432,1,0
138,180,82550,5,4
256,192,82784,12,0,85362
