osu file format v9

[General]
AudioFilename: h_destruct.mp3
AudioLeadIn: 0
PreviewTime: 30050
Countdown: 0
SampleSet: Normal
StackLeniency: 0.7
Mode: 0
LetterboxInBreaks: 1

[Editor]
Bookmarks: 7550,22550,30050
DistanceSpacing: 1
BeatDivisor: 4
GridSize: 4

[Metadata]
Title:Dstrukt
Artist:Hecq
Creator:grumd
Version:Hard
Source:
Tags:breakbeat orchestra loctav ben lukas boysen destruct

[Difficulty]
HPDrainRate:6
CircleSize:4
OverallDifficulty:6
ApproachRate:8
SliderMultiplier:1
SliderTickRate:1

[Events]
//Background and Video events
0,0,"318009-1024x768.jpg"
//Break Periods
2,22750,29300
2,45250,51800
//Storyboard Layer 0 (Background)
//Storyboard Layer 1 (Fail)
//Storyboard Layer 2 (Pass)
//Storyboard Layer 3 (Foreground)
//Storyboard Sound Samples
//Background Colour Transformations
3,100,0,0,0

[TimingPoints]
7550,234.375,4,1,0,40,1,0
7608,-100,4,2,0,50,0,0
8253,-100,4,1,0,40,0,0
8311,-100,4,2,0,50,0,0
8604,-100,4,1,0,40,0,0
8721,-100,4,1,0,30,0,0
8780,-100,4,2,0,50,0,0
8956,-100,4,1,0,40,0,0
9014,-100,4,2,0,50,0,0
9425,-100,4,1,0,40,0,0
9483,-100,4,2,0,50,0,0
9776,-100,4,1,0,40,0,0
9835,-100,4,2,0,50,0,0
11300,-100,4,1,0,40,0,0
11358,-100,4,2,0,50,0,0
11885,-100,4,1,0,40,0,0
11944,-100,4,2,0,50,0,0
12120,-100,4,1,0,35,0,0
12178,-100,4,2,0,50,0,0
12706,-100,4,1,0,40,0,0
12823,-100,4,1,0,35,0,0
12882,-100,4,2,0,50,0,0
13643,-100,4,1,0,35,0,0
14053,-100,4,2,0,50,0,0
14581,-100,4,2,0,30,0,0
15050,-100,4,1,0,50,0,0
15108,-100,4,2,0,60,0,0
15225,-100,4,2,0,50,0,0
15753,-100,4,1,0,40,0,0
15811,-100,4,2,0,50,0,0
16221,-100,4,1,0,35,0,0
16280,-100,4,2,0,50,0,0
16456,-100,4,1,0,35,0,0
16514,-100,4,2,0,50,0,0
16925,-100,4,1,0,40,0,0
16983,-100,4,2,0,50,0,0
17276,-100,4,1,0,40,0,0
17335,-100,4,2,0,50,0,0
18800,-100,4,1,0,40,0,0
18858,-100,4,2,0,50,0,0
19385,-100,4,1,0,35,0,0
19737,-100,4,2,0,50,0,0
20206,-100,4,1,0,40,0,0
20264,-100,4,2,0,50,0,0
21143,-100,4,1,0,30,0,0
21553,-100,4,2,0,50,0,0
30050,-100,4,1,0,40,0,0
30108,-100,4,2,0,50,0,0
30401,-100,4,1,0,30,0,0
30518,-100,4,2,0,50,0,0
30753,-100,4,1,0,30,0,0
30811,-100,4,2,0,50,0,0
31925,-100,4,1,0,40,0,0
31983,-100,4,2,0,50,0,0
32628,-100,4,1,0,30,0,0
32862,-100,4,2,0,50,0,0
33800,-100,4,1,0,40,0,0
33858,-100,4,2,0,50,0,0
34151,-100,4,1,0,30,0,0
34210,-100,4,2,0,50,0,0
34503,-100,4,1,0,35,0,0
34737,-100,4,2,0,50,0,0
35675,-100,4,1,0,40,0,0
35733,-100,4,2,0,50,0,0
36378,-100,4,1,0,40,0,0
36436,-100,4,2,0,50,0,0
37550,-100,4,1,0,40,0,0
37608,-100,4,2,0,50,0,0
37784,-100,4,1,0,30,0,0
37901,-100,4,1,0,40,0,0
38018,-100,4,1,0,30,0,0
38077,-100,4,2,0,50,0,0
38253,-100,4,1,0,30,0,0
38370,-100,4,2,0,50,0,0
39425,-100,4,1,0,40,0,0
39483,-100,4,2,0,50,0,0
40128,-100,4,1,0,35,0,0
40362,-100,4,2,0,50,0,0
41300,-100,4,1,0,40,0,0
41358,-100,4,2,0,50,0,0
41651,-100,4,1,0,30,0,0
41710,-100,4,2,0,50,0,0
42003,-100,4,1,0,30,0,0
42237,-100,4,2,0,50,0,0
43175,-100,4,1,0,40,0,0
43233,-100,4,2,0,50,0,0
43878,-100,4,1,0,35,0,0
44112,-100,4,2,0,50,0,0
44346,-100,4,1,0,35,0,0
44405,-100,4,2,0,50,0,0
52550,-100,4,1,0,35,0,0
65675,-100,4,1,0,40,0,0
66143,-100,4,1,0,45,0,0
66612,-100,4,1,0,50,0,0
67081,-100,4,1,0,55,0,0
67608,-100,4,2,0,50,0,0
68253,-100,4,1,0,40,0,0
68311,-100,4,2,0,50,0,0
68956,-100,4,1,0,40,0,0
69014,-100,4,2,0,50,0,0
69425,-100,4,1,0,40,0,0
69483,-100,4,2,0,50,0,0
70128,-100,4,1,0,35,0,0
70186,-100,4,1,0,30,0,0
70362,-100,4,2,0,50,0,0
70831,-100,4,1,0,30,0,0
70889,-100,4,2,0,50,0,0
71300,-100,4,1,0,40,0,0
71358,-100,4,2,0,50,0,0
72003,-100,4,1,0,30,0,0
72471,-100,4,2,0,45,0,0
72940,-100,4,1,0,30,0,0
73175,-100,4,2,0,50,0,0
73643,-100,4,1,0,40,0,0
74112,-100,4,2,0,50,0,0
74346,-100,4,1,0,30,0,0
74405,-100,4,2,0,30,0,0
74932,-166.666666666667,4,2,0,30,0,0
78800,-100,4,1,0,30,0,0
83487,-100,4,2,0,40,0,0
84425,-100,4,2,0,30,0,0
85362,-100,4,2,0,10,0,0

[Colours]
Combo1 : 169,199,165
Combo2 : 125,145,181
Combo3 : 111,111,111

[HitObjects]
458,174,7550,2,0,B|360:190,1,100,0|2
335,194,7901,1,2
310,198,8018,1,2
285,202,8135,1,2
260,206,8253,1,0
173,256,8487,1,8
173,256,8604,2,0,B|122:235|99:187,1,100,0|0
100,190,8956,2,0,B|125:144|118:90,1,100,0|2
215,67,9425,6,0,B|282:29|363:42,2,150,0|0|0
253,159,10362,2,0,B|305:166|345:198,1,100,8|0
344,197,10714,2,0,B|346:247|380:292,1,100,8|0
378,289,11065,1,8
289,335,11300,6,0,B|176:317,1,100,0|2
92,301,11768,1,2
92,301,11885,2,0,B|71:255|81:204,1,100
81,203,12237,2,0,B|88:160|88:160|72:100,2,100,8|0|0
203,44,13175,6,0,B|256:38|301:63,1,100,8|0
373,129,13643,1,0
373,129,13760,1,0
373,129,13878,1,0
429,210,14112,2,0,B|414:314,2,100,8|0|0
265,326,15050,5,0
240,320,15167,1,0
215,314,15284,2,2,B|120:289,1,100
94,280,15635,2,0,B|86:226|43:193,1,100
23,182,15987,2,0,B|11:129|33:85,1,100,8|0
128,54,16456,1,0
223,81,16690,1,2
287,159,16925,6,0,B|290:207|330:246,1,100,0|2
330,246,17276,2,0,B|307:344,1,100,0|2
307,343,17628,1,0
205,344,17862,2,0,B|181:246,1,100,8|0
181,246,18214,2,0,B|132:236|80:260,1,100,8|0
83,258,18565,1,8
38,169,18800,6,0,B|64:134|64:134|111:101,1,100,0|2
207,121,19268,1,2
207,121,19385,2,0,B|253:148|304:144,1,100
302,144,19737,2,0,B|345:136|345:136|408:144,2,100,8|0|0
256,232,20440,1,0
256,332,20675,6,0,B|256:380,2,50,8|0|0
343,283,21143,1,0
351,259,21260,1,0
360,235,21378,1,0
369,211,21495,1,0
378,187,21612,6,0,B|413:85,2,100,8|0|0
283,219,22315,1,0
243,127,22550,1,0
40,240,30050,5,0
64,236,30167,1,2
88,232,30284,1,2
112,229,30401,1,0
136,225,30518,2,0,B|241:208,1,100,2|0
310,275,30987,2,0,B|358:297|409:286,1,100,8|0
456,198,31456,1,2
433,186,31573,1,0
413,169,31690,1,2
399,147,31807,1,2
392,122,31925,6,0,B|351:92|296:96,1,100,0|2
297,95,32276,2,0,B|271:141|219:157,1,100,0|2
196,160,32628,1,0
171,161,32745,1,0
146,156,32862,1,8
59,106,33096,1,0
59,106,33214,1,2
11,193,33448,1,0
11,193,33565,1,2
98,242,33800,6,0,B|125:341,1,100,0|2
124,338,34151,2,0,B|172:358|224:345,1,100,0|2
246,337,34503,1,0
267,324,34620,1,0
285,307,34737,1,8
392,292,34971,1,0
325,216,35206,1,0
423,197,35440,1,2
452,101,35675,5,0
452,101,35792,1,0
452,101,35909,2,0,B|412:86|412:86|351:93,1,100,2|0
330,96,36260,1,2
305,99,36378,1,0
280,102,36495,1,0
255,105,36612,1,8
160,73,36846,2,0,B|117:45|64:55,2,100,0|2|0
177,172,37550,5,0
168,195,37667,1,0
159,218,37784,2,0,B|142:255|142:255|97:294,1,100,0|0
79,311,38135,2,0,B|129:316|170:350,1,100,2|0
186,367,38487,1,8
267,309,38721,2,0,B|319:319,2,50,0|0|2
243,211,39190,1,2
317,141,39425,6,0,B|370:138|408:100,1,100,0|2
406,101,39776,2,0,B|436:197,1,100,0|2
444,220,40128,1,0
451,244,40245,1,0
459,267,40362,1,8
387,336,40596,1,0
387,336,40714,2,0,B|340:314|290:323,1,100,2|0
289,323,41065,1,2
195,358,41300,6,0,B|99:335,1,100,0|2
97,334,41651,2,0,B|103:281|79:236,1,100,0|2
68,215,42003,1,0
53,194,42120,1,0
34,177,42237,1,8
99,101,42471,1,2
197,80,42706,1,0
294,102,42940,1,2
369,168,43175,5,0
369,168,43292,1,0
369,168,43409,2,0,B|344:211|345:264,1,100,2|0
323,275,43760,1,2
301,287,43878,1,0
279,299,43995,1,0
256,310,44112,6,0,B|217:329|217:329|157:339,2,100,8|0|2
256,209,44815,1,0
256,108,45050,1,0
86,73,52550,6,0,B|75:122,3,50
91,140,53018,2,0,B|80:189,3,50
89,212,53487,2,0,B|139:224|167:272,1,100,4|0
266,280,53956,2,0,B|312:307|365:294,1,100
436,224,54425,6,0,B|416:177,3,50
393,172,54893,2,0,B|373:125,3,50
349,116,55362,2,0,B|309:102|309:102|249:108,1,100,4|0
169,164,55831,2,0,B|111:169|111:169|71:155,1,100
26,245,56300,6,0,B|76:267,3,50
77,289,56768,2,0,B|127:311,3,50
132,332,57237,2,0,B|177:311|229:324,1,100,4|0
319,367,57706,1,0
364,277,57940,1,0
449,224,58175,6,0,B|466:176,3,50
456,153,58643,2,0,B|473:105,3,50,0|0|0|0
457,86,59112,2,0,B|360:102,1,100
268,58,59581,2,0,B|171:74,1,100
79,118,60050,6,0,B|64:164,3,50,0|0|0|0
72,188,60518,2,0,B|57:234,3,50,0|0|0|0
70,256,60987,1,4
147,319,61221,1,0
184,225,61456,1,0
264,284,61690,1,0
359,254,61925,6,0,B|374:202,3,50
365,182,62393,2,0,B|380:130,3,50
367,111,62862,1,4
293,42,63096,1,0
271,139,63331,1,0
367,111,63565,1,0
293,42,63800,6,0,B|246:31,3,50
223,43,64268,2,0,B|176:32,3,50,0|0|0|0
150,38,64737,2,0,B|132:86|83:111,1,100,4|0
51,205,65206,2,0,B|62:259|112:286,1,100
205,312,65675,6,0,B|254:300,3,50
263,277,66143,2,0,B|309:256,3,50
312,231,66612,2,0,B|353:202,3,50
349,178,67081,2,0,B|385:143,3,50
382,118,67550,6,0,B|388:63|424:31,2,100,0|0|2
287,84,68253,1,0
191,111,68487,2,0,B|172:158|124:184,1,100,8|2
101,193,68839,1,0
76,199,68956,1,0
37,107,69190,1,2
76,199,69425,6,0,B|116:294,1,100,0|2
139,294,69776,1,0
162,302,69893,1,2
183,315,70010,1,2
200,333,70128,2,0,B|252:323|299:348,1,100,0|8
388,306,70596,2,0,B|396:268|396:268|386:207,1,100
386,207,70948,2,0,B|335:193|314:142,1,100,0|2
314,143,71300,5,0
237,78,71534,1,2
212,71,71651,1,2
187,64,71768,1,2
162,57,71885,1,2
137,50,72003,2,0,B|88:36,2,50
139,149,72471,2,0,B|188:163,2,50,2|2|2
56,206,72940,1,0
96,297,73175,5,8
192,323,73409,2,0,B|217:313|217:313|264:317|264:317|289:308,1,100
304,282,73760,1,0
318,255,73878,1,0
417,261,74112,1,8
470,176,74346,1,0
418,90,74581,1,0
418,90,75050,6,0,B|336:44|244:74,1,180.000004291535
191,103,75987,2,0,B|170:100|152:90,2,40.0000009536743
207,139,76456,2,0,B|232:162|241:195,1,60.0000014305115
260,235,76866,2,0,B|301:243|345:230|345:230|400:276|395:358,1,225.000005364418
335,362,77979,2,0,B|283:327|207:335,1,120.000002861023
171,239,78800,6,0,B|119:237|75:202,2,100
255,184,79503,1,0
339,239,79737,2,0,B|391:237|435:202,2,100
255,184,80440,1,0
171,239,80675,6,0,B|117:222,1,50
171,212,80909,2,0,B|123:181,1,50
178,186,81143,2,0,B|139:144,1,50
191,167,81378,2,0,B|164:117,1,50
209,149,81612,2,0,B|197:94,1,50
231,137,81846,2,0,B|233:81,1,50
258,130,82081,2,0,B|273:76,1,50
285,129,82315,2,0,B|315:82,1,50
306,137,82550,5,0
256,192,82784,12,0,85362
