osu file format v9

[General]
AudioFilename: h_destruct.mp3
AudioLeadIn: 0
PreviewTime: 30050
Countdown: 0
SampleSet: Soft
StackLeniency: 0.7
Mode: 0
LetterboxInBreaks: 1

[Editor]
Bookmarks: 7550,22550,30050
DistanceSpacing: 1
BeatDivisor: 2
GridSize: 4

[Metadata]
Title:Dstrukt
Artist:Hecq
Creator:grumd
Version:Easy
Source:
Tags:breakbeat orchestra loctav ben lukas boysen destruct

[Difficulty]
HPDrainRate:1
CircleSize:3
OverallDifficulty:2
ApproachRate:3
SliderMultiplier:0.5
SliderTickRate:1

[Events]
//Background and Video events
0,0,"318009-1024x768.jpg"
//Break Periods
2,22749,28610
2,45249,51110
//Storyboard Layer 0 (Background)
//Storyboard Layer 1 (Fail)
//Storyboard Layer 2 (Pass)
//Storyboard Layer 3 (Foreground)
//Storyboard Sound Samples
//Background Colour Transformations
3,100,0,0,0

[TimingPoints]
7550,234.375,4,1,0,40,1,0
7608,-100,4,2,0,50,0,0
8253,-100,4,1,0,40,0,0
8311,-100,4,2,0,50,0,0
8604,-100,4,1,0,40,0,0
8721,-100,4,1,0,30,0,0
8780,-100,4,2,0,50,0,0
8956,-100,4,1,0,40,0,0
9014,-100,4,2,0,50,0,0
9425,-100,4,1,0,40,0,0
9483,-100,4,2,0,50,0,0
9776,-100,4,1,0,40,0,0
9835,-100,4,2,0,50,0,0
11300,-100,4,1,0,40,0,0
11358,-100,4,2,0,50,0,0
11885,-100,4,1,0,40,0,0
11944,-100,4,2,0,50,0,0
12120,-100,4,1,0,35,0,0
12178,-100,4,2,0,50,0,0
12706,-100,4,1,0,40,0,0
12823,-100,4,1,0,35,0,0
12882,-100,4,2,0,50,0,0
13643,-100,4,1,0,35,0,0
14053,-100,4,2,0,50,0,0
14581,-100,4,2,0,30,0,0
15050,-100,4,1,0,50,0,0
15108,-100,4,2,0,60,0,0
15225,-100,4,2,0,50,0,0
15753,-100,4,1,0,40,0,0
15811,-100,4,2,0,50,0,0
16221,-100,4,1,0,35,0,0
16280,-100,4,2,0,50,0,0
16456,-100,4,1,0,35,0,0
16514,-100,4,2,0,50,0,0
16690,-100,4,1,0,35,0,0
16749,-100,4,2,0,50,0,0
16925,-100,4,1,0,40,0,0
16983,-100,4,2,0,50,0,0
17276,-100,4,1,0,40,0,0
17335,-100,4,2,0,50,0,0
18800,-100,4,1,0,40,0,0
18858,-100,4,2,0,50,0,0
19385,-100,4,1,0,35,0,0
19737,-100,4,2,0,50,0,0
20206,-100,4,1,0,40,0,0
20264,-100,4,2,0,50,0,0
21143,-100,4,1,0,30,0,0
21553,-100,4,2,0,50,0,0
30050,-100,4,1,0,40,0,0
30108,-100,4,2,0,50,0,0
30401,-100,4,1,0,30,0,0
30518,-100,4,2,0,50,0,0
30753,-100,4,1,0,30,0,0
30811,-100,4,2,0,50,0,0
31925,-100,4,1,0,40,0,0
31983,-100,4,2,0,50,0,0
32628,-100,4,1,0,30,0,0
32862,-100,4,2,0,50,0,0
33800,-100,4,1,0,40,0,0
33858,-100,4,2,0,50,0,0
34151,-100,4,1,0,30,0,0
34210,-100,4,2,0,50,0,0
34503,-100,4,1,0,35,0,0
34737,-100,4,2,0,50,0,0
35675,-100,4,1,0,40,0,0
35733,-100,4,2,0,50,0,0
36378,-100,4,1,0,40,0,0
36436,-100,4,2,0,50,0,0
37550,-100,4,1,0,40,0,0
37608,-100,4,2,0,50,0,0
37784,-100,4,1,0,30,0,0
37901,-100,4,1,0,40,0,0
38018,-100,4,1,0,30,0,0
38077,-100,4,2,0,50,0,0
38253,-100,4,1,0,30,0,0
38370,-100,4,2,0,50,0,0
39425,-100,4,1,0,40,0,0
39483,-100,4,2,0,50,0,0
40128,-100,4,1,0,35,0,0
40362,-100,4,2,0,50,0,0
41300,-100,4,1,0,40,0,0
41358,-100,4,2,0,50,0,0
41651,-100,4,1,0,30,0,0
41710,-100,4,2,0,50,0,0
42003,-100,4,1,0,30,0,0
42237,-100,4,2,0,50,0,0
43175,-100,4,1,0,40,0,0
43233,-100,4,2,0,50,0,0
43878,-100,4,1,0,35,0,0
44112,-100,4,2,0,50,0,0
44346,-100,4,1,0,35,0,0
44405,-100,4,2,0,50,0,0
52550,-100,4,1,0,35,0,0
65675,-100,4,1,0,40,0,0
66143,-100,4,1,0,45,0,0
66612,-100,4,1,0,50,0,0
67081,-100,4,1,0,55,0,0
67608,-100,4,2,0,50,0,0
68487,-100,4,1,0,40,0,0
68604,-100,4,2,0,50,0,0
68956,-100,4,1,0,40,0,0
69014,-100,4,2,0,50,0,0
69425,-100,4,1,0,40,0,0
69483,-100,4,2,0,50,0,0
70128,-100,4,1,0,35,0,0
70186,-100,4,1,0,30,0,0
70362,-100,4,2,0,50,0,0
70714,-100,4,1,0,30,0,0
70831,-100,4,2,0,50,0,0
71300,-100,4,1,0,40,0,0
71358,-100,4,2,0,50,0,0
72003,-100,4,1,0,30,0,0
72471,-100,4,2,0,45,0,0
72940,-100,4,1,0,30,0,0
73175,-100,4,2,0,50,0,0
73643,-100,4,1,0,40,0,0
74112,-100,4,2,0,50,0,0
74346,-100,4,1,0,30,0,0
74405,-100,4,2,0,30,0,0
78800,-100,4,1,0,30,0,0
83487,-100,4,2,0,40,0,0
84425,-100,4,2,0,30,0,0
85362,-100,4,2,0,10,0,0

[Colours]
Combo1 : 169,199,165
Combo2 : 125,145,181
Combo3 : 111,111,111

[HitObjects]
61,294,7550,2,0,B|130:324|210:307,1,150
254,289,8487,2,0,B|274:191,1,100,8|0
334,110,9425,6,0,B|412:99,2,75
284,110,10362,2,0,B|208:98,2,75,8|8|8
309,153,11300,6,0,B|340:196|340:196|355:294,1,150,0|2
321,329,12237,2,0,B|276:304|224:306,1,100,8|0
142,248,13175,6,0,B|145:195|183:149,1,100,8|0
264,106,14112,1,8
176,57,14581,1,0
83,94,15050,6,0,B|90:170|47:238,1,150
24,280,15987,2,0,B|46:330|95:350,1,100,8|0
192,339,16925,6,0,B|239:272|315:263,1,150
365,262,17862,2,0,B|330:190|360:115,1,150,8|0
382,72,18800,6,0,B|284:52,1,100,0|2
269,150,19737,2,0,B|171:130,1,100,8|0
80,172,20675,2,0,B|108:276|40:364,2,200,8|8|0
452,148,30050,6,0,B|408:212|324:223,1,150
277,225,30987,2,0,B|228:167|146:150,1,150,8|0
99,149,31925,6,0,B|72:52,2,100,0|0|8
57,240,33331,1,0
139,296,33800,6,0,B|180:264|239:267,1,100
330,288,34737,1,8
418,241,35206,1,2
404,141,35675,6,0,B|322:146|262:101,1,150
229,64,36612,2,0,B|183:89|130:81,1,100,8|0
43,127,37550,6,0,B|36:209|90:274,1,150
121,300,38487,1,8
183,221,38956,1,0
174,121,39425,6,0,B|233:114|233:114|323:129,1,150
371,139,40362,2,0,B|392:212,2,75,8|2|2
322,128,41300,6,0,B|285:201|210:223,1,150,0|0
162,234,42237,1,8
62,222,42706,1,2
123,142,43175,6,0,B|172:127|203:87,1,100,0|2
299,115,44112,2,0,B|395:142,2,100,8|2|0
90,114,52550,6,0,B|242:128,1,150
289,132,53487,1,4
422,270,54425,6,0,B|270:256,1,150
223,252,55362,1,4
128,75,56300,6,0,B|169:44|220:38,2,100,0|0|4
77,161,57706,1,0
124,249,58175,6,0,B|128:300|99:346,2,100
180,166,59581,1,0
251,95,60050,6,0,B|322:126|404:112,1,150
446,101,60987,1,4
382,290,61925,6,0,B|311:259|229:273,1,150
187,284,62862,1,4
163,85,63800,6,0,B|145:186,2,100,0|0|4
257,52,65206,1,0
349,85,65675,6,0,B|367:186,2,100
257,52,67081,1,0
246,151,67550,6,0,B|236:224|182:285,1,150,0|2
149,321,68487,2,0,B|108:293|53:293,2,100,0|0|0
237,368,69893,5,0
332,337,70362,2,0,B|402:296|432:228,1,150,8|2
442,179,71300,2,0,B|341:160,1,100,0|2
289,76,72237,6,0,B|390:57,2,100,0|2|8
211,139,73643,2,0,B|201:191|160:224,1,100,0|8
69,263,74581,1,2
146,326,75050,6,0,B|246:335|343:280,1,200
396,201,76456,1,0
434,108,76925,2,0,B|364:80|289:136|298:207,1,200
121,298,78800,6,0,B|222:272|319:314,1,200
397,253,80206,1,0
411,153,80675,2,0,B|347:201|264:163|261:92,2,200,0|0|4
256,192,82784,12,0,85362
