osu file format v14

[General]
AudioFilename: h_destruct.mp3
AudioLeadIn: 0
PreviewTime: 30054
Countdown: 0
SampleSet: Soft
StackLeniency: 0.7
Mode: 3
LetterboxInBreaks: 0
SpecialStyle: 1
WidescreenStoryboard: 1

[Editor]
DistanceSpacing: 0.5
BeatDivisor: 8
GridSize: 4
TimelineZoom: 2.799998

[Metadata]
Title:Dstrukt
TitleUnicode:Dstrukt
Artist:Hecq
ArtistUnicode:Hecq
Creator:YunoFanatic
Version:8K Obliteration obj. Kamikaze
Source:
Tags:breakbeat orchestra -kamikaze- takane6 dosyeru
BeatmapID:689652
BeatmapSetID:307810

[Difficulty]
HPDrainRate:8
CircleSize:8
OverallDifficulty:9
ApproachRate:5
SliderMultiplier:1.4
SliderTickRate:1

[Events]
//Background and Video events
0,0,"318009-1024x768.jpg",0,0
//Break Periods
//Storyboard Layer 0 (Background)
//Storyboard Layer 1 (Fail)
//Storyboard Layer 2 (Pass)
//Storyboard Layer 3 (Foreground)
//Storyboard Sound Samples

[TimingPoints]
60,234.375,4,2,0,30,1,0

[HitObjects]
96,192,60,5,0,0:0:0:0:
480,192,60,1,0,0:0:0:0:
352,192,294,1,0,0:0:0:0:
224,192,352,1,0,0:0:0:0:
96,192,411,1,0,0:0:0:0:
480,192,411,1,0,0:0:0:0:
352,192,645,1,0,0:0:0:0:
224,192,704,1,0,0:0:0:0:
96,192,763,1,0,0:0:0:0:
480,192,763,1,0,0:0:0:0:
32,192,997,1,4,0:0:0:0:
352,192,997,1,0,0:0:0:0:
160,192,997,1,8,0:0:0:0:
352,192,1114,1,0,0:0:0:0:
224,192,1231,1,0,0:0:0:0:
224,192,1349,1,0,0:0:0:0:
96,192,1466,1,0,0:0:0:0:
480,192,1466,1,0,0:0:0:0:
288,192,1700,1,0,0:0:0:0:
352,192,1759,1,0,0:0:0:0:
416,192,1817,1,0,0:0:0:0:
480,192,1935,1,0,0:0:0:0:
224,192,1935,1,0,0:0:0:0:
224,192,2169,1,0,0:0:0:0:
480,192,2169,1,0,0:0:0:0:
288,192,2403,1,0,0:0:0:0:
224,192,2462,1,0,0:0:0:0:
160,192,2520,1,0,0:0:0:0:
96,192,2638,1,0,0:0:0:0:
352,192,2638,1,0,0:0:0:0:
32,192,2872,1,4,0:0:0:0:
416,192,2872,1,0,0:0:0:0:
224,192,2872,1,8,0:0:0:0:
416,192,2989,1,0,0:0:0:0:
160,192,3106,1,0,0:0:0:0:
160,192,3224,1,0,0:0:0:0:
32,192,3341,1,0,0:0:0:0:
32,192,3517,1,0,0:0:0:0:
32,192,3692,1,0,0:0:0:0:
224,192,3810,1,0,0:0:0:0:
352,192,3810,1,0,0:0:0:0:
96,192,4044,1,0,0:0:0:0:
160,192,4102,1,0,0:0:0:0:
224,192,4161,1,0,0:0:0:0:
352,192,4161,1,0,0:0:0:0:
480,192,4395,1,0,0:0:0:0:
416,192,4454,1,0,0:0:0:0:
352,192,4513,1,0,0:0:0:0:
224,192,4513,1,0,0:0:0:0:
32,192,4747,1,4,0:0:0:0:
96,192,4747,1,8,0:0:0:0:
288,192,4747,1,0,0:0:0:0:
288,192,4864,1,0,0:0:0:0:
416,192,4981,1,0,0:0:0:0:
416,192,5099,1,0,0:0:0:0:
224,192,5216,1,0,0:0:0:0:
480,192,5216,1,0,0:0:0:0:
416,192,5450,1,0,0:0:0:0:
288,192,5509,1,0,0:0:0:0:
160,192,5567,1,0,0:0:0:0:
224,192,5685,1,0,0:0:0:0:
352,192,5685,1,0,0:0:0:0:
224,192,5919,1,0,0:0:0:0:
352,192,5919,1,0,0:0:0:0:
160,192,6153,1,0,0:0:0:0:
416,192,6212,1,0,0:0:0:0:
160,192,6270,1,0,0:0:0:0:
416,192,6329,1,0,0:0:0:0:
160,192,6388,1,0,0:0:0:0:
288,192,6388,1,0,0:0:0:0:
32,192,6622,128,0,7560:0:0:0:0:
480,192,6622,1,0,0:0:0:0:
224,192,7560,1,0,0:0:0:0:
480,192,7560,1,0,0:0:0:0:
416,192,7794,1,0,0:0:0:0:
160,192,7794,1,0,0:0:0:0:
352,192,7911,1,0,0:0:0:0:
96,192,7911,1,0,0:0:0:0:
416,192,8028,1,0,0:0:0:0:
160,192,8028,1,0,0:0:0:0:
352,192,8145,1,0,0:0:0:0:
96,192,8145,1,0,0:0:0:0:
224,192,8263,1,0,0:0:0:0:
288,192,8263,1,0,0:0:0:0:
160,192,8497,1,0,0:0:0:0:
480,192,8497,1,0,0:0:0:0:
32,192,8497,1,8,0:0:0:0:
416,192,8614,1,0,0:0:0:0:
224,192,8614,1,0,0:0:0:0:
352,192,8731,1,0,0:0:0:0:
160,192,8731,1,0,0:0:0:0:
96,192,8849,1,0,0:0:0:0:
288,192,8849,1,0,0:0:0:0:
160,192,8966,1,0,0:0:0:0:
416,192,8966,1,0,0:0:0:0:
480,192,9083,1,2,0:0:0:0:
480,192,9200,1,2,0:0:0:0:
96,192,9200,1,0,0:0:0:0:
480,192,9317,1,2,0:0:0:0:
224,192,9317,1,0,0:0:0:0:
416,192,9435,1,0,0:0:0:0:
160,192,9435,1,0,0:0:0:0:
352,192,9669,1,0,0:0:0:0:
224,192,9786,1,0,0:0:0:0:
96,192,9786,1,0,0:0:0:0:
480,192,9903,1,0,0:0:0:0:
352,192,10020,1,0,0:0:0:0:
96,192,10020,1,0,0:0:0:0:
224,192,10138,1,0,0:0:0:0:
288,192,10255,1,0,0:0:0:0:
32,192,10372,1,4,0:0:0:0:
96,192,10372,1,8,0:0:0:0:
352,192,10372,1,2,0:0:0:0:
416,192,10489,1,2,0:0:0:0:
352,192,10606,1,2,0:0:0:0:
288,192,10606,1,0,0:0:0:0:
32,192,10724,1,4,0:0:0:0:
224,192,10724,1,2,0:0:0:0:
480,192,10724,1,0,0:0:0:0:
160,192,10841,1,2,0:0:0:0:
224,192,10958,1,2,0:0:0:0:
288,192,10958,1,0,0:0:0:0:
32,192,11075,1,4,0:0:0:0:
352,192,11075,128,0,11310:0:0:0:0:
96,192,11075,1,8,0:0:0:0:
160,192,11310,1,0,0:0:0:0:
416,192,11310,1,0,0:0:0:0:
480,192,11310,1,0,0:0:0:0:
224,192,11427,1,0,0:0:0:0:
32,192,11544,128,0,11778:0:0:0:0:
352,192,11544,1,0,0:0:0:0:
288,192,11778,1,0,0:0:0:0:
160,192,11895,1,0,0:0:0:0:
96,192,11895,1,0,0:0:0:0:
416,192,11895,1,0,0:0:0:0:
96,192,12130,1,0,0:0:0:0:
416,192,12130,1,0,0:0:0:0:
32,192,12247,1,8,0:0:0:0:
224,192,12247,1,0,0:0:0:0:
352,192,12247,1,0,0:0:0:0:
288,192,12364,1,0,0:0:0:0:
96,192,12481,1,0,0:0:0:0:
160,192,12511,1,0,0:0:0:0:
224,192,12540,1,0,0:0:0:0:
288,192,12569,1,0,0:0:0:0:
352,192,12599,1,0,0:0:0:0:
480,192,12716,1,0,0:0:0:0:
416,192,12745,1,0,0:0:0:0:
352,192,12774,1,0,0:0:0:0:
288,192,12804,1,0,0:0:0:0:
224,192,12833,1,0,0:0:0:0:
160,192,12862,1,0,0:0:0:0:
96,192,12892,1,0,0:0:0:0:
224,192,13067,1,0,0:0:0:0:
32,192,13185,1,0,0:0:0:0:
416,192,13185,1,0,0:0:0:0:
160,192,13185,1,0,0:0:0:0:
288,192,13185,1,0,0:0:0:0:
480,192,13419,1,0,0:0:0:0:
416,192,13477,1,0,0:0:0:0:
352,192,13536,1,0,0:0:0:0:
96,192,13653,1,0,0:0:0:0:
160,192,13692,1,0,0:0:0:0:
224,192,13731,1,0,0:0:0:0:
288,192,13770,1,0,0:0:0:0:
352,192,13810,1,0,0:0:0:0:
416,192,13849,1,0,0:0:0:0:
352,192,13888,1,0,0:0:0:0:
352,192,14005,1,0,0:0:0:0:
32,192,14122,1,8,0:0:0:0:
352,192,14122,1,0,0:0:0:0:
96,192,14122,1,0,0:0:0:0:
160,192,14122,1,0,0:0:0:0:
224,192,14122,1,0,0:0:0:0:
288,192,14356,1,0,0:0:0:0:
160,192,14356,1,0,0:0:0:0:
416,192,14356,1,0,0:0:0:0:
352,192,14591,1,2,0:0:0:0:
224,192,14630,1,2,0:0:0:0:
352,192,14669,1,2,0:0:0:0:
224,192,14708,1,2,0:0:0:0:
352,192,14747,1,2,0:0:0:0:
224,192,14786,1,2,0:0:0:0:
352,192,14825,1,2,0:0:0:0:
224,192,14864,1,2,0:0:0:0:
352,192,14903,1,2,0:0:0:0:
32,192,14942,128,0,15060:0:0:0:0:
224,192,14942,1,2,0:0:0:0:
96,192,15060,1,0,0:0:0:0:
480,192,15060,1,0,0:0:0:0:
288,192,15060,1,0,0:0:0:0:
224,192,15177,1,0,0:0:0:0:
160,192,15294,1,0,0:0:0:0:
416,192,15294,1,0,0:0:0:0:
160,192,15411,1,0,0:0:0:0:
160,192,15528,1,0,0:0:0:0:
352,192,15528,1,0,0:0:0:0:
160,192,15645,1,0,0:0:0:0:
224,192,15763,1,0,0:0:0:0:
288,192,15763,1,0,0:0:0:0:
352,192,15880,1,0,0:0:0:0:
32,192,15997,1,8,0:0:0:0:
480,192,15997,1,0,0:0:0:0:
416,192,15997,1,0,0:0:0:0:
96,192,15997,1,0,0:0:0:0:
160,192,16114,1,0,0:0:0:0:
288,192,16114,1,0,0:0:0:0:
352,192,16231,1,0,0:0:0:0:
224,192,16231,1,0,0:0:0:0:
288,192,16349,1,0,0:0:0:0:
96,192,16466,1,0,0:0:0:0:
480,192,16466,1,0,0:0:0:0:
160,192,16583,1,0,0:0:0:0:
416,192,16583,1,2,0:0:0:0:
416,192,16700,1,2,0:0:0:0:
224,192,16700,1,0,0:0:0:0:
288,192,16700,1,0,0:0:0:0:
160,192,16817,1,0,0:0:0:0:
96,192,16817,1,0,0:0:0:0:
416,192,16817,1,2,0:0:0:0:
224,192,16935,1,0,0:0:0:0:
480,192,16935,1,0,0:0:0:0:
352,192,16935,1,0,0:0:0:0:
288,192,17169,1,0,0:0:0:0:
416,192,17169,1,0,0:0:0:0:
96,192,17286,1,0,0:0:0:0:
224,192,17286,1,0,0:0:0:0:
480,192,17286,1,0,0:0:0:0:
352,192,17403,1,0,0:0:0:0:
480,192,17520,1,0,0:0:0:0:
288,192,17520,1,0,0:0:0:0:
160,192,17638,1,0,0:0:0:0:
224,192,17755,1,0,0:0:0:0:
32,192,17872,1,4,0:0:0:0:
96,192,17872,1,8,0:0:0:0:
480,192,17872,1,0,0:0:0:0:
416,192,17989,1,0,0:0:0:0:
352,192,18106,1,0,0:0:0:0:
160,192,18106,1,0,0:0:0:0:
32,192,18224,1,4,0:0:0:0:
96,192,18224,1,8,0:0:0:0:
480,192,18224,1,0,0:0:0:0:
160,192,18341,1,0,0:0:0:0:
224,192,18458,1,0,0:0:0:0:
416,192,18458,1,0,0:0:0:0:
32,192,18575,1,4,0:0:0:0:
96,192,18575,1,8,0:0:0:0:
352,192,18575,1,0,0:0:0:0:
224,192,18692,1,0,0:0:0:0:
352,192,18810,1,0,0:0:0:0:
160,192,18810,1,0,0:0:0:0:
480,192,18810,1,0,0:0:0:0:
96,192,18927,1,0,0:0:0:0:
32,192,19044,128,0,19278:0:0:0:0:
288,192,19044,1,0,0:0:0:0:
480,192,19278,1,0,0:0:0:0:
352,192,19395,1,0,0:0:0:0:
224,192,19395,1,0,0:0:0:0:
224,192,19630,1,0,0:0:0:0:
352,192,19630,1,0,0:0:0:0:
32,192,19747,1,8,0:0:0:0:
160,192,19747,1,0,0:0:0:0:
416,192,19747,1,0,0:0:0:0:
288,192,19864,1,0,0:0:0:0:
416,192,19981,1,0,0:0:0:0:
32,192,19981,1,2,0:0:0:0:
352,192,20011,1,0,0:0:0:0:
288,192,20040,1,0,0:0:0:0:
224,192,20069,1,0,0:0:0:0:
160,192,20099,1,0,0:0:0:0:
96,192,20216,1,0,0:0:0:0:
32,192,20216,1,2,0:0:0:0:
160,192,20245,1,0,0:0:0:0:
224,192,20274,1,0,0:0:0:0:
288,192,20304,1,0,0:0:0:0:
352,192,20333,1,0,0:0:0:0:
416,192,20362,1,0,0:0:0:0:
480,192,20392,1,0,0:0:0:0:
32,192,20450,1,2,0:0:0:0:
32,192,20685,1,8,0:0:0:0:
224,192,20685,1,0,0:0:0:0:
288,192,20685,1,0,0:0:0:0:
480,192,20685,1,0,0:0:0:0:
416,192,20802,1,0,0:0:0:0:
160,192,20919,1,0,0:0:0:0:
288,192,20977,1,0,0:0:0:0:
416,192,21036,1,0,0:0:0:0:
480,192,21153,1,0,0:0:0:0:
416,192,21192,1,0,0:0:0:0:
352,192,21231,1,0,0:0:0:0:
224,192,21310,1,0,0:0:0:0:
160,192,21388,1,0,0:0:0:0:
288,192,21388,1,0,0:0:0:0:
160,192,21505,1,0,0:0:0:0:
288,192,21505,1,0,0:0:0:0:
32,192,21622,1,8,0:0:0:0:
96,192,21622,1,0,0:0:0:0:
416,192,21622,128,0,21739:0:0:0:0:
352,192,21739,128,0,21856:0:0:0:0:
160,192,21974,128,0,22091:0:0:0:0:
288,192,22208,128,0,22325:0:0:0:0:
96,192,22325,128,0,22442:0:0:0:0:
32,192,22442,128,0,22560:0:0:0:0:
480,192,22560,128,0,23497:0:0:0:0:
288,192,22794,128,0,23028:0:0:0:0:
160,192,23380,128,0,23497:0:0:0:0:
96,192,23497,128,0,23790:0:0:0:0:
352,192,23673,128,0,24435:0:0:0:0:
224,192,23790,128,0,24317:0:0:0:0:
96,192,23966,128,0,24317:0:0:0:0:
480,192,24083,128,0,24435:0:0:0:0:
416,192,24200,128,0,24317:0:0:0:0:
160,192,24317,128,0,24435:0:0:0:0:
96,192,24435,128,0,25372:0:0:0:0:
224,192,24435,128,0,25372:0:0:0:0:
288,192,24669,128,0,24903:0:0:0:0:
416,192,25372,128,0,25489:0:0:0:0:
32,192,25372,1,0,0:0:0:0:
480,192,25372,128,0,26075:0:0:0:0:
160,192,26075,128,0,26192:0:0:0:0:
224,192,26310,1,2,0:0:0:0:
352,192,26310,1,2,0:0:0:0:
224,192,26427,1,2,0:0:0:0:
352,192,26427,1,2,0:0:0:0:
224,192,26544,1,2,0:0:0:0:
352,192,26544,1,2,0:0:0:0:
224,192,26661,1,2,0:0:0:0:
352,192,26661,1,2,0:0:0:0:
224,192,26778,1,2,0:0:0:0:
352,192,26778,1,2,0:0:0:0:
224,192,26895,1,2,0:0:0:0:
352,192,26895,1,2,0:0:0:0:
224,192,27013,1,2,0:0:0:0:
352,192,27013,1,2,0:0:0:0:
224,192,27130,1,2,0:0:0:0:
352,192,27130,1,2,0:0:0:0:
224,192,27247,1,2,0:0:0:0:
352,192,27247,1,2,0:0:0:0:
224,192,27364,1,2,0:0:0:0:
352,192,27364,1,2,0:0:0:0:
224,192,27481,1,2,0:0:0:0:
352,192,27481,1,2,0:0:0:0:
224,192,27599,1,2,0:0:0:0:
352,192,27599,1,2,0:0:0:0:
288,192,27716,1,2,0:0:0:0:
288,192,27833,1,2,0:0:0:0:
288,192,27950,1,2,0:0:0:0:
288,192,28067,1,2,0:0:0:0:
96,192,28185,1,2,0:0:0:0:
480,192,28185,1,2,0:0:0:0:
96,192,28302,1,2,0:0:0:0:
480,192,28302,1,2,0:0:0:0:
96,192,28419,1,2,0:0:0:0:
480,192,28419,1,2,0:0:0:0:
96,192,28536,1,2,0:0:0:0:
480,192,28536,1,2,0:0:0:0:
96,192,28653,1,2,0:0:0:0:
480,192,28653,1,2,0:0:0:0:
96,192,28770,1,2,0:0:0:0:
480,192,28770,1,2,0:0:0:0:
96,192,28888,5,2,0:0:0:0:
480,192,28888,1,2,0:0:0:0:
96,192,29005,1,2,0:0:0:0:
480,192,29005,1,2,0:0:0:0:
160,192,29122,1,2,0:0:0:0:
416,192,29122,1,2,0:0:0:0:
224,192,29181,1,0,0:0:0:0:
352,192,29181,1,0,0:0:0:0:
160,192,29239,1,2,0:0:0:0:
416,192,29239,1,2,0:0:0:0:
224,192,29298,1,0,0:0:0:0:
352,192,29298,1,0,0:0:0:0:
160,192,29356,1,2,0:0:0:0:
416,192,29356,1,2,0:0:0:0:
224,192,29415,1,0,0:0:0:0:
352,192,29415,1,0,0:0:0:0:
160,192,29474,1,2,0:0:0:0:
416,192,29474,1,2,0:0:0:0:
224,192,29532,1,0,0:0:0:0:
352,192,29532,1,0,0:0:0:0:
160,192,29591,1,2,0:0:0:0:
416,192,29591,1,2,0:0:0:0:
224,192,29649,1,0,0:0:0:0:
352,192,29649,1,0,0:0:0:0:
160,192,29708,1,2,0:0:0:0:
416,192,29708,1,2,0:0:0:0:
224,192,29767,1,0,0:0:0:0:
352,192,29767,1,0,0:0:0:0:
160,192,29825,1,2,0:0:0:0:
416,192,29825,1,2,0:0:0:0:
224,192,29884,1,0,0:0:0:0:
352,192,29884,1,0,0:0:0:0:
160,192,29942,1,2,0:0:0:0:
416,192,29942,1,2,0:0:0:0:
352,192,30001,1,0,0:0:0:0:
224,192,30001,1,0,0:0:0:0:
32,192,30060,5,4,0:0:0:0:
160,192,30060,1,2,0:0:0:0:
416,192,30060,1,2,0:0:0:0:
96,192,30060,1,8,0:0:0:0:
480,192,30060,1,0,0:0:0:0:
352,192,30294,1,0,0:0:0:0:
224,192,30294,1,0,0:0:0:0:
96,192,30411,1,0,0:0:0:0:
288,192,30411,1,0,0:0:0:0:
160,192,30411,1,0,0:0:0:0:
480,192,30645,1,0,0:0:0:0:
224,192,30645,1,0,0:0:0:0:
416,192,30763,1,0,0:0:0:0:
288,192,30763,1,0,0:0:0:0:
160,192,30763,1,0,0:0:0:0:
32,192,30997,1,8,0:0:0:0:
224,192,30997,1,0,0:0:0:0:
480,192,30997,1,0,0:0:0:0:
288,192,31231,1,0,0:0:0:0:
416,192,31231,1,0,0:0:0:0:
96,192,31349,1,0,0:0:0:0:
224,192,31466,1,0,0:0:0:0:
480,192,31466,1,0,0:0:0:0:
352,192,31583,1,0,0:0:0:0:
160,192,31583,1,2,0:0:0:0:
288,192,31700,1,0,0:0:0:0:
160,192,31700,1,2,0:0:0:0:
352,192,31817,1,0,0:0:0:0:
160,192,31817,1,2,0:0:0:0:
96,192,31935,1,0,0:0:0:0:
224,192,31935,1,0,0:0:0:0:
480,192,31935,1,0,0:0:0:0:
160,192,32169,1,0,0:0:0:0:
288,192,32286,1,0,0:0:0:0:
416,192,32403,1,0,0:0:0:0:
480,192,32403,1,0,0:0:0:0:
96,192,32403,1,0,0:0:0:0:
288,192,32520,1,0,0:0:0:0:
160,192,32638,1,0,0:0:0:0:
352,192,32638,1,0,0:0:0:0:
352,192,32755,1,0,0:0:0:0:
96,192,32755,1,0,0:0:0:0:
32,192,32872,1,4,0:0:0:0:
480,192,32872,1,0,0:0:0:0:
224,192,32872,1,8,0:0:0:0:
96,192,32989,1,2,0:0:0:0:
160,192,33106,1,2,0:0:0:0:
288,192,33106,1,0,0:0:0:0:
32,192,33224,1,4,0:0:0:0:
96,192,33224,1,8,0:0:0:0:
352,192,33224,1,2,0:0:0:0:
480,192,33341,1,2,0:0:0:0:
416,192,33458,1,0,0:0:0:0:
288,192,33458,1,2,0:0:0:0:
32,192,33575,1,4,0:0:0:0:
224,192,33575,1,2,0:0:0:0:
480,192,33575,1,8,0:0:0:0:
288,192,33692,1,2,0:0:0:0:
352,192,33810,1,0,0:0:0:0:
96,192,33810,1,0,0:0:0:0:
224,192,33810,1,0,0:0:0:0:
416,192,34044,1,0,0:0:0:0:
96,192,34161,1,0,0:0:0:0:
224,192,34161,1,0,0:0:0:0:
352,192,34161,1,0,0:0:0:0:
288,192,34278,1,0,0:0:0:0:
416,192,34395,1,0,0:0:0:0:
96,192,34513,1,0,0:0:0:0:
224,192,34513,1,0,0:0:0:0:
352,192,34513,1,0,0:0:0:0:
96,192,34630,1,0,0:0:0:0:
224,192,34630,1,0,0:0:0:0:
352,192,34630,1,0,0:0:0:0:
32,192,34747,1,8,0:0:0:0:
160,192,34747,1,0,0:0:0:0:
288,192,34747,1,0,0:0:0:0:
480,192,34747,128,0,34864:0:0:0:0:
352,192,34981,128,0,35099:0:0:0:0:
288,192,34981,1,0,0:0:0:0:
224,192,35099,1,0,0:0:0:0:
96,192,35216,128,0,35333:0:0:0:0:
160,192,35216,1,0,0:0:0:0:
224,192,35333,1,0,0:0:0:0:
480,192,35450,128,0,35567:0:0:0:0:
416,192,35450,1,0,0:0:0:0:
288,192,35567,1,0,0:0:0:0:
96,192,35685,1,0,0:0:0:0:
352,192,35685,1,0,0:0:0:0:
224,192,35685,1,0,0:0:0:0:
416,192,35919,1,0,0:0:0:0:
160,192,35919,128,0,36153:0:0:0:0:
288,192,35919,1,0,0:0:0:0:
416,192,36036,1,0,0:0:0:0:
352,192,36036,1,0,0:0:0:0:
288,192,36153,1,0,0:0:0:0:
96,192,36153,1,0,0:0:0:0:
416,192,36270,1,0,0:0:0:0:
480,192,36388,1,0,0:0:0:0:
352,192,36388,1,0,0:0:0:0:
352,192,36505,1,0,0:0:0:0:
480,192,36505,1,0,0:0:0:0:
32,192,36622,1,8,0:0:0:0:
416,192,36622,1,0,0:0:0:0:
224,192,36622,1,0,0:0:0:0:
160,192,36739,1,0,0:0:0:0:
96,192,36856,1,0,0:0:0:0:
352,192,36856,1,0,0:0:0:0:
416,192,36974,1,0,0:0:0:0:
160,192,36974,1,0,0:0:0:0:
480,192,37091,1,0,0:0:0:0:
224,192,37091,1,0,0:0:0:0:
416,192,37208,1,0,0:0:0:0:
224,192,37208,1,0,0:0:0:0:
96,192,37325,128,0,37442:0:0:0:0:
352,192,37325,1,0,0:0:0:0:
288,192,37442,1,0,0:0:0:0:
160,192,37560,1,0,0:0:0:0:
224,192,37560,1,0,0:0:0:0:
416,192,37560,1,0,0:0:0:0:
352,192,37794,1,0,0:0:0:0:
288,192,37794,1,0,0:0:0:0:
160,192,37911,1,0,0:0:0:0:
224,192,37911,1,0,0:0:0:0:
416,192,37911,1,0,0:0:0:0:
480,192,38028,1,0,0:0:0:0:
288,192,38145,1,0,0:0:0:0:
352,192,38145,1,0,0:0:0:0:
160,192,38263,1,0,0:0:0:0:
224,192,38263,1,0,0:0:0:0:
416,192,38263,1,0,0:0:0:0:
32,192,38497,1,8,0:0:0:0:
96,192,38497,1,0,0:0:0:0:
288,192,38497,1,0,0:0:0:0:
224,192,38614,1,0,0:0:0:0:
160,192,38731,1,0,0:0:0:0:
352,192,38731,1,0,0:0:0:0:
288,192,38731,1,0,0:0:0:0:
416,192,38849,1,0,0:0:0:0:
480,192,38966,1,0,0:0:0:0:
224,192,38966,1,2,0:0:0:0:
352,192,39083,1,0,0:0:0:0:
224,192,39083,1,2,0:0:0:0:
416,192,39200,1,0,0:0:0:0:
224,192,39200,1,2,0:0:0:0:
480,192,39317,1,0,0:0:0:0:
224,192,39317,1,2,0:0:0:0:
96,192,39435,1,0,0:0:0:0:
288,192,39435,1,0,0:0:0:0:
352,192,39435,1,0,0:0:0:0:
224,192,39669,1,0,0:0:0:0:
352,192,39786,1,0,0:0:0:0:
480,192,39903,1,0,0:0:0:0:
160,192,39903,1,0,0:0:0:0:
352,192,40020,1,0,0:0:0:0:
224,192,40138,1,0,0:0:0:0:
96,192,40138,1,0,0:0:0:0:
96,192,40255,1,0,0:0:0:0:
224,192,40255,1,0,0:0:0:0:
32,192,40372,1,8,0:0:0:0:
480,192,40372,1,0,0:0:0:0:
352,192,40372,1,0,0:0:0:0:
160,192,40489,1,2,0:0:0:0:
352,192,40606,1,0,0:0:0:0:
288,192,40606,1,2,0:0:0:0:
32,192,40724,1,8,0:0:0:0:
96,192,40724,1,0,0:0:0:0:
224,192,40724,1,2,0:0:0:0:
416,192,40841,1,2,0:0:0:0:
224,192,40958,1,0,0:0:0:0:
288,192,40958,1,2,0:0:0:0:
32,192,41075,1,8,0:0:0:0:
352,192,41075,1,2,0:0:0:0:
480,192,41075,1,0,0:0:0:0:
288,192,41192,1,2,0:0:0:0:
224,192,41310,1,0,0:0:0:0:
96,192,41310,1,0,0:0:0:0:
416,192,41310,1,0,0:0:0:0:
160,192,41544,1,0,0:0:0:0:
224,192,41544,1,0,0:0:0:0:
288,192,41661,1,0,0:0:0:0:
416,192,41661,1,0,0:0:0:0:
480,192,41661,1,0,0:0:0:0:
352,192,41778,1,0,0:0:0:0:
160,192,41895,1,0,0:0:0:0:
224,192,41895,1,0,0:0:0:0:
288,192,42013,1,0,0:0:0:0:
416,192,42013,1,0,0:0:0:0:
480,192,42013,1,0,0:0:0:0:
224,192,42130,1,0,0:0:0:0:
32,192,42247,1,8,0:0:0:0:
96,192,42247,1,0,0:0:0:0:
352,192,42247,1,0,0:0:0:0:
288,192,42364,1,0,0:0:0:0:
160,192,42481,1,0,0:0:0:0:
480,192,42481,1,0,0:0:0:0:
416,192,42599,1,0,0:0:0:0:
96,192,42716,128,0,42833:0:0:0:0:
224,192,42716,1,0,0:0:0:0:
288,192,42833,1,0,0:0:0:0:
480,192,42950,128,0,43067:0:0:0:0:
352,192,42950,1,0,0:0:0:0:
224,192,43067,1,0,0:0:0:0:
160,192,43185,1,0,0:0:0:0:
288,192,43185,1,0,0:0:0:0:
416,192,43185,1,0,0:0:0:0:
224,192,43419,128,0,43653:0:0:0:0:
352,192,43419,1,0,0:0:0:0:
480,192,43536,1,0,0:0:0:0:
352,192,43653,1,0,0:0:0:0:
480,192,43770,1,0,0:0:0:0:
352,192,43888,1,0,0:0:0:0:
160,192,43888,1,0,0:0:0:0:
160,192,44005,1,0,0:0:0:0:
352,192,44005,1,0,0:0:0:0:
32,192,44122,1,8,0:0:0:0:
96,192,44122,1,0,0:0:0:0:
480,192,44122,1,0,0:0:0:0:
352,192,44356,1,0,0:0:0:0:
160,192,44356,1,0,0:0:0:0:
288,192,44474,1,0,0:0:0:0:
224,192,44591,1,0,0:0:0:0:
416,192,44591,1,0,0:0:0:0:
288,192,44708,1,0,0:0:0:0:
96,192,44825,1,0,0:0:0:0:
160,192,44825,1,0,0:0:0:0:
480,192,44825,128,0,44942:0:0:0:0:
352,192,44942,1,0,0:0:0:0:
96,192,45060,128,0,46290:0:0:0:0:
224,192,45060,128,0,45997:0:0:0:0:
416,192,45294,128,0,45528:0:0:0:0:
480,192,45997,128,0,46466:0:0:0:0:
224,192,46173,128,0,46466:0:0:0:0:
352,192,46290,128,0,48575:0:0:0:0:
96,192,46466,128,0,47638:0:0:0:0:
224,192,46583,128,0,46700:0:0:0:0:
480,192,46700,128,0,48575:0:0:0:0:
160,192,46700,128,0,46817:0:0:0:0:
288,192,46817,128,0,46935:0:0:0:0:
224,192,46935,128,0,48575:0:0:0:0:
416,192,47169,128,0,47403:0:0:0:0:
96,192,47872,128,0,48575:0:0:0:0:
160,192,48575,128,0,48692:0:0:0:0:
416,192,48575,128,0,48692:0:0:0:0:
32,192,48810,1,2,0:0:0:0:
288,192,48810,1,0,0:0:0:0:
224,192,48810,1,0,0:0:0:0:
288,192,48927,1,0,0:0:0:0:
224,192,48927,1,0,0:0:0:0:
352,192,49044,1,0,0:0:0:0:
480,192,49044,1,0,0:0:0:0:
352,192,49161,1,0,0:0:0:0:
480,192,49161,1,0,0:0:0:0:
32,192,49278,1,2,0:0:0:0:
224,192,49278,1,0,0:0:0:0:
96,192,49278,1,0,0:0:0:0:
96,192,49395,1,0,0:0:0:0:
224,192,49395,1,0,0:0:0:0:
416,192,49513,1,0,0:0:0:0:
480,192,49513,1,0,0:0:0:0:
480,192,49630,1,0,0:0:0:0:
416,192,49630,1,0,0:0:0:0:
32,192,49747,1,2,0:0:0:0:
160,192,49747,1,0,0:0:0:0:
96,192,49747,1,0,0:0:0:0:
96,192,49864,1,0,0:0:0:0:
160,192,49864,1,0,0:0:0:0:
480,192,49981,1,0,0:0:0:0:
352,192,49981,1,0,0:0:0:0:
352,192,50099,1,0,0:0:0:0:
480,192,50099,1,0,0:0:0:0:
32,192,50216,1,2,0:0:0:0:
224,192,50216,1,0,0:0:0:0:
416,192,50216,1,0,0:0:0:0:
224,192,50333,1,0,0:0:0:0:
416,192,50333,1,0,0:0:0:0:
96,192,50450,1,0,0:0:0:0:
288,192,50450,1,0,0:0:0:0:
96,192,50567,1,0,0:0:0:0:
288,192,50567,1,0,0:0:0:0:
32,192,50685,1,2,0:0:0:0:
416,192,50685,1,0,0:0:0:0:
352,192,50685,1,0,0:0:0:0:
480,192,50685,1,0,0:0:0:0:
352,192,50802,1,0,0:0:0:0:
416,192,50802,1,0,0:0:0:0:
480,192,50802,1,0,0:0:0:0:
352,192,50919,1,0,0:0:0:0:
160,192,50919,1,0,0:0:0:0:
96,192,50919,1,0,0:0:0:0:
352,192,51036,1,0,0:0:0:0:
160,192,51036,1,0,0:0:0:0:
96,192,51036,1,0,0:0:0:0:
32,192,51153,1,2,0:0:0:0:
480,192,51153,1,0,0:0:0:0:
416,192,51153,1,0,0:0:0:0:
224,192,51153,1,0,0:0:0:0:
480,192,51270,1,0,0:0:0:0:
416,192,51270,1,0,0:0:0:0:
224,192,51270,1,0,0:0:0:0:
288,192,51388,1,0,0:0:0:0:
160,192,51388,1,0,0:0:0:0:
416,192,51388,1,0,0:0:0:0:
288,192,51505,1,0,0:0:0:0:
160,192,51505,1,0,0:0:0:0:
416,192,51505,1,0,0:0:0:0:
32,192,51622,1,2,0:0:0:0:
96,192,51622,1,0,0:0:0:0:
352,192,51622,1,0,0:0:0:0:
224,192,51622,1,0,0:0:0:0:
480,192,51622,1,0,0:0:0:0:
96,192,51739,1,0,0:0:0:0:
224,192,51739,1,0,0:0:0:0:
352,192,51739,1,0,0:0:0:0:
480,192,51739,1,0,0:0:0:0:
96,192,51856,1,0,0:0:0:0:
352,192,51856,1,0,0:0:0:0:
224,192,51856,1,0,0:0:0:0:
480,192,51856,1,0,0:0:0:0:
96,192,51974,1,0,0:0:0:0:
352,192,51974,1,0,0:0:0:0:
224,192,51974,1,0,0:0:0:0:
480,192,51974,1,0,0:0:0:0:
32,192,52091,1,2,0:0:0:0:
96,192,52091,1,0,0:0:0:0:
352,192,52091,1,0,0:0:0:0:
224,192,52091,1,0,0:0:0:0:
480,192,52091,1,0,0:0:0:0:
96,192,52208,1,0,0:0:0:0:
224,192,52208,1,0,0:0:0:0:
352,192,52208,1,0,0:0:0:0:
480,192,52208,1,0,0:0:0:0:
352,192,52325,1,0,0:0:0:0:
480,192,52325,1,0,0:0:0:0:
96,192,52325,1,0,0:0:0:0:
224,192,52325,1,0,0:0:0:0:
160,192,52384,1,0,0:0:0:0:
480,192,52442,1,0,0:0:0:0:
352,192,52442,1,0,0:0:0:0:
224,192,52442,1,0,0:0:0:0:
288,192,52501,1,0,0:0:0:0:
352,192,52560,1,0,0:0:0:0:
480,192,52560,1,0,0:0:0:0:
416,192,52677,1,0,0:0:0:0:
416,192,52794,1,0,0:0:0:0:
224,192,52794,1,0,0:0:0:0:
352,192,52911,1,0,0:0:0:0:
96,192,52911,1,0,0:0:0:0:
160,192,53028,1,0,0:0:0:0:
160,192,53145,1,0,0:0:0:0:
288,192,53145,1,0,0:0:0:0:
224,192,53263,1,0,0:0:0:0:
352,192,53263,1,0,0:0:0:0:
416,192,53380,1,0,0:0:0:0:
32,192,53497,1,4,0:0:0:0:
416,192,53497,1,0,0:0:0:0:
96,192,53497,1,8,0:0:0:0:
288,192,53497,1,0,0:0:0:0:
480,192,53614,1,0,0:0:0:0:
480,192,53731,1,0,0:0:0:0:
224,192,53731,1,0,0:0:0:0:
352,192,53731,1,0,0:0:0:0:
224,192,53849,1,0,0:0:0:0:
416,192,53849,1,0,0:0:0:0:
96,192,53966,1,0,0:0:0:0:
352,192,53966,1,0,0:0:0:0:
96,192,54083,1,0,0:0:0:0:
288,192,54083,1,0,0:0:0:0:
352,192,54200,1,0,0:0:0:0:
160,192,54200,1,0,0:0:0:0:
352,192,54317,1,0,0:0:0:0:
224,192,54317,1,0,0:0:0:0:
160,192,54435,1,0,0:0:0:0:
480,192,54435,1,0,0:0:0:0:
416,192,54435,1,0,0:0:0:0:
160,192,54552,1,0,0:0:0:0:
288,192,54669,1,0,0:0:0:0:
96,192,54669,1,0,0:0:0:0:
288,192,54786,1,0,0:0:0:0:
480,192,54786,1,0,0:0:0:0:
224,192,54786,1,0,0:0:0:0:
416,192,54903,1,0,0:0:0:0:
160,192,54903,1,0,0:0:0:0:
224,192,54903,1,0,0:0:0:0:
416,192,55020,1,0,0:0:0:0:
96,192,55020,1,0,0:0:0:0:
160,192,55020,1,0,0:0:0:0:
288,192,55138,1,0,0:0:0:0:
96,192,55138,1,0,0:0:0:0:
480,192,55138,1,0,0:0:0:0:
288,192,55255,1,0,0:0:0:0:
416,192,55255,1,0,0:0:0:0:
480,192,55255,1,0,0:0:0:0:
32,192,55372,1,4,0:0:0:0:
352,192,55372,1,0,0:0:0:0:
416,192,55372,1,0,0:0:0:0:
224,192,55372,1,8,0:0:0:0:
224,192,55489,1,0,0:0:0:0:
96,192,55606,1,0,0:0:0:0:
480,192,55606,1,0,0:0:0:0:
96,192,55724,1,0,0:0:0:0:
416,192,55724,1,0,0:0:0:0:
352,192,55841,1,0,0:0:0:0:
160,192,55841,1,0,0:0:0:0:
352,192,55958,1,0,0:0:0:0:
224,192,55958,1,0,0:0:0:0:
480,192,56075,1,0,0:0:0:0:
288,192,56075,1,0,0:0:0:0:
480,192,56192,1,0,0:0:0:0:
224,192,56192,1,0,0:0:0:0:
96,192,56310,1,0,0:0:0:0:
352,192,56310,1,0,0:0:0:0:
416,192,56310,1,0,0:0:0:0:
416,192,56427,1,0,0:0:0:0:
160,192,56544,1,0,0:0:0:0:
288,192,56544,1,0,0:0:0:0:
160,192,56661,1,0,0:0:0:0:
416,192,56661,1,0,0:0:0:0:
480,192,56661,1,0,0:0:0:0:
352,192,56778,1,0,0:0:0:0:
352,192,56895,1,0,0:0:0:0:
288,192,56895,1,0,0:0:0:0:
224,192,57013,1,0,0:0:0:0:
96,192,57013,1,0,0:0:0:0:
160,192,57013,1,0,0:0:0:0:
224,192,57130,1,0,0:0:0:0:
32,192,57247,1,4,0:0:0:0:
480,192,57247,1,0,0:0:0:0:
416,192,57247,1,0,0:0:0:0:
288,192,57247,1,8,0:0:0:0:
480,192,57364,1,0,0:0:0:0:
96,192,57364,1,0,0:0:0:0:
160,192,57481,1,0,0:0:0:0:
352,192,57481,1,0,0:0:0:0:
160,192,57599,1,0,0:0:0:0:
288,192,57599,1,0,0:0:0:0:
352,192,57716,1,0,0:0:0:0:
224,192,57716,1,0,0:0:0:0:
352,192,57833,1,0,0:0:0:0:
160,192,57833,1,0,0:0:0:0:
96,192,57950,1,0,0:0:0:0:
480,192,57950,1,0,0:0:0:0:
96,192,58067,1,0,0:0:0:0:
288,192,58067,1,0,0:0:0:0:
224,192,58185,1,0,0:0:0:0:
160,192,58185,1,0,0:0:0:0:
416,192,58185,1,0,0:0:0:0:
416,192,58302,1,0,0:0:0:0:
352,192,58419,1,0,0:0:0:0:
160,192,58419,1,0,0:0:0:0:
352,192,58536,1,0,0:0:0:0:
224,192,58536,1,0,0:0:0:0:
480,192,58536,1,0,0:0:0:0:
160,192,58653,1,0,0:0:0:0:
96,192,58653,1,0,0:0:0:0:
288,192,58653,1,0,0:0:0:0:
160,192,58770,1,0,0:0:0:0:
480,192,58770,1,0,0:0:0:0:
352,192,58770,1,0,0:0:0:0:
288,192,58888,1,0,0:0:0:0:
416,192,58888,1,0,0:0:0:0:
224,192,58888,1,0,0:0:0:0:
96,192,59005,1,0,0:0:0:0:
224,192,59005,1,0,0:0:0:0:
480,192,59005,1,0,0:0:0:0:
32,192,59122,1,8,0:0:0:0:
352,192,59122,1,0,0:0:0:0:
416,192,59122,1,0,0:0:0:0:
288,192,59122,1,0,0:0:0:0:
288,192,59239,1,0,0:0:0:0:
160,192,59356,1,0,0:0:0:0:
224,192,59356,1,0,0:0:0:0:
160,192,59474,1,0,0:0:0:0:
96,192,59474,1,0,0:0:0:0:
416,192,59591,1,0,0:0:0:0:
224,192,59591,1,0,0:0:0:0:
416,192,59708,1,0,0:0:0:0:
288,192,59708,1,0,0:0:0:0:
224,192,59825,1,0,0:0:0:0:
352,192,59825,1,0,0:0:0:0:
224,192,59942,1,0,0:0:0:0:
416,192,59942,1,0,0:0:0:0:
96,192,60060,1,0,0:0:0:0:
160,192,60060,1,0,0:0:0:0:
480,192,60060,1,0,0:0:0:0:
352,192,60060,1,0,0:0:0:0:
480,192,60177,1,0,0:0:0:0:
96,192,60294,1,0,0:0:0:0:
224,192,60294,1,0,0:0:0:0:
288,192,60294,1,0,0:0:0:0:
96,192,60411,1,0,0:0:0:0:
480,192,60411,1,0,0:0:0:0:
416,192,60411,1,0,0:0:0:0:
160,192,60411,1,0,0:0:0:0:
352,192,60528,1,0,0:0:0:0:
352,192,60645,1,0,0:0:0:0:
96,192,60645,1,0,0:0:0:0:
224,192,60645,1,0,0:0:0:0:
480,192,60763,1,0,0:0:0:0:
288,192,60763,1,0,0:0:0:0:
416,192,60763,1,0,0:0:0:0:
160,192,60763,1,0,0:0:0:0:
224,192,60880,1,0,0:0:0:0:
32,192,60997,1,4,0:0:0:0:
160,192,60997,1,0,0:0:0:0:
352,192,60997,1,0,0:0:0:0:
96,192,60997,1,8,0:0:0:0:
352,192,61114,1,0,0:0:0:0:
160,192,61231,1,0,0:0:0:0:
288,192,61231,1,0,0:0:0:0:
160,192,61349,1,0,0:0:0:0:
352,192,61349,1,0,0:0:0:0:
288,192,61466,1,0,0:0:0:0:
416,192,61466,1,0,0:0:0:0:
288,192,61583,1,0,0:0:0:0:
480,192,61583,1,0,0:0:0:0:
96,192,61700,1,0,0:0:0:0:
416,192,61700,1,0,0:0:0:0:
96,192,61817,1,0,0:0:0:0:
352,192,61817,1,0,0:0:0:0:
288,192,61935,1,0,0:0:0:0:
160,192,61935,1,0,0:0:0:0:
480,192,61935,1,0,0:0:0:0:
160,192,62052,1,0,0:0:0:0:
480,192,62052,1,0,0:0:0:0:
224,192,62052,1,0,0:0:0:0:
416,192,62169,1,0,0:0:0:0:
352,192,62169,1,0,0:0:0:0:
96,192,62169,1,0,0:0:0:0:
416,192,62286,1,0,0:0:0:0:
352,192,62286,1,0,0:0:0:0:
224,192,62286,1,0,0:0:0:0:
96,192,62403,1,0,0:0:0:0:
288,192,62403,1,0,0:0:0:0:
160,192,62403,1,0,0:0:0:0:
96,192,62520,1,0,0:0:0:0:
288,192,62520,1,0,0:0:0:0:
416,192,62520,1,0,0:0:0:0:
224,192,62638,1,0,0:0:0:0:
480,192,62638,1,0,0:0:0:0:
352,192,62638,1,0,0:0:0:0:
224,192,62755,1,0,0:0:0:0:
480,192,62755,1,0,0:0:0:0:
160,192,62755,1,0,0:0:0:0:
32,192,62872,1,4,0:0:0:0:
96,192,62872,1,8,0:0:0:0:
288,192,62872,1,0,0:0:0:0:
416,192,62872,1,0,0:0:0:0:
288,192,62989,1,0,0:0:0:0:
160,192,63106,1,0,0:0:0:0:
352,192,63106,1,0,0:0:0:0:
160,192,63224,1,0,0:0:0:0:
416,192,63224,1,0,0:0:0:0:
352,192,63341,1,0,0:0:0:0:
32,192,63341,1,2,0:0:0:0:
224,192,63341,1,0,0:0:0:0:
352,192,63458,1,0,0:0:0:0:
96,192,63458,1,0,0:0:0:0:
480,192,63575,1,0,0:0:0:0:
160,192,63575,1,0,0:0:0:0:
480,192,63692,1,0,0:0:0:0:
288,192,63692,1,0,0:0:0:0:
352,192,63810,1,0,0:0:0:0:
96,192,63810,1,0,0:0:0:0:
224,192,63810,1,0,0:0:0:0:
416,192,63810,1,0,0:0:0:0:
352,192,63927,1,0,0:0:0:0:
224,192,64044,1,0,0:0:0:0:
480,192,64044,1,0,0:0:0:0:
416,192,64044,1,0,0:0:0:0:
224,192,64161,1,0,0:0:0:0:
288,192,64161,1,0,0:0:0:0:
352,192,64161,1,0,0:0:0:0:
160,192,64161,1,0,0:0:0:0:
96,192,64278,1,0,0:0:0:0:
96,192,64395,1,0,0:0:0:0:
160,192,64395,1,0,0:0:0:0:
288,192,64395,1,0,0:0:0:0:
416,192,64513,1,0,0:0:0:0:
352,192,64513,1,0,0:0:0:0:
224,192,64513,1,0,0:0:0:0:
480,192,64513,1,0,0:0:0:0:
416,192,64630,1,0,0:0:0:0:
32,192,64747,1,4,0:0:0:0:
288,192,64747,1,0,0:0:0:0:
96,192,64747,1,8,0:0:0:0:
224,192,64747,1,0,0:0:0:0:
288,192,64864,1,0,0:0:0:0:
160,192,64981,1,0,0:0:0:0:
352,192,64981,1,0,0:0:0:0:
224,192,64981,1,0,0:0:0:0:
160,192,65099,1,0,0:0:0:0:
416,192,65099,1,0,0:0:0:0:
288,192,65099,1,0,0:0:0:0:
96,192,65216,1,0,0:0:0:0:
480,192,65216,1,0,0:0:0:0:
352,192,65216,1,0,0:0:0:0:
96,192,65333,1,0,0:0:0:0:
416,192,65333,1,0,0:0:0:0:
160,192,65333,1,0,0:0:0:0:
224,192,65450,1,0,0:0:0:0:
352,192,65450,1,0,0:0:0:0:
480,192,65450,1,0,0:0:0:0:
224,192,65567,1,0,0:0:0:0:
288,192,65567,1,0,0:0:0:0:
160,192,65567,1,0,0:0:0:0:
96,192,65685,1,0,0:0:0:0:
480,192,65685,1,0,0:0:0:0:
352,192,65685,1,0,0:0:0:0:
480,192,65802,1,0,0:0:0:0:
416,192,65919,1,0,0:0:0:0:
160,192,65919,1,0,0:0:0:0:
224,192,65919,1,0,0:0:0:0:
352,192,66036,1,0,0:0:0:0:
160,192,66036,1,0,0:0:0:0:
96,192,66036,1,0,0:0:0:0:
288,192,66153,1,0,0:0:0:0:
480,192,66153,1,0,0:0:0:0:
96,192,66153,1,0,0:0:0:0:
224,192,66270,1,0,0:0:0:0:
480,192,66270,1,0,0:0:0:0:
416,192,66270,1,0,0:0:0:0:
160,192,66388,1,0,0:0:0:0:
352,192,66388,1,0,0:0:0:0:
416,192,66388,1,0,0:0:0:0:
96,192,66505,1,0,0:0:0:0:
352,192,66505,1,0,0:0:0:0:
288,192,66505,1,0,0:0:0:0:
32,192,66622,1,0,0:0:0:0:
224,192,66622,1,0,0:0:0:0:
288,192,66622,1,0,0:0:0:0:
480,192,66622,1,0,0:0:0:0:
32,192,66856,128,0,67560:0:0:0:0:
160,192,66856,1,2,0:0:0:0:
288,192,66974,1,2,0:0:0:0:
416,192,67091,1,2,0:0:0:0:
288,192,67208,1,2,0:0:0:0:
160,192,67325,1,2,0:0:0:0:
288,192,67442,1,2,0:0:0:0:
416,192,67560,1,2,0:0:0:0:
160,192,67560,1,0,0:0:0:0:
352,192,67794,1,0,0:0:0:0:
224,192,67794,1,0,0:0:0:0:
416,192,67911,1,0,0:0:0:0:
160,192,67911,1,0,0:0:0:0:
480,192,68028,1,0,0:0:0:0:
96,192,68028,1,0,0:0:0:0:
416,192,68145,1,0,0:0:0:0:
160,192,68145,1,0,0:0:0:0:
352,192,68263,1,0,0:0:0:0:
224,192,68263,1,0,0:0:0:0:
32,192,68497,1,8,0:0:0:0:
288,192,68497,1,0,0:0:0:0:
416,192,68497,1,0,0:0:0:0:
352,192,68731,1,0,0:0:0:0:
480,192,68731,1,0,0:0:0:0:
416,192,68849,1,0,0:0:0:0:
224,192,68966,1,0,0:0:0:0:
352,192,68966,1,0,0:0:0:0:
160,192,69083,1,2,0:0:0:0:
160,192,69200,1,2,0:0:0:0:
288,192,69200,1,0,0:0:0:0:
160,192,69317,1,2,0:0:0:0:
416,192,69317,1,0,0:0:0:0:
96,192,69435,1,0,0:0:0:0:
352,192,69435,1,0,0:0:0:0:
160,192,69669,1,0,0:0:0:0:
224,192,69669,1,0,0:0:0:0:
352,192,69786,1,0,0:0:0:0:
416,192,69786,1,0,0:0:0:0:
160,192,69903,1,0,0:0:0:0:
224,192,69903,1,0,0:0:0:0:
352,192,70020,1,0,0:0:0:0:
416,192,70020,1,0,0:0:0:0:
288,192,70138,1,0,0:0:0:0:
96,192,70138,1,0,0:0:0:0:
32,192,70372,1,8,0:0:0:0:
224,192,70372,1,0,0:0:0:0:
480,192,70372,1,0,0:0:0:0:
416,192,70489,1,0,0:0:0:0:
352,192,70606,1,0,0:0:0:0:
96,192,70724,1,0,0:0:0:0:
288,192,70724,1,0,0:0:0:0:
160,192,70841,1,0,0:0:0:0:
416,192,70841,1,0,0:0:0:0:
224,192,70958,1,0,0:0:0:0:
480,192,70958,1,0,0:0:0:0:
416,192,71075,1,0,0:0:0:0:
96,192,71075,1,0,0:0:0:0:
352,192,71192,1,0,0:0:0:0:
288,192,71310,1,0,0:0:0:0:
160,192,71310,1,0,0:0:0:0:
96,192,71544,1,0,0:0:0:0:
224,192,71544,1,0,0:0:0:0:
352,192,71661,1,0,0:0:0:0:
480,192,71661,1,0,0:0:0:0:
96,192,71778,1,0,0:0:0:0:
224,192,71778,1,0,0:0:0:0:
352,192,71895,1,0,0:0:0:0:
480,192,71895,1,0,0:0:0:0:
224,192,72013,1,0,0:0:0:0:
416,192,72013,1,0,0:0:0:0:
288,192,72130,1,0,0:0:0:0:
352,192,72130,1,0,0:0:0:0:
224,192,72247,1,0,0:0:0:0:
96,192,72247,1,0,0:0:0:0:
416,192,72247,1,0,0:0:0:0:
480,192,72364,1,0,0:0:0:0:
352,192,72481,1,0,0:0:0:0:
160,192,72481,1,0,0:0:0:0:
224,192,72599,1,0,0:0:0:0:
416,192,72599,1,0,0:0:0:0:
288,192,72716,1,0,0:0:0:0:
480,192,72716,1,0,0:0:0:0:
352,192,72833,1,0,0:0:0:0:
416,192,72833,1,0,0:0:0:0:
96,192,72950,1,0,0:0:0:0:
160,192,72950,1,0,0:0:0:0:
224,192,72950,1,0,0:0:0:0:
32,192,73185,1,8,0:0:0:0:
352,192,73185,1,0,0:0:0:0:
480,192,73185,1,0,0:0:0:0:
416,192,73419,1,0,0:0:0:0:
288,192,73477,1,0,0:0:0:0:
160,192,73536,1,0,0:0:0:0:
96,192,73653,1,0,0:0:0:0:
160,192,73683,1,0,0:0:0:0:
224,192,73712,1,0,0:0:0:0:
288,192,73741,1,0,0:0:0:0:
352,192,73800,1,0,0:0:0:0:
416,192,73858,1,0,0:0:0:0:
480,192,73888,1,0,0:0:0:0:
96,192,73888,1,0,0:0:0:0:
160,192,74005,1,0,0:0:0:0:
416,192,74005,1,0,0:0:0:0:
32,192,74122,1,8,0:0:0:0:
224,192,74122,1,0,0:0:0:0:
352,192,74122,1,0,0:0:0:0:
160,192,74356,1,0,0:0:0:0:
416,192,74356,1,0,0:0:0:0:
288,192,74356,1,0,0:0:0:0:
224,192,74474,1,0,0:0:0:0:
352,192,74474,1,0,0:0:0:0:
416,192,74591,1,0,0:0:0:0:
160,192,74649,1,0,0:0:0:0:
416,192,74708,1,0,0:0:0:0:
160,192,74767,1,0,0:0:0:0:
416,192,74825,1,0,0:0:0:0:
160,192,74884,1,0,0:0:0:0:
32,192,74942,128,0,75060:0:0:0:0:
416,192,74942,1,0,0:0:0:0:
96,192,75060,128,0,77638:0:0:0:0:
352,192,75997,128,0,76290:0:0:0:0:
480,192,76173,128,0,76583:0:0:0:0:
224,192,76290,128,0,76466:0:0:0:0:
352,192,76466,128,0,76700:0:0:0:0:
224,192,76583,128,0,78692:0:0:0:0:
480,192,76700,128,0,77872:0:0:0:0:
352,192,76935,128,0,78341:0:0:0:0:
96,192,77755,128,0,78692:0:0:0:0:
480,192,77989,128,0,78692:0:0:0:0:
352,192,78458,128,0,78692:0:0:0:0:
160,192,78810,1,0,0:0:0:0:
288,192,78810,1,0,0:0:0:0:
416,192,78810,1,0,0:0:0:0:
160,192,78927,1,0,0:0:0:0:
288,192,78927,1,0,0:0:0:0:
416,192,78927,1,0,0:0:0:0:
160,192,79044,1,0,0:0:0:0:
288,192,79044,1,0,0:0:0:0:
416,192,79044,1,0,0:0:0:0:
160,192,79161,1,0,0:0:0:0:
288,192,79161,1,0,0:0:0:0:
416,192,79161,1,0,0:0:0:0:
160,192,79278,1,0,0:0:0:0:
288,192,79278,1,0,0:0:0:0:
416,192,79278,1,0,0:0:0:0:
160,192,79395,1,0,0:0:0:0:
288,192,79395,1,0,0:0:0:0:
416,192,79395,1,0,0:0:0:0:
160,192,79513,1,0,0:0:0:0:
288,192,79513,1,0,0:0:0:0:
416,192,79513,1,0,0:0:0:0:
160,192,79630,1,0,0:0:0:0:
288,192,79630,1,0,0:0:0:0:
416,192,79630,1,0,0:0:0:0:
160,192,79747,1,0,0:0:0:0:
288,192,79747,1,0,0:0:0:0:
416,192,79747,1,0,0:0:0:0:
160,192,79864,1,0,0:0:0:0:
288,192,79864,1,0,0:0:0:0:
416,192,79864,1,0,0:0:0:0:
160,192,79981,1,0,0:0:0:0:
288,192,79981,1,0,0:0:0:0:
416,192,79981,1,0,0:0:0:0:
416,192,80099,1,0,0:0:0:0:
288,192,80099,1,0,0:0:0:0:
160,192,80099,1,0,0:0:0:0:
224,192,80216,1,0,0:0:0:0:
352,192,80216,1,0,0:0:0:0:
96,192,80450,1,0,0:0:0:0:
480,192,80450,1,0,0:0:0:0:
224,192,80685,1,0,0:0:0:0:
288,192,80685,1,0,0:0:0:0:
352,192,80685,1,0,0:0:0:0:
416,192,80685,1,0,0:0:0:0:
416,192,80802,1,0,0:0:0:0:
288,192,80802,1,0,0:0:0:0:
352,192,80802,1,0,0:0:0:0:
480,192,80802,1,0,0:0:0:0:
480,192,80919,1,0,0:0:0:0:
352,192,80919,1,0,0:0:0:0:
416,192,80919,1,0,0:0:0:0:
96,192,80919,1,0,0:0:0:0:
480,192,81036,1,0,0:0:0:0:
416,192,81036,1,0,0:0:0:0:
160,192,81036,1,0,0:0:0:0:
96,192,81036,1,0,0:0:0:0:
480,192,81153,1,0,0:0:0:0:
160,192,81153,1,0,0:0:0:0:
224,192,81153,1,0,0:0:0:0:
96,192,81153,1,0,0:0:0:0:
288,192,81270,1,0,0:0:0:0:
160,192,81270,1,0,0:0:0:0:
224,192,81270,1,0,0:0:0:0:
96,192,81270,1,0,0:0:0:0:
352,192,81388,5,0,0:0:0:0:
288,192,81388,1,0,0:0:0:0:
224,192,81388,1,0,0:0:0:0:
160,192,81388,1,0,0:0:0:0:
416,192,81505,1,0,0:0:0:0:
352,192,81505,1,0,0:0:0:0:
224,192,81505,1,0,0:0:0:0:
288,192,81505,1,0,0:0:0:0:
416,192,81622,1,0,0:0:0:0:
288,192,81622,1,0,0:0:0:0:
352,192,81622,1,0,0:0:0:0:
480,192,81622,1,0,0:0:0:0:
480,192,81739,1,0,0:0:0:0:
416,192,81739,1,0,0:0:0:0:
352,192,81739,1,0,0:0:0:0:
96,192,81739,1,0,0:0:0:0:
96,192,81856,1,0,0:0:0:0:
160,192,81856,1,0,0:0:0:0:
416,192,81856,1,0,0:0:0:0:
480,192,81856,1,0,0:0:0:0:
480,192,81974,1,0,0:0:0:0:
224,192,81974,1,0,0:0:0:0:
160,192,81974,1,0,0:0:0:0:
96,192,81974,1,0,0:0:0:0:
96,192,82091,1,0,0:0:0:0:
224,192,82091,1,0,0:0:0:0:
160,192,82091,1,0,0:0:0:0:
288,192,82091,1,0,0:0:0:0:
288,192,82208,1,0,0:0:0:0:
352,192,82208,1,0,0:0:0:0:
224,192,82208,1,0,0:0:0:0:
160,192,82208,1,0,0:0:0:0:
288,192,82325,1,0,0:0:0:0:
224,192,82325,1,0,0:0:0:0:
352,192,82325,1,0,0:0:0:0:
416,192,82325,1,0,0:0:0:0:
480,192,82442,1,0,0:0:0:0:
352,192,82442,1,0,0:0:0:0:
416,192,82442,1,0,0:0:0:0:
288,192,82442,1,0,0:0:0:0:
32,192,82560,5,4,0:0:0:0:
416,192,82560,1,4,0:0:0:0:
96,192,82560,1,4,0:0:0:0:
352,192,82560,1,4,0:0:0:0:
480,192,82560,1,4,0:0:0:0:
