osu file format v14

[General]
AudioFilename: h_destruct.mp3
AudioLeadIn: 0
PreviewTime: 30054
Countdown: 0
SampleSet: Soft
StackLeniency: 0.7
Mode: 3
LetterboxInBreaks: 0
SpecialStyle: 0
WidescreenStoryboard: 1

[Editor]
DistanceSpacing: 0.5
BeatDivisor: 4
GridSize: 4
TimelineZoom: 2.4

[Metadata]
Title:Dstrukt
TitleUnicode:Dstrukt
Artist:Hecq
ArtistUnicode:Hecq
Creator:YunoFanatic
Version:8K Easy
Source:
Tags:breakbeat orchestra -kamikaze- takane6 dosyeru
BeatmapID:701034
BeatmapSetID:307810

[Difficulty]
HPDrainRate:7
CircleSize:8
OverallDifficulty:7
ApproachRate:5
SliderMultiplier:1.4
SliderTickRate:1

[Events]
//Background and Video events
0,0,"318009-1024x768.jpg",0,0
//Break Periods
//Storyboard Layer 0 (Background)
//Storyboard Layer 1 (Fail)
//Storyboard Layer 2 (Pass)
//Storyboard Layer 3 (Foreground)
//Storyboard Sound Samples

[TimingPoints]
60,234.375,4,2,0,40,1,0

[HitObjects]
480,192,60,5,0,0:0:0:0:
96,192,411,1,0,0:0:0:0:
480,192,763,1,0,0:0:0:0:
96,192,997,128,4,1466:0:0:0:0:
352,192,1466,1,0,0:0:0:0:
224,192,1700,128,0,1935:0:0:0:0:
480,192,1935,1,0,0:0:0:0:
288,192,2169,1,0,0:0:0:0:
96,192,2403,128,0,2638:0:0:0:0:
288,192,2638,1,0,0:0:0:0:
480,192,2872,128,4,3341:0:0:0:0:
96,192,3810,1,0,0:0:0:0:
416,192,4161,1,0,0:0:0:0:
352,192,4513,1,0,0:0:0:0:
160,192,4747,128,4,5216:0:0:0:0:
352,192,5216,1,0,0:0:0:0:
480,192,5450,128,0,5685:0:0:0:0:
96,192,5685,1,0,0:0:0:0:
288,192,5919,1,0,0:0:0:0:
480,192,6153,128,0,6388:0:0:0:0:
96,192,6388,1,0,0:0:0:0:
416,192,6622,1,0,0:0:0:0:
32,192,7560,5,4,0:0:0:0:
224,192,7794,1,0,0:0:0:0:
416,192,8028,1,0,0:0:0:0:
480,192,8263,1,0,0:0:0:0:
96,192,8497,128,8,8731:0:0:0:0:
352,192,8731,128,0,8966:0:0:0:0:
160,192,8966,128,0,9435:0:0:0:0:
480,192,9435,1,0,0:0:0:0:
352,192,9786,1,0,0:0:0:0:
160,192,10138,1,0,0:0:0:0:
32,192,10372,1,8,0:0:0:0:
32,192,10724,1,8,0:0:0:0:
32,192,11075,1,8,0:0:0:0:
480,192,11310,1,0,0:0:0:0:
288,192,11544,1,0,0:0:0:0:
96,192,11778,1,0,0:0:0:0:
160,192,11895,1,0,0:0:0:0:
416,192,12130,1,0,0:0:0:0:
480,192,12247,128,8,12364:0:0:0:0:
288,192,12481,128,0,12599:0:0:0:0:
96,192,12716,128,0,12833:0:0:0:0:
480,192,13185,1,8,0:0:0:0:
288,192,13419,128,0,13536:0:0:0:0:
96,192,13653,128,0,13888:0:0:0:0:
224,192,13888,128,0,14122:0:0:0:0:
352,192,14122,128,8,14356:0:0:0:0:
480,192,14356,128,0,14591:0:0:0:0:
224,192,14591,128,0,15060:0:0:0:0:
32,192,15060,1,0,0:0:0:0:
288,192,15294,1,0,0:0:0:0:
480,192,15528,1,0,0:0:0:0:
96,192,15763,1,0,0:0:0:0:
352,192,15997,128,8,16231:0:0:0:0:
224,192,16231,128,0,16466:0:0:0:0:
160,192,16466,128,0,16700:0:0:0:0:
480,192,16935,1,0,0:0:0:0:
352,192,17169,1,0,0:0:0:0:
288,192,17286,1,0,0:0:0:0:
96,192,17520,1,0,0:0:0:0:
160,192,17638,1,0,0:0:0:0:
32,192,17872,1,8,0:0:0:0:
32,192,18224,1,8,0:0:0:0:
32,192,18575,1,8,0:0:0:0:
224,192,18810,1,0,0:0:0:0:
416,192,19044,1,0,0:0:0:0:
160,192,19278,1,0,0:0:0:0:
288,192,19395,1,0,0:0:0:0:
224,192,19630,1,0,0:0:0:0:
352,192,19747,1,8,0:0:0:0:
480,192,19981,128,0,20099:0:0:0:0:
288,192,20216,128,0,20450:0:0:0:0:
160,192,20450,128,0,20567:0:0:0:0:
480,192,20685,1,8,0:0:0:0:
352,192,20919,128,0,21153:0:0:0:0:
224,192,21153,128,0,21388:0:0:0:0:
160,192,21388,128,0,21622:0:0:0:0:
96,192,21622,128,8,21856:0:0:0:0:
416,192,21856,128,0,22091:0:0:0:0:
352,192,22091,128,0,22208:0:0:0:0:
224,192,22325,128,0,22442:0:0:0:0:
32,192,22560,128,0,23497:0:0:0:0:
288,192,23497,128,0,24200:0:0:0:0:
480,192,24200,128,0,25372:0:0:0:0:
224,192,25372,128,0,26075:0:0:0:0:
96,192,26075,1,0,0:0:0:0:
480,192,26310,1,2,0:0:0:0:
416,192,26544,1,2,0:0:0:0:
352,192,26778,1,2,0:0:0:0:
288,192,27013,1,2,0:0:0:0:
224,192,27247,1,2,0:0:0:0:
96,192,27481,1,2,0:0:0:0:
352,192,27716,1,2,0:0:0:0:
96,192,28185,1,2,0:0:0:0:
160,192,28419,1,2,0:0:0:0:
224,192,28653,1,2,0:0:0:0:
288,192,28888,1,2,0:0:0:0:
352,192,29122,1,2,0:0:0:0:
416,192,29356,1,2,0:0:0:0:
480,192,29591,1,2,0:0:0:0:
352,192,29825,1,2,0:0:0:0:
32,192,30060,1,4,0:0:0:0:
224,192,30294,1,0,0:0:0:0:
160,192,30411,1,0,0:0:0:0:
352,192,30645,1,0,0:0:0:0:
416,192,30763,1,0,0:0:0:0:
96,192,30997,128,8,31231:0:0:0:0:
352,192,31231,128,0,31466:0:0:0:0:
480,192,31466,128,0,31935:0:0:0:0:
160,192,31935,1,0,0:0:0:0:
352,192,32286,1,0,0:0:0:0:
224,192,32403,1,0,0:0:0:0:
288,192,32638,1,0,0:0:0:0:
96,192,32872,128,8,33106:0:0:0:0:
224,192,33224,128,8,33458:0:0:0:0:
416,192,33575,128,8,33810:0:0:0:0:
32,192,33810,1,0,0:0:0:0:
288,192,34044,128,0,34278:0:0:0:0:
96,192,34278,128,0,34513:0:0:0:0:
416,192,34513,128,0,34747:0:0:0:0:
224,192,34747,1,8,0:0:0:0:
160,192,34981,1,0,0:0:0:0:
288,192,35216,1,0,0:0:0:0:
480,192,35450,128,0,35567:0:0:0:0:
96,192,35685,1,0,0:0:0:0:
288,192,35919,1,0,0:0:0:0:
416,192,36153,128,0,36388:0:0:0:0:
160,192,36388,128,0,36622:0:0:0:0:
480,192,36622,128,8,36856:0:0:0:0:
288,192,36856,128,0,37091:0:0:0:0:
96,192,37091,128,0,37325:0:0:0:0:
416,192,37325,128,0,37442:0:0:0:0:
32,192,37560,1,0,0:0:0:0:
352,192,37794,1,0,0:0:0:0:
224,192,37911,1,0,0:0:0:0:
480,192,38145,1,0,0:0:0:0:
352,192,38263,1,0,0:0:0:0:
96,192,38497,128,8,38731:0:0:0:0:
352,192,38731,128,0,38966:0:0:0:0:
224,192,38966,128,0,39435:0:0:0:0:
96,192,39435,1,0,0:0:0:0:
288,192,39786,1,0,0:0:0:0:
416,192,40020,1,0,0:0:0:0:
480,192,40372,128,8,40606:0:0:0:0:
96,192,40724,128,0,40958:0:0:0:0:
352,192,41075,128,0,41310:0:0:0:0:
32,192,41310,1,0,0:0:0:0:
288,192,41544,1,0,0:0:0:0:
160,192,41661,1,0,0:0:0:0:
288,192,41778,1,0,0:0:0:0:
480,192,42013,1,0,0:0:0:0:
352,192,42130,1,0,0:0:0:0:
160,192,42247,1,8,0:0:0:0:
288,192,42481,1,0,0:0:0:0:
416,192,42716,1,0,0:0:0:0:
480,192,42950,128,0,43067:0:0:0:0:
96,192,43185,1,0,0:0:0:0:
224,192,43419,1,0,0:0:0:0:
352,192,43653,1,0,0:0:0:0:
480,192,43888,1,0,0:0:0:0:
32,192,44122,1,8,0:0:0:0:
416,192,44356,1,0,0:0:0:0:
288,192,44591,1,0,0:0:0:0:
160,192,44825,128,0,44942:0:0:0:0:
32,192,45060,128,0,45997:0:0:0:0:
480,192,45997,128,0,46700:0:0:0:0:
224,192,46700,128,0,47872:0:0:0:0:
480,192,47872,128,0,48341:0:0:0:0:
288,192,48575,1,0,0:0:0:0:
96,192,48810,1,0,0:0:0:0:
416,192,49044,1,0,0:0:0:0:
160,192,49278,1,0,0:0:0:0:
352,192,49513,1,0,0:0:0:0:
96,192,49747,1,0,0:0:0:0:
416,192,49981,1,0,0:0:0:0:
160,192,50216,1,0,0:0:0:0:
352,192,50450,1,0,0:0:0:0:
96,192,50685,1,0,0:0:0:0:
480,192,50919,1,0,0:0:0:0:
416,192,51153,1,0,0:0:0:0:
96,192,51388,1,0,0:0:0:0:
160,192,51622,1,0,0:0:0:0:
480,192,51856,1,0,0:0:0:0:
416,192,52091,1,0,0:0:0:0:
288,192,52325,128,0,52560:0:0:0:0:
96,192,52560,1,0,0:0:0:0:
224,192,52794,1,0,0:0:0:0:
352,192,53028,1,0,0:0:0:0:
480,192,53263,1,0,0:0:0:0:
288,192,53497,128,4,53731:0:0:0:0:
96,192,53966,1,0,0:0:0:0:
480,192,54200,1,0,0:0:0:0:
352,192,54435,1,0,0:0:0:0:
224,192,54669,1,0,0:0:0:0:
96,192,54903,1,0,0:0:0:0:
352,192,55138,1,0,0:0:0:0:
224,192,55372,128,4,55606:0:0:0:0:
480,192,55841,1,0,0:0:0:0:
288,192,56075,1,0,0:0:0:0:
160,192,56310,1,0,0:0:0:0:
96,192,56544,1,0,0:0:0:0:
288,192,56778,1,0,0:0:0:0:
416,192,57013,1,0,0:0:0:0:
480,192,57247,128,4,57481:0:0:0:0:
96,192,57716,1,0,0:0:0:0:
224,192,57950,1,0,0:0:0:0:
352,192,58185,1,0,0:0:0:0:
160,192,58419,1,0,0:0:0:0:
480,192,58653,1,0,0:0:0:0:
288,192,58888,1,0,0:0:0:0:
224,192,59005,1,0,0:0:0:0:
96,192,59122,128,4,59356:0:0:0:0:
288,192,59591,1,0,0:0:0:0:
224,192,59825,1,0,0:0:0:0:
480,192,60060,1,0,0:0:0:0:
96,192,60294,1,0,0:0:0:0:
352,192,60528,1,0,0:0:0:0:
288,192,60763,1,0,0:0:0:0:
160,192,60997,128,4,61231:0:0:0:0:
480,192,61466,1,0,0:0:0:0:
224,192,61700,1,0,0:0:0:0:
96,192,61935,1,0,0:0:0:0:
480,192,62169,1,0,0:0:0:0:
352,192,62403,1,0,0:0:0:0:
224,192,62638,1,0,0:0:0:0:
96,192,62872,128,4,63106:0:0:0:0:
416,192,63341,1,0,0:0:0:0:
288,192,63575,1,0,0:0:0:0:
160,192,63810,1,0,0:0:0:0:
480,192,64044,1,0,0:0:0:0:
352,192,64278,1,0,0:0:0:0:
224,192,64513,1,0,0:0:0:0:
96,192,64747,128,0,64981:0:0:0:0:
224,192,65216,1,0,0:0:0:0:
416,192,65450,1,0,0:0:0:0:
224,192,65567,1,0,0:0:0:0:
352,192,65685,1,0,0:0:0:0:
160,192,65919,1,0,0:0:0:0:
96,192,66153,1,0,0:0:0:0:
288,192,66388,1,0,0:0:0:0:
416,192,66622,1,0,0:0:0:0:
480,192,66856,1,0,0:0:0:0:
416,192,67091,1,0,0:0:0:0:
288,192,67325,1,0,0:0:0:0:
32,192,67560,128,4,67794:0:0:0:0:
352,192,68263,1,0,0:0:0:0:
160,192,68497,128,8,68731:0:0:0:0:
480,192,68731,128,0,68966:0:0:0:0:
160,192,68966,128,0,69435:0:0:0:0:
32,192,69435,128,0,70138:0:0:0:0:
480,192,70138,1,0,0:0:0:0:
352,192,70372,128,8,70606:0:0:0:0:
160,192,70724,128,0,70958:0:0:0:0:
480,192,71075,128,0,71310:0:0:0:0:
32,192,71310,1,0,0:0:0:0:
288,192,71544,1,0,0:0:0:0:
480,192,71778,1,0,0:0:0:0:
160,192,72013,128,0,72247:0:0:0:0:
416,192,72247,128,0,72540:0:0:0:0:
160,192,72540,128,0,72716:0:0:0:0:
480,192,72716,128,0,72950:0:0:0:0:
96,192,72950,1,0,0:0:0:0:
288,192,73185,1,8,0:0:0:0:
480,192,73419,128,0,73653:0:0:0:0:
96,192,73653,128,0,73888:0:0:0:0:
480,192,73888,128,0,74122:0:0:0:0:
160,192,74122,128,8,74356:0:0:0:0:
416,192,74356,128,0,74591:0:0:0:0:
224,192,74591,128,0,75060:0:0:0:0:
32,192,75060,128,0,75997:0:0:0:0:
224,192,75997,128,0,76700:0:0:0:0:
480,192,76700,128,0,77872:0:0:0:0:
96,192,77872,128,0,78517:0:0:0:0:
416,192,78517,1,0,0:0:0:0:
288,192,78810,1,0,0:0:0:0:
160,192,79044,1,0,0:0:0:0:
288,192,79278,1,0,0:0:0:0:
416,192,79513,1,0,0:0:0:0:
288,192,79747,1,0,0:0:0:0:
160,192,79981,1,0,0:0:0:0:
288,192,80216,1,0,0:0:0:0:
352,192,80450,1,0,0:0:0:0:
480,192,80685,1,0,0:0:0:0:
352,192,80919,1,0,0:0:0:0:
224,192,81153,1,0,0:0:0:0:
96,192,81388,1,0,0:0:0:0:
480,192,81622,1,0,0:0:0:0:
96,192,81856,1,0,0:0:0:0:
288,192,82091,128,0,82560:0:0:0:0:
