osu file format v14

[General]
AudioFilename: KK-mp3.mp3
AudioLeadIn: 1500
PreviewTime: 52508
Countdown: 0
SampleSet: Soft
StackLeniency: 0.7
Mode: 0
LetterboxInBreaks: 0
WidescreenStoryboard: 0

[Editor]
DistanceSpacing: 1.3
BeatDivisor: 8
GridSize: 4
TimelineZoom: 1.4

[Metadata]
Title:Sore ga Anata no Shiawase to Shite mo
TitleUnicode:それがあなたの幸せとしても
Artist:Heavenz feat.KK
ArtistUnicode:Heavenz feat.KK
Creator:eINess
Version:Insane
Source:
Tags:nico nico douga IamKwaN Kocari Megurine Luka vocaloid
BeatmapID:712079
BeatmapSetID:319965

[Difficulty]
HPDrainRate:6
CircleSize:4
OverallDifficulty:7
ApproachRate:8
SliderMultiplier:3.4
SliderTickRate:1

[Events]
//Background and Video events
0,0,"Insane.jpg",0,0
//Break Periods
//Storyboard Layer 0 (Background)
//Storyboard Layer 1 (Fail)
//Storyboard Layer 2 (Pass)
//Storyboard Layer 3 (Foreground)
//Storyboard Sound Samples

[TimingPoints]
301,779.220779220779,4,2,2,40,1,0
301,-166.666666666667,4,2,2,40,0,0
24456,-166.666666666667,4,2,2,30,0,0
24846,-200,4,2,1,60,0,0
26015,-125,4,2,1,60,0,0
41112,-125,4,2,1,20,0,0
41210,-125,4,2,1,60,0,0
41502,-125,4,2,1,20,0,0
41599,-125,4,2,1,60,0,0
41891,-125,4,2,1,20,0,0
41989,-125,4,2,1,60,0,0
52508,-200,4,2,1,40,0,0
53288,-100,4,2,1,80,0,1
69456,-100,4,2,1,80,0,0
69651,-100,4,2,1,80,0,1
81145,-100,4,2,1,80,0,0
81339,-100,4,2,1,80,0,1
93807,-100,4,2,1,80,0,0
95365,-100,4,2,2,40,0,0

[Colours]
Combo1 : 228,154,162
Combo2 : 121,188,255
Combo3 : 255,128,128
Combo4 : 255,255,128

[HitObjects]
120,264,301,5,10,0:0:0:0:
116,280,885,1,0,0:0:0:0:
116,280,1080,2,0,L|208:272,1,50.9999984436036,2|0,0:0|0:0,0:0:0:0:
304,208,1469,1,0,0:0:0:0:
220,200,1663,1,0,0:0:0:0:
336,292,1859,6,0,P|388:244|392:176,1,101.999996887207,2|0,0:0|0:0,0:0:0:0:
360,72,2443,1,0,0:0:0:0:
360,72,2638,2,0,L|352:128,1,50.9999984436036,2|0,0:0|0:0,0:0:0:0:
220,200,3028,2,0,L|212:149,1,50.9999984436036
448,64,3417,6,0,L|428:172,1,101.999996887207,10|0,0:0|0:0,0:0:0:0:
220,200,4197,2,0,L|238:300,1,101.999996887207,2|0,0:0|0:0,0:0:0:0:
310,148,4781,1,0,0:0:0:0:
220,72,4976,5,2,0:0:0:0:
220,72,5171,2,0,P|164:72|108:92,1,101.999996887207
56,196,5755,2,0,L|60:136,1,50.9999984436036,2|0,0:0|0:0,0:0:0:0:
196,192,6145,2,0,L|200:252,1,50.9999984436036
76,328,6534,6,0,L|84:216,1,101.999996887207,10|0,0:0|0:0,0:0:0:0:
192,156,7119,1,0,0:0:0:0:
296,256,7313,2,0,L|346:250,2,50.9999984436036,2|0|0,0:0|0:0|0:0,0:0:0:0:
216,328,7898,1,0,0:0:0:0:
404,320,8093,6,0,P|436:272|420:196,1,101.999996887207,2|0,0:0|0:0,0:0:0:0:
348,156,8677,1,0,0:0:0:0:
432,80,8872,2,0,L|496:88,2,50.9999984436036,2|0|0,0:0|0:0|0:0,0:0:0:0:
336,160,9456,1,0,0:0:0:0:
336,160,9651,6,0,L|216:148,1,101.999996887207,10|0,0:0|0:0,0:0:0:0:
164,224,10236,1,0,0:0:0:0:
88,124,10430,2,0,L|96:68,1,50.9999984436036,2|0,0:0|0:0,0:0:0:0:
0,264,10820,1,0,0:0:0:0:
4,280,11210,6,0,L|152:296,1,101.999996887207,2|0,0:0|0:0,0:0:0:0:
204,352,11794,1,0,0:0:0:0:
404,260,11989,2,0,L|256:276,1,101.999996887207,2|0,0:0|0:0,0:0:0:0:
204,332,12573,1,0,0:0:0:0:
124,256,12768,5,10,0:0:0:0:
132,180,12963,1,0,0:0:0:0:
140,104,13158,1,0,0:0:0:0:
44,132,13352,1,0,0:0:0:0:
216,228,13547,2,0,L|312:216,1,50.9999984436036,2|0,0:0|0:0,0:0:0:0:
408,144,13937,2,0,L|312:132,1,50.9999984436036
244,40,14326,5,2,0:0:0:0:
140,104,14521,2,0,P|124:156|144:228,1,101.999996887207
32,320,15106,2,0,P|48:268|28:196,1,101.999996887207,2|0,0:0|0:0,0:0:0:0:
0,128,15690,1,0,0:0:0:0:
140,104,15885,6,0,L|276:120,2,101.999996887207,10|0|2,0:0|0:0|0:0,0:0:0:0:
116,100,17054,1,0,0:0:0:0:
92,180,17249,1,0,0:0:0:0:
64,256,17443,6,0,L|0:268,1,50.9999984436036,2|0,0:0|0:0,0:0:0:0:
132,308,17833,2,0,L|196:320,1,50.9999984436036
252,168,18223,2,0,P|243:218|253:267,1,101.999996887207,2|0,0:0|0:0,0:0:0:0:
352,336,18807,1,0,0:0:0:0:
352,336,19002,6,0,L|404:328,2,50.9999984436036,10|0|0,0:0|0:0|0:0,0:0:0:0:
253,267,19586,1,0,0:0:0:0:
344,132,19781,2,0,L|476:140,1,101.999996887207,2|0,0:0|0:0,0:0:0:0:
288,44,20365,1,0,0:0:0:0:
208,152,20560,6,0,P|200:216|204:236,1,50.9999984436036,2|0,0:0|0:0,0:0:0:0:
116,88,20950,2,0,P|124:24|120:4,1,50.9999984436036
16,188,21339,2,0,L|148:168,1,101.999996887207,2|0,0:0|0:0,0:0:0:0:
288,296,22119,5,10,0:0:0:0:
288,296,22509,2,0,P|285:231|291:211,1,50.9999984436036
420,168,22898,2,0,L|348:176,1,50.9999984436036,2|0,0:0|0:0,0:0:0:0:
280,64,23288,2,0,L|352:72,1,50.9999984436036
228,176,23677,5,2,0:0:0:0:
56,48,24067,1,8,0:3:0:0:
0,151,24262,1,4,0:3:0:0:
51,256,24456,1,4,0:0:0:0:
208,336,24846,6,0,B|252:312|276:328|276:328|308:320|308:320|348:336|392:312,1,170,6|0,0:0|0:0,0:0:0:0:
440,268,25820,1,0,0:0:0:0:
372,196,26015,6,0,P|360:144|372:92,1,68,8|0,0:0|0:0,0:0:0:0:
436,32,26404,1,2,0:0:0:0:
436,32,26599,1,0,0:0:0:0:
284,92,26794,2,0,L|176:88,1,68,2|0,0:0|0:0,0:0:0:0:
60,172,27184,2,0,L|168:168,1,68,2|0,0:0|0:0,0:0:0:0:
208,208,27573,5,8,0:0:0:0:
136,48,27768,1,0,0:0:0:0:
272,116,27963,1,2,0:0:0:0:
80,148,28158,1,0,0:0:0:0:
208,208,28352,6,0,L|296:200,1,68,2|0,0:0|0:0,0:0:0:0:
376,232,28742,2,0,P|364:308|396:368,2,136,2|8|0,0:0|0:0|0:0,0:0:0:0:
464,112,29911,6,0,L|388:124,1,68,2|0,0:0|0:0,0:0:0:0:
276,56,30300,2,0,L|208:45,1,68,2|0,0:0|0:0,0:0:0:0:
88,168,30690,2,0,L|155:157,1,68,8|0,0:0|0:0,0:0:0:0:
16,104,31080,1,6,0:0:0:0:
16,104,31859,5,2,0:0:0:0:
88,168,32054,1,0,0:0:0:0:
88,168,32249,2,0,B|100:220|68:256|68:256|84:320,1,136,8|0,0:0|0:0,0:0:0:0:
164,348,32833,1,0,0:0:0:0:
252,252,33028,5,2,0:0:0:0:
252,252,33223,2,0,L|248:132,1,68
340,300,33612,1,0,0:0:0:0:
340,300,33807,2,0,L|336:184,1,68,8|0,0:0|0:0,0:0:0:0:
428,328,34197,1,0,0:0:0:0:
496,212,34391,1,0,0:0:0:0:
416,116,34586,6,0,P|332:104|252:168,1,136,2|0,0:0|0:0,0:0:0:0:
232,240,35171,1,0,0:0:0:0:
160,132,35365,2,0,L|172:44,1,68,8|0,0:0|0:0,0:0:0:0:
64,268,35755,2,0,L|76:356,1,68
232,240,36145,6,0,L|152:244,1,68,2|8,0:0|0:0,0:0:0:0:
0,148,36534,2,0,L|80:152,1,68,2|0,0:0|0:0,0:0:0:0:
260,56,36924,1,8,0:0:0:0:
172,44,37119,1,2,0:0:0:0:
160,132,37313,1,8,0:0:0:0:
248,144,37508,1,0,3:0:0:0:
344,72,37703,6,0,P|420:68|428:232,1,272,6|8,0:0|0:0,0:0:0:0:
224,328,38872,2,0,L|348:340,1,68
360,192,39262,5,2,0:0:0:0:
360,192,39456,2,0,L|236:180,1,68
170,246,39846,1,0,0:0:0:0:
88,76,40041,1,8,0:0:0:0:
88,76,40430,1,0,0:0:0:0:
80,164,40625,1,0,0:0:0:0:
72,252,40820,6,0,P|128:260|196:228,1,102,6|0,0:0|0:0,0:0:0:0:
288,104,41210,2,0,P|244:140|222:212,1,102,2|0,0:0|0:0,0:0:0:0:
304,344,41599,2,0,P|285:290|226:244,1,102,8|0,0:0|0:0,0:0:0:0:
254,258,41989,6,0,L|352:240,1,68
408,312,42378,1,2,0:0:0:0:
484,152,42573,1,0,0:0:0:0:
484,152,42768,2,0,L|492:244,1,68,2|0,0:0|0:0,0:0:0:0:
372,120,43158,2,0,L|380:28,1,68,8|0,0:0|0:0,0:0:0:0:
300,208,43547,1,0,0:0:0:0:
232,104,43742,1,0,0:0:0:0:
132,200,43937,6,0,P|112:264|164:336,2,136,6|0|8,0:0|0:0|0:0,0:0:0:0:
236,128,44911,1,0,0:0:0:0:
156,40,45106,1,0,0:0:0:0:
156,40,45300,2,0,L|72:52,1,68,0|2,0:0|0:0,0:0:0:0:
68,56,45885,6,0,L|224:68,1,136,0|8,0:0|0:0,0:0:0:0:
308,176,46469,1,0,0:0:0:0:
416,104,46664,2,0,L|408:36,1,68
308,176,47054,6,0,L|316:244,1,68,6|0,0:0|0:0,0:0:0:0:
304,68,47443,2,0,L|232:76,1,68
416,212,47833,2,0,B|520:200|520:200|497:222,1,136,8|0,0:0|0:0,0:0:0:0:
372,324,48417,1,0,0:0:0:0:
256,248,48612,6,0,L|268:72,2,136,2|2|8,0:0|0:0|0:0,0:0:0:0:
192,348,49586,1,0,0:0:0:0:
108,260,49781,2,0,L|36:268,1,68
172,152,50171,5,6,0:0:0:0:
172,152,52508,6,0,B|200:136|224:144|224:144|244:136|244:136|268:148|312:128,1,127.5,2|0,0:0|0:0,0:0:0:0:
348,84,53288,6,0,P|316:168|400:248,1,170,6|0,0:0|0:0,0:0:0:0:
460,266,53872,1,0,0:0:0:0:
380,368,54067,2,0,L|196:356,1,170,8|0,0:0|0:0,0:0:0:0:
128,276,54651,1,2,0:0:0:0:
212,196,54846,6,0,L|308:188,2,85,2|0|0,0:0|0:0|0:0,0:0:0:0:
132,96,55430,1,0,0:0:0:0:
32,184,55625,2,0,B|-8:256|12:320|12:320|64:284,1,170,8|0,0:0|0:0,0:0:0:0:
132,248,56210,1,0,0:0:0:0:
204,340,56404,6,0,L|312:328,1,85,2|0,0:0|0:0,0:0:0:0:
444,280,56794,2,0,L|336:268,1,85
304,192,57184,2,0,P|344:104|292:32,2,170,8|0|2,0:0|0:0|0:0,0:0:0:0:
160,132,58158,5,0,0:0:0:0:
252,116,58352,1,2,0:0:0:0:
304,192,58547,1,2,0:0:0:0:
304,192,58742,2,0,L|300:276,1,85,8|0,0:0|0:0,0:0:0:0:
184,332,59132,2,0,L|180:247,1,85
180,216,59424,1,0,0:0:0:0:
180,216,59521,6,0,P|76:212|60:148,2,170,6|0|8,0:0|0:0|0:0,0:0:0:0:
252,60,60495,1,0,0:0:0:0:
252,60,60690,2,0,L|264:164,1,85
364,268,61080,6,0,L|340:88,2,170,2|0|8,0:0|0:0|0:0,0:0:0:0:
428,340,62054,1,0,0:0:0:0:
264,228,62249,2,0,P|188:244|168:300,1,127.5
168,304,62638,6,0,L|152:112,1,170,6|0,0:0|0:0,0:0:0:0:
12,100,63223,1,0,0:0:0:0:
76,264,63417,2,0,L|84:368,1,85,8|0,0:0|0:0,0:0:0:0:
264,228,63807,2,0,L|252:140,1,85
316,36,64197,5,2,0:0:0:0:
316,36,64391,1,0,0:0:0:0:
464,128,64586,2,0,P|472:176|448:232,1,85
440,232,64878,1,0,0:0:0:0:
440,232,64976,2,0,L|355:228,2,85,8|0|0,0:0|0:0|0:0,0:0:0:0:
496,332,65560,1,0,0:0:0:0:
291,303,65755,6,0,P|256:229|288:154,2,170,6|6|8,0:0|0:0|0:0,0:0:0:0:
292,304,67119,1,0,0:0:0:0:
292,304,67313,6,0,B|240:316|240:316|188:308,1,85,2|0,0:0|0:0,0:0:0:0:
144,204,67703,2,0,B|196:192|196:192|248:200,1,85
92,344,68093,1,8,0:0:0:0:
84,264,68288,1,0,0:0:0:0:
219,116,68482,1,2,0:0:0:0:
227,196,68677,1,0,0:0:0:0:
236,276,68872,6,0,L|228:368,2,85,6|0|0,0:0|0:0|0:0,0:0:0:0:
316,220,69456,1,0,0:0:0:0:
219,116,69651,2,0,P|144:96|72:184,1,170,8|0,0:0|0:0,0:0:0:0:
96,316,70236,1,0,0:0:0:0:
96,316,70430,6,0,L|108:212,1,85,2|0,0:0|0:0,0:0:0:0:
219,116,70820,2,0,L|231:220,1,85
296,276,71210,1,8,0:0:0:0:
152,172,71404,1,0,0:0:0:0:
152,172,71599,1,0,0:0:0:0:
199,36,71794,1,0,0:0:0:0:
352,128,71989,6,0,P|404:128|460:116,1,85,2|0,0:0|0:0,0:0:0:0:
320,244,72378,2,0,P|268:244|212:256,1,85
100,340,72768,2,0,B|116:280|116:280|88:136,1,170,8|0,0:0|0:0,0:0:0:0:
16,108,73352,1,0,0:0:0:0:
184,208,73547,6,0,L|160:92,1,85,2|0,0:0|0:0,0:0:0:0:
272,52,73937,2,0,L|289:135,1,85
248,304,74326,1,8,0:0:0:0:
468,240,74521,2,0,P|439:164|358:159,1,170
268,316,75106,6,0,B|404:336|404:336|348:292,1,170,6|0,0:0|0:0,0:0:0:0:
304,236,75690,1,0,0:0:0:0:
408,164,75885,2,0,P|416:100|400:64,1,85,8|0,0:0|0:0,0:0:0:0:
288,28,76275,2,0,P|280:92|296:128,1,85
300,128,76567,1,0,0:0:0:0:
300,128,76664,6,0,L|120:112,1,170,2|0,0:0|0:0,0:0:0:0:
334,210,77249,2,0,L|226:202,1,85,0|8,0:0|0:0,0:0:0:0:
104,284,77638,1,0,0:0:0:0:
104,284,77833,2,0,L|212:276,1,85
334,352,78223,6,0,P|294:281|335:210,2,170,2|0|8,0:0|0:0|0:0,0:0:0:0:
496,184,79197,1,0,0:0:0:0:
496,184,79391,2,0,L|392:176,1,85
332,40,79781,6,0,L|324:136,1,85,2|0,0:0|0:0,0:0:0:0:
180,204,80171,2,0,L|284:212,1,85,2|0,0:0|0:0,0:0:0:0:
340,332,80560,2,0,B|300:344|300:344|204:328|204:328|152:344,1,170,8|0,0:0|0:0,0:0:0:0:
76,328,81145,1,0,0:0:0:0:
76,328,81339,6,0,P|144:284|80:248,1,170,6|0,0:0|0:0,0:0:0:0:
12,272,81924,1,0,0:0:0:0:
208,352,82119,2,0,P|224:272|168:184,1,170,8|0,0:0|0:0,0:0:0:0:
44,148,82703,1,0,0:0:0:0:
44,148,82898,6,0,L|152:140,1,85,2|0,0:0|0:0,0:0:0:0:
288,72,83288,2,0,L|180:64,1,85
8,228,83677,2,0,L|188:212,1,170,8|0,0:0|0:0,0:0:0:0:
256,304,84262,1,0,0:0:0:0:
324,184,84456,6,0,P|336:132|316:88,1,85,2|0,0:0|0:0,0:0:0:0:
424,260,84846,2,0,P|412:312|432:356,1,85
500,152,85236,2,0,L|416:160,1,85,8|0,0:0|0:0,0:0:0:0:
200,268,85625,2,0,B|328:280|328:280|288:304,1,170,0|2,0:0|0:0,0:0:0:0:
116,348,86210,5,0,0:0:0:0:
40,236,86404,2,0,P|36:176|52:140,1,85
64,128,86697,1,0,0:0:0:0:
64,128,86794,2,0,L|240:116,1,170,8|0,0:0|0:0,0:0:0:0:
324,192,87378,1,0,0:0:0:0:
416,112,87573,6,0,B|424:68|424:68|404:12,1,85,6|0,0:0|0:0,0:0:0:0:
324,192,87963,2,0,B|316:236|316:236|336:292,1,85
472,328,88352,2,0,L|387:337,1,85,8|0,0:0|0:0,0:0:0:0:
244,208,88742,2,0,L|159:217,1,85
48,308,89132,5,2,0:0:0:0:
144,324,89326,1,8,0:0:0:0:
159,216,89521,1,0,0:0:0:0:
60,204,89715,1,0,0:0:0:0:
72,104,89911,2,0,B|120:76|120:76|244:88,1,170,8|0,0:0|0:0,0:0:0:0:
324,192,90495,1,0,0:0:0:0:
420,108,90690,6,0,P|424:56|416:12,2,85,2|0|0,0:0|0:0|0:0,0:0:0:0:
324,192,91275,1,0,0:0:0:0:
392,304,91469,2,0,P|300:340|204:312,1,170,8|0,0:0|0:0,0:0:0:0:
160,192,92054,1,0,0:0:0:0:
160,192,92249,6,0,L|168:312,1,85,2|2,0:0|0:0,0:0:0:0:
16,336,92638,2,0,L|21:251,1,85
24,220,92930,1,2,0:0:0:0:
24,220,93028,1,8,0:0:0:0:
147,55,93417,1,8,0:0:0:0:
324,152,93807,6,0,P|416:148|432:60,2,170,6|6|8,0:0|0:0|0:0,0:0:0:0:
324,152,95171,5,0,0:0:0:0:
280,292,95365,1,2,0:0:0:0:
284,304,95950,5,0,0:0:0:0:
284,304,96145,2,0,L|164:300,1,85,8|0,0:0|0:0,0:0:0:0:
80,200,96534,2,0,L|200:196,1,85,8|0,0:0|0:0,0:0:0:0:
344,232,96924,5,10,0:0:0:0:
