osu file format v14

[General]
AudioFilename: KK-mp3.mp3
AudioLeadIn: 1500
PreviewTime: 52508
Countdown: 0
SampleSet: Soft
StackLeniency: 0.7
Mode: 0
LetterboxInBreaks: 0
WidescreenStoryboard: 0

[Editor]
DistanceSpacing: 1.2
BeatDivisor: 8
GridSize: 4
TimelineZoom: 1.4

[Metadata]
Title:Sore ga Anata no Shiawase to Shite mo
TitleUnicode:それがあなたの幸せとしても
Artist:Heavenz feat.KK
ArtistUnicode:Heavenz feat.KK
Creator:eINess
Version:Hard
Source:
Tags:nico nico douga IamKwaN Kocari Megurine Luka vocaloid
BeatmapID:712205
BeatmapSetID:319965

[Difficulty]
HPDrainRate:5
CircleSize:4
OverallDifficulty:5.5
ApproachRate:7
SliderMultiplier:2.8
SliderTickRate:1

[Events]
//Background and Video events
0,0,"Hard.jpg",0,0
//Break Periods
//Storyboard Layer 0 (Background)
//Storyboard Layer 1 (Fail)
//Storyboard Layer 2 (Pass)
//Storyboard Layer 3 (Foreground)
//Storyboard Sound Samples

[TimingPoints]
301,779.220779220779,4,2,2,40,1,0
301,-125,4,2,2,40,0,0
24456,-100,4,2,2,30,0,0
24846,-125,4,2,1,60,0,0
52508,-166.666666666667,4,2,1,40,0,0
53288,-100,4,2,1,80,0,1
69456,-100,4,2,1,80,0,0
69651,-100,4,2,1,80,0,1
81145,-100,4,2,1,80,0,0
81339,-100,4,2,1,80,0,1
93807,-100,4,2,1,80,0,0
95365,-100,4,2,2,40,0,0

[Colours]
Combo1 : 228,154,162
Combo2 : 121,188,255
Combo3 : 255,128,128
Combo4 : 255,255,128

[HitObjects]
92,156,301,5,10,0:0:0:0:
136,88,885,1,0,0:0:0:0:
136,88,1080,2,0,L|276:72,1,112,2|0,0:0|0:0,0:0:0:0:
308,116,1664,1,0,0:0:0:0:
308,116,1859,6,0,P|320:160|316:192,1,56,2|0,0:0|0:0,0:0:0:0:
268,224,2249,2,0,P|256:268|260:300,1,56,0|0,0:0|0:0,0:0:0:0:
308,328,2638,2,0,L|392:316,1,56,2|0,0:0|0:0,0:0:0:0:
487,299,3028,2,0,L|432:292,1,56,0|0,0:0|0:0,0:0:0:0:
384,236,3417,6,0,P|396:164|384:116,1,112,10|0,0:0|0:0,0:0:0:0:
260,56,4197,2,0,P|248:128|260:176,1,112,2|0,0:0|0:0,0:0:0:0:
296,228,4781,1,0,0:0:0:0:
248,284,4976,5,2,0:0:0:0:
248,284,5171,2,0,L|112:272,1,112,0|0,0:0|0:0,0:0:0:0:
80,228,5755,2,0,P|88:160|72:72,1,112,2|0,0:0|0:0,0:0:0:0:
24,76,6339,1,0,0:0:0:0:
24,76,6534,6,0,P|76:44|144:76,1,112,10|0,0:0|0:0,0:0:0:0:
172,112,7119,1,0,0:0:0:0:
172,112,7313,2,0,L|248:104,1,56,2|0,0:0|0:0,0:0:0:0:
284,60,7703,2,0,L|364:68,1,56,0|0,0:0|0:0,0:0:0:0:
392,120,8093,6,0,P|412:176|400:240,1,112,2|0,0:0|0:0,0:0:0:0:
352,276,8677,1,0,0:0:0:0:
352,276,8872,2,0,L|356:332,2,56,2|0|0,0:0|0:0|0:0,0:0:0:0:
292,236,9456,1,0,0:0:0:0:
228,268,9651,6,0,P|152:272|116:248,1,112,10|0,0:0|0:0,0:0:0:0:
88,192,10236,1,0,0:0:0:0:
112,124,10430,2,0,L|96:52,2,56,2|0|0,0:0|0:0|0:0,0:0:0:0:
258,124,11210,6,0,L|390:104|390:104,1,112,2|0,0:0|0:0,0:0:0:0:
432,144,11794,1,0,0:0:0:0:
432,144,11989,2,0,P|452:204|444:252,1,112,2|0,0:0|0:0,0:0:0:0:
388,300,12573,1,0,0:0:0:0:
388,300,12768,6,0,L|384:376,2,56,10|0|0,0:0|0:0|0:0,0:0:0:0:
332,256,13352,1,0,0:0:0:0:
263,284,13547,2,0,P|211:299|157:284,1,112,2|0,0:0|0:0,0:0:0:0:
100,240,14132,1,0,0:0:0:0:
100,240,14326,6,0,L|44:245,2,56,2|0|0,0:0|0:0|0:0,0:0:0:0:
156,192,14911,1,0,0:0:0:0:
104,140,15106,2,0,P|96:64|120:28,1,112,2|0,0:0|0:0,0:0:0:0:
184,20,15690,1,0,0:0:0:0:
236,72,15885,6,0,L|376:84,2,112,10|0|2,0:0|0:0|0:0,0:0:0:0:
156,192,17054,1,0,0:0:0:0:
204,248,17249,1,0,0:0:0:0:
268,280,17443,6,0,L|340:272,1,56,2|0,0:0|0:0,0:0:0:0:
443,246,17833,2,0,L|388:240,1,56,0|0,0:0|0:0,0:0:0:0:
340,184,18223,1,2,0:0:0:0:
400,52,18612,1,0,0:0:0:0:
400,52,18807,1,0,0:0:0:0:
400,52,19002,6,0,L|248:60,1,112,10|0,0:0|0:0,0:0:0:0:
232,108,19586,1,0,0:0:0:0:
168,72,19781,2,0,P|104:64|40:104,1,112,2|0,0:0|0:0,0:0:0:0:
20,144,20365,1,0,0:0:0:0:
20,144,20560,6,0,L|24:220,1,56,2|0,0:0|0:0,0:0:0:0:
120,257,20950,2,0,L|122:201,1,56
216,140,21339,2,0,P|280:136|348:168,1,112,2|0,0:0|0:0,0:0:0:0:
372,288,22119,6,0,P|308:292|240:260,1,112,10|0,0:0|0:0,0:0:0:0:
212,224,22703,1,0,0:0:0:0:
156,272,22898,2,0,L|144:352,1,56,2|0,0:0|0:0,0:0:0:0:
28,308,23288,2,0,L|36:252,1,56
68,188,23677,6,0,B|57:110|57:110|76:56,1,112,2|8,0:0|0:3,0:0:0:0:
152,32,24262,1,4,0:3:0:0:
268,80,24456,2,0,B|376:72|376:72|348:96,1,140,4|6,0:0|0:0,0:0:0:0:
84,332,25820,5,0,0:0:0:0:
84,332,26015,2,0,L|184:344,1,56,8|0,0:0|0:0,0:0:0:0:
206,308,26404,2,0,L|261:301,1,56,2|0,0:0|0:0,0:0:0:0:
324,340,26794,6,0,P|408:356|456:332,1,112,2|2,0:0|0:0,0:0:0:0:
474,289,27378,1,0,0:0:0:0:
416,244,27573,2,0,L|412:184,1,56,8|0,0:0|0:0,0:0:0:0:
352,88,27963,2,0,L|345:143,1,56,2|0,0:0|0:0,0:0:0:0:
280,248,28352,6,0,L|276:192,1,56,2|0,0:0|0:0,0:0:0:0:
219,147,28742,2,0,P|164:150|110:166,1,112,2|8,0:0|0:0,0:0:0:0:
82,234,29326,1,0,0:0:0:0:
82,234,29521,6,0,P|42:196|48:128,1,112,0|2,0:0|0:0,0:0:0:0:
136,32,30300,1,2,0:0:0:0:
280,44,30690,1,8,0:0:0:0:
340,176,31080,1,6,0:0:0:0:
340,176,31859,5,2,0:0:0:0:
324,248,32054,1,0,0:0:0:0:
300,316,32249,2,0,L|168:304,1,112,8|0,0:0|0:0,0:0:0:0:
120,332,32833,1,0,0:0:0:0:
64,284,33028,6,0,P|44:208|56:168,1,112,2|0,0:0|0:0,0:0:0:0:
100,128,33612,1,0,0:0:0:0:
100,128,33807,2,0,L|200:120,1,56,8|0,0:0|0:0,0:0:0:0:
212,76,34197,1,0,0:0:0:0:
280,164,34391,1,0,0:0:0:0:
344,72,34586,6,0,L|340:16,2,56,2|0|0,0:0|0:0|0:0,0:0:0:0:
400,120,35171,1,0,0:0:0:0:
400,120,35365,2,0,L|488:104,2,56,8|0|0,0:0|0:0|0:0,0:0:0:0:
364,184,35950,1,0,0:0:0:0:
364,184,36145,6,0,L|372:264,1,56,2|8,0:0|0:0,0:0:0:0:
296,228,36534,2,0,L|304:308,1,56,2|0,0:0|0:0,0:0:0:0:
236,320,36924,2,0,P|172:312|116:324,1,112,8|8,0:0|0:0,0:0:0:0:
36,204,37703,6,0,P|100:212|156:200,1,112,6|0,0:0|0:0,0:0:0:0:
256,64,38482,1,8,0:0:0:0:
408,148,38872,1,0,0:0:0:0:
424,220,39067,1,0,0:0:0:0:
440,292,39262,6,0,L|432:364,2,56,2|0|0,0:0|0:0|0:0,0:0:0:0:
408,148,40041,2,0,P|369:140|288:156,1,112,8|0,0:0|0:0,0:0:0:0:
244,200,40625,1,0,0:0:0:0:
168,144,40820,6,0,L|162:88,1,56,6|0,0:0|0:0,0:0:0:0:
104,212,41210,2,0,L|48:219,1,56,2|0,0:0|0:0,0:0:0:0:
180,272,41599,2,0,L|185:327,1,56,8|0,0:0|0:0,0:0:0:0:
244,200,41989,2,0,L|299:192,1,56,0|0,0:0|0:0,0:0:0:0:
360,232,42378,5,2,0:0:0:0:
420,188,42573,2,0,P|424:120|396:64,1,112,0|0,0:0|0:0,0:0:0:0:
340,48,43158,2,0,L|200:56,1,112,8|0,0:0|0:0,0:0:0:0:
160,28,43742,1,0,0:0:0:0:
112,84,43937,6,0,P|108:124|112:152,1,56,6|0,0:0|0:0,0:0:0:0:
172,180,44326,2,0,P|176:220|172:248,1,56,0|0,0:0|0:0,0:0:0:0:
68,284,44716,2,0,L|124:288,1,56,8|0,0:0|0:0,0:0:0:0:
180,336,45106,1,0,0:0:0:0:
244,304,45300,1,0,0:0:0:0:
304,344,45495,6,0,P|388:336|436:300,2,112,2|0|8,0:0|0:0|0:0,0:0:0:0:
244,304,46469,1,0,0:0:0:0:
276,240,46664,2,0,B|280:208|280:208|272:152,1,56,0|0,0:0|0:0,0:0:0:0:
228,132,47054,6,0,L|112:148,2,112,6|0|8,0:0|0:0|0:0,0:0:0:0:
348,48,48223,1,0,0:0:0:0:
416,76,48417,1,0,0:0:0:0:
484,104,48612,6,0,L|476:248,1,112,2|2,0:0|0:0,0:0:0:0:
368,312,49391,2,0,L|356:188,1,112,8|0,0:0|0:0,0:0:0:0:
228,132,50171,5,6,0:0:0:0:
228,132,52508,6,0,L|220:280,1,125.999996154785,2|0,0:0|0:0,0:0:0:0:
220,272,53288,6,0,P|323:255|387:283,1,140,6|0,0:0|0:0,0:0:0:0:
424,312,53872,1,0,0:0:0:0:
476,248,54067,2,0,B|480:152|480:152|464:104,1,140,8|0,0:0|0:0,0:0:0:0:
400,60,54651,1,2,0:0:0:0:
400,60,54846,6,0,L|304:68,1,70,2|0,0:0|0:0,0:0:0:0:
196,168,55430,1,0,0:0:0:0:
260,224,55625,2,0,P|272:288|228:356,1,140,8|0,0:0|0:0,0:0:0:0:
156,328,56210,1,0,0:0:0:0:
156,328,56404,6,0,L|56:336,1,70,2|0,0:0|0:0,0:0:0:0:
16,236,56794,2,0,L|116:244,1,70,0|0,0:0|0:0,0:0:0:0:
152,188,57184,2,0,P|124:108|144:40,1,140,8|0,0:0|0:0,0:0:0:0:
216,36,57768,1,0,0:0:0:0:
216,36,57963,6,0,L|304:48,2,70,2|0|2,0:0|0:0|0:0,0:0:0:0:
135,56,58547,1,2,0:0:0:0:
168,132,58742,2,0,P|176:204|128:276,1,140,8|0,0:0|0:0,0:0:0:0:
76,308,59326,1,0,0:0:0:0:
76,308,59424,1,0,0:0:0:0:
76,308,59521,6,0,P|160:300|236:360,2,140,6|0|8,0:0|0:0|0:0,0:0:0:0:
156,160,60690,2,0,P|72:168|-4:108,2,140,0|2|0,0:0|0:0|0:0,0:0:0:0:
220,104,61664,1,0,0:0:0:0:
296,140,61859,2,0,L|304:212,1,70,8|0,0:0|0:0,0:0:0:0:
384,240,62249,2,0,L|376:170,1,70,0|0,0:0|0:0,0:0:0:0:
448,128,62638,6,0,L|464:288,1,140,6|0,0:0|0:0,0:0:0:0:
416,340,63223,1,0,0:0:0:0:
416,340,63417,2,0,P|320:352|256:312,1,140,8|0,0:0|0:0,0:0:0:0:
216,284,64002,1,0,0:0:0:0:
216,284,64197,6,0,L|112:292,1,70,2|0,0:0|0:0,0:0:0:0:
6,245,64586,2,0,L|76:240,1,70,0|0,0:0|0:0,0:0:0:0:
156,208,64976,1,8,0:0:0:0:
216,148,65171,1,0,0:0:0:0:
196,68,65365,1,0,0:0:0:0:
120,32,65560,1,0,0:0:0:0:
196,68,65755,6,0,L|352:52,2,140,6|6|8,0:0|0:0|0:0,0:0:0:0:
68,284,67119,1,0,0:0:0:0:
68,284,67313,6,0,L|160:288,1,70,2|0,0:0|0:0,0:0:0:0:
212,244,67703,2,0,L|281:240,1,70,0|0,0:0|0:0,0:0:0:0:
352,292,68093,2,0,P|344:332|352:368,2,70,8|0|2,0:0|0:0|0:0,0:0:0:0:
412,232,68677,1,0,0:0:0:0:
396,148,68872,6,0,P|456:156|488:184,2,70,6|0|0,0:0|0:0|0:0,0:0:0:0:
252,232,69651,2,0,L|260:68,1,140,8|0,0:0|0:0,0:0:0:0:
212,24,70236,1,0,0:0:0:0:
164,92,70430,6,0,P|129:95|96:85,1,70,2|0,0:0|0:0,0:0:0:0:
16,59,70820,2,0,L|16:199,1,140,0|8,0:0|0:0,0:0:0:0:
44,280,71404,2,0,L|32:380,2,70,0|0|0,0:0|0:0|0:0,0:0:0:0:
120,248,71989,6,0,P|208:240|256:284,1,140,2|0,0:0|0:0,0:0:0:0:
296,336,72573,1,0,0:0:0:0:
296,336,72768,2,0,L|412:332,1,70,8|0,0:0|0:0,0:0:0:0:
489,270,73158,2,0,L|420:268,1,70,0|0,0:0|0:0,0:0:0:0:
348,224,73547,6,0,P|328:148|360:76,1,140,2|0,0:0|0:0,0:0:0:0:
416,40,74132,1,0,0:0:0:0:
416,40,74326,2,0,L|512:48,2,70,8|0|0,0:0|0:0|0:0,0:0:0:0:
347,91,74911,1,0,0:0:0:0:
347,91,75106,6,0,L|156:104,1,140,6|0,0:0|0:0,0:0:0:0:
132,64,75690,1,0,0:0:0:0:
64,112,75885,2,0,L|56:184,1,70,8|0,0:0|0:0,0:0:0:0:
180,240,76275,2,0,L|172:170,1,70,0|0,0:0|0:0,0:0:0:0:
112,296,76664,6,0,P|180:328|264:264,1,140,2|0,0:0|0:0,0:0:0:0:
308,260,77249,2,0,L|400:264,1,70,0|8,0:0|0:0,0:0:0:0:
440,320,77638,1,0,0:0:0:0:
504,264,77833,1,0,0:0:0:0:
496,180,78028,1,0,0:0:0:0:
428,128,78223,6,0,L|264:136,1,140,2|0,0:0|0:0,0:0:0:0:
216,176,78807,1,0,0:0:0:0:
148,128,79002,2,0,L|156:48,1,70,8|0,0:0|0:0,0:0:0:0:
216,176,79391,2,0,L|222:245,1,70,0|0,0:0|0:0,0:0:0:0:
176,316,79781,6,0,L|80:308,2,70,2|0|2,0:0|0:0|0:0,0:0:0:0:
252,356,80365,1,0,0:0:0:0:
252,356,80560,2,0,L|400:344,1,140,8|0,0:0|0:0,0:0:0:0:
456,288,81145,1,0,0:0:0:0:
400,228,81339,6,0,P|392:192|400:148,1,70,6|0,0:0|0:0,0:0:0:0:
464,112,81729,2,0,L|284:132,2,140,0|8|0,0:0|0:0|0:0,0:0:0:0:
492,32,82703,1,0,0:0:0:0:
492,32,82898,6,0,L|380:48,1,70,2|0,0:0|0:0,0:0:0:0:
340,32,83288,2,0,L|270:41,1,70,0|0,0:0|0:0,0:0:0:0:
204,96,83677,2,0,P|228:196|188:256,1,140,8|0,0:0|0:0,0:0:0:0:
152,280,84262,1,0,0:0:0:0:
152,280,84456,6,0,L|64:272,1,70,2|0,0:0|0:0,0:0:0:0:
220,332,84846,2,0,L|289:325,1,70,0|0,0:0|0:0,0:0:0:0:
356,272,85236,2,0,P|352:236|360:200,1,70,8|0,0:0|0:0,0:0:0:0:
479,147,85625,2,0,P|486:181|482:216,1,70
415,332,86015,5,2,0:0:0:0:
415,332,86210,1,0,0:0:0:0:
356,272,86404,2,0,L|286:279,1,70,0|0,0:0|0:0,0:0:0:0:
272,288,86697,1,0,0:0:0:0:
258,297,86794,2,0,L|188:290,1,70,8|0,0:0|0:0,0:0:0:0:
104,312,87184,2,0,P|101:277|115:245,1,70,0|0,0:0|0:0,0:0:0:0:
124,232,87476,1,0,0:0:0:0:
132,216,87573,6,0,L|120:56,2,140,6|0|8,0:0|0:0|0:0,0:0:0:0:
236,348,88742,1,0,0:0:0:0:
380,264,89132,2,0,P|464:292|480:360,2,140,2|0|8,0:0|0:0|0:0,0:0:0:0:
240,356,90300,1,0,0:0:0:0:
176,300,90495,1,0,0:0:0:0:
124,232,90690,6,0,L|132:156,1,70,2|0,0:0|0:0,0:0:0:0:
48,164,91080,2,0,L|56:88,1,70,0|0,0:0|0:0,0:0:0:0:
120,44,91469,2,0,P|192:28|264:56,1,140,8|0,0:0|0:0,0:0:0:0:
328,92,92054,1,0,0:0:0:0:
328,92,92249,6,0,L|448:84,1,70,2|0,0:0|0:0,0:0:0:0:
432,164,92638,2,0,L|362:168,1,70,0|0,0:0|0:0,0:0:0:0:
296,224,93028,1,8,0:0:0:0:
296,224,93223,1,0,0:0:0:0:
228,176,93417,1,8,0:0:0:0:
164,228,93612,1,0,0:0:0:0:
96,176,93807,6,0,B|76:128|76:128|80:36,2,140,6|6|8,0:0|0:0|0:0,0:0:0:0:
284,344,95171,5,0,0:0:0:0:
364,320,95365,1,2,0:0:0:0:
420,32,95950,5,0,0:0:0:0:
356,88,96145,2,0,L|364:172,1,70,8|0,0:0|0:0,0:0:0:0:
280,148,96534,2,0,L|288:232,1,70,8|0,0:0|0:0,0:0:0:0:
236,284,96924,5,10,0:0:0:0:
