osu file format v5

[General]
AudioFilename: heathcliff.mp3
AudioLeadIn: 0
PreviewTime: -1
Countdown: 1
SampleSet: Normal
StackLeniency: 0.7
Mode: 0
LetterboxInBreaks: 0
EditorBookmarks: 20214,35529

[Metadata]
Title:Theme
Artist:Heathcliff
Creator:Behonkiss
Version:Normal
Source:
Tags:

[Difficulty]
HPDrainRate:4
CircleSize:4
OverallDifficulty:4
SliderMultiplier:1.3
SliderTickRate:1

[Events]
//Background and Video events
0,0,"heathcliff.jpg"
1,0,"heathcliff.avi"
//Break Periods
2,12278,16781
2,48012,57620
//Storyboard Layer 0 (Background)
//Storyboard Layer 1 (Failing)
//Storyboard Layer 2 (Passing)
//Storyboard Layer 3 (Foreground)
//Storyboard Sound Samples
//Background Colour Transformations
3,100,163,162,255

[TimingPoints]
2670.39671631176,319.055614973262,4,1,0,80,1

[HitObjects]
200,192,2666,1,2
200,192,2989,1,0
304,192,3308,1,2
304,192,3627,1,0
408,200,3946,2,0,B|400:304|104:312|80:200,1,390,0|4
48,104,5222,6,8,B|104:48|168:104,2,130
48,208,6180,1,0
80,304,6499,1,2
232,304,6977,1,4
464,192,7775,5,2
464,192,8094,1,0
416,96,8413,1,2
416,96,8732,1,0
312,64,9051,2,0,B|208:-8|-8:32|8:208,1,390,0|4
96,232,10327,6,8,B|112:152|216:144,2,130
200,240,11284,1,0
272,312,11603,1,2
424,312,12082,1,4
472,320,17985,5,2
368,328,18304,1,2
264,328,18623,1,2
160,328,18942,1,0
56,328,19261,2,0,B|216:216|-64:152|152:-8,1,390,0|4
208,80,20537,5,8
296,128,20856,1,8
376,192,21175,1,8
424,280,21494,1,0
344,344,21813,2,0,B|232:360|144:264,1,195,0|4
56,160,23089,5,2
96,64,23409,1,2
192,24,23728,1,2
296,24,24047,1,0
392,56,24366,1,0
400,208,24844,2,0,B|400:288|328:320,1,130,0|4
288,168,25642,5,8
184,160,25961,1,8
240,248,26280,1,8
192,344,26599,1,0
112,272,26918,1,0
16,144,27397,1,4
264,72,28194,5,2
368,72,28513,1,2
472,72,28832,1,2
472,224,29311,1,0
368,224,29630,2,0,B|208:352,1,195,0|2
112,344,30428,1,2
24,288,30747,5,0
24,184,31066,1,0
24,80,31385,1,0
176,72,31863,2,4,B|328:72,3,130
448,136,33299,5,2
368,200,33618,1,2
264,200,33937,1,2
104,200,34416,1,8
120,96,34735,2,0,B|-24:88|-32:288|128:280,1,325
224,288,35852,5,2
312,336,36171,1,0
416,336,36490,1,2
440,184,36968,2,4,B|440:32,3,130
280,72,38404,5,0
280,176,38723,1,2
240,272,39042,1,0
136,272,39361,1,2
48,216,39680,2,0,B|80:16|376:56,1,390
440,112,40957,5,8
472,208,41276,1,8
440,304,41595,1,8
352,360,41914,1,0
240,360,42233,2,0,B|72:360|72:40,1,390,0|4
176,56,43509,5,0
176,160,43828,1,2
232,248,44147,1,0
304,320,44466,1,2
408,320,44785,2,0,B|408:56,1,260
200,72,46061,2,8,B|136:32|56:88,4,130
136,216,47816,1,4
312,192,58824,5,2
312,192,59143,1,0
208,192,59462,1,2
208,192,59781,1,0
104,200,60100,2,0,B|112:304|408:312|432:200,1,390,0|4
464,104,61376,6,8,B|408:48|344:104,2,130
464,208,62334,1,0
432,304,62653,1,2
280,304,63131,1,4
48,192,63929,5,2
48,192,64248,1,0
96,96,64567,1,2
96,96,64886,1,0
200,64,65205,2,0,B|304:-8|520:32|504:208,1,390
472,280,66481,5,2
320,328,66960,2,8,B|120:328,1,195
72,240,67757,1,2
176,128,68236,1,0
328,128,68714,1,2
328,128,69033,1,4
