osu file format v5

[General]
AudioFilename: heathcliff.mp3
AudioLeadIn: 0
PreviewTime: -1
Countdown: 1
SampleSet: Normal
StackLeniency: 0.7
Mode: 0
LetterboxInBreaks: 0

[Metadata]
Title:Theme
Artist:Heathcliff
Creator:Behonkiss
Version:Hard
Source:
Tags:

[Difficulty]
HPDrainRate:5
CircleSize:4
OverallDifficulty:5
SliderMultiplier:1.7
SliderTickRate:1

[Events]
//Background and Video events
0,0,"heathcliff.jpg"
1,0,"heathcliff.avi"
//Break Periods
2,12271,16771
2,48012,57620
//Storyboard Layer 0 (Background)
//Storyboard Layer 1 (Failing)
//Storyboard Layer 2 (Passing)
//Storyboard Layer 3 (Foreground)
//Storyboard Sound Samples
//Background Colour Transformations
3,100,163,162,255

[TimingPoints]
2670.39671631176,319.055614973262,4,1,0,80,1

[HitObjects]
32,328,2626,2,2,B|120:264|224:344,1,170
344,320,3268,2,2,B|432:248|320:152,1,170
216,48,3946,1,8
216,48,4106,1,8
64,56,4425,2,0,B|64:320,1,255,0|4
216,288,5222,1,2
360,224,5541,1,2
464,112,5860,1,2
336,24,6180,1,0
184,24,6499,1,8
184,24,6658,2,0,B|80:32|88:176,1,170,8|4
392,88,7615,5,0
392,160,7775,2,2,B|392:352,1,170
240,336,8413,1,2
96,288,8732,1,2
32,144,9051,1,8
32,144,9211,1,8
144,40,9530,2,0,B|232:16|352:48,1,170,0|4
448,224,10327,1,2
328,320,10646,1,2
200,232,10965,1,2
72,320,11284,1,0
32,168,11603,1,8
32,168,11763,2,0,B|32:72|144:40,1,170,8|4
256,24,17985,5,2
176,160,18304,1,2
328,160,18623,1,2
256,304,18942,1,0
408,328,19261,1,8
408,328,19420,1,8
464,184,19739,2,4,B|472:72|384:48,1,170
232,48,20377,1,0
152,48,20537,2,2,B|72:8|-16:56,3,170
64,184,21813,1,8
64,184,21973,1,8
64,336,22292,1,4
336,64,23089,5,2
472,128,23409,1,2
472,280,23728,1,2
336,352,24047,1,0
184,352,24366,1,8
184,352,24525,1,8
40,296,24844,2,4,B|40:96,1,170
256,48,25642,1,2
256,200,25961,1,2
384,304,26280,1,2
440,160,26599,1,2
288,128,26918,1,8
288,128,27078,2,0,B|192:96|88:136,1,170,8|4
352,320,28035,5,0
352,240,28194,2,2,B|352:40,2,170
200,240,29152,1,0
120,240,29311,1,0
32,112,29630,1,8
32,112,29790,1,8
32,112,29949,1,8
32,32,30109,2,2,B|120:0|208:40,1,170
272,64,30587,1,0
272,64,30747,1,2
424,120,31066,1,2
424,272,31385,1,2
280,328,31704,1,2
280,328,31863,2,4,B|192:280|96:336,3,170
32,192,33140,5,0
32,192,33299,2,2,B|32:8,3,170
32,22,34416,1,0
160,104,34735,1,8
160,104,34895,1,8
160,104,35054,1,8
232,104,35214,2,2,B|336:64|416:120,1,170
456,160,35692,1,0
472,232,35852,2,0,B|472:304|336:336,1,170
192,336,36490,1,8
72,240,36809,1,0
120,176,36968,2,4,B|200:128|304:184,3,170
88,48,38404,5,0
240,48,38723,1,2
168,184,39042,1,0
168,336,39361,1,2
320,336,39680,1,8
320,336,39840,1,8
440,240,40159,2,0,B|480:160|432:72,1,170
320,176,40797,1,0
320,176,40957,1,2
168,176,41276,1,2
80,296,41595,1,2
224,344,41914,1,2
376,344,42233,1,0
376,344,42392,1,0
440,208,42711,1,4
80,344,43509,5,2
16,200,43828,1,0
80,64,44147,1,2
224,16,44466,1,0
368,56,44785,1,8
368,56,44945,1,8
456,176,45264,2,0,B|456:296|336:312,1,170
216,312,45902,1,0
136,312,46061,2,2,B|-40:312,3,170
56,176,47338,1,0
120,136,47497,2,4,B|272:56,1,170
40,88,58824,6,2,B|120:40|216:96,1,170
208,240,59462,2,2,B|128:176|24:256,1,170
128,328,60100,1,8
128,328,60259,1,8
264,328,60578,2,4,B|448:328|448:176,1,255
352,96,61376,2,2,B|264:48|168:104,3,170
64,152,62652,1,8
64,152,62812,1,8
64,288,63131,1,4
320,200,63769,5,0
320,264,63929,2,2,B|448:264|448:168,1,170
448,40,64567,1,2
312,40,64886,1,2
176,40,65205,1,8
176,40,65364,1,8
40,48,65683,2,4,B|0:128|48:232,1,170
208,328,66481,5,8
208,328,66641,1,8
304,232,66960,2,0,B|488:232,1,170
474,232,67438,1,2
392,128,67757,1,8
392,128,67917,1,8
256,136,68236,2,0,B|72:136,1,170
16,136,68714,1,2
96,240,69033,1,4
