osu file format v5

[General]
AudioFilename: heathcliff.mp3
AudioLeadIn: 0
PreviewTime: -1
Countdown: 1
SampleSet: Normal
StackLeniency: 0.7
Mode: 0
LetterboxInBreaks: 0
EditorBookmarks: 4898

[Metadata]
Title:Theme
Artist:Heathcliff
Creator:Behonkiss
Version:Easy
Source:
Tags:

[Difficulty]
HPDrainRate:3
CircleSize:4
OverallDifficulty:1
SliderMultiplier:0.999999999999999
SliderTickRate:2

[Events]
//Background and Video events
0,0,"heathcliff.jpg"
1,0,"heathcliff.avi"
//Break Periods
2,12749,16411
2,48143,57104
//Storyboard Layer 0 (Background)
//Storyboard Layer 1 (Failing)
//Storyboard Layer 2 (Passing)
//Storyboard Layer 3 (Foreground)
//Storyboard Sound Samples
//Background Colour Transformations
3,100,163,162,255

[TimingPoints]
2670.39671631176,319.055614973262,4,1,0,80,1

[HitObjects]
88,192,2666,1,2
392,184,3308,1,2
104,312,3946,2,0,B|416:312,1,300
424,192,5222,5,2
120,184,5860,1,2
408,312,6499,2,0,B|96:312,1,300
48,240,7775,5,2
48,64,8413,1,2
200,152,9051,2,0,B|504:152,1,300
464,240,10327,5,2
464,64,10965,1,2
312,152,11603,2,0,B|8:152,1,300,0|4
256,40,17985,5,2
256,216,18623,1,2
112,112,19261,1,0
112,248,19739,1,8
256,40,20537,5,2
256,216,21175,1,2
400,112,21813,1,0
400,248,22292,1,8
192,336,23089,5,2
368,336,23728,1,2
272,184,24366,1,0
272,184,24844,1,8
320,336,25642,5,2
144,336,26280,1,2
240,184,26918,1,0
240,184,27397,1,8
40,72,28194,5,8
40,72,28513,1,8
40,72,28832,1,8
176,72,29311,1,2
264,72,29630,2,0,B|520:72,1,250
488,160,30747,5,0
304,168,31385,1,0
120,168,31863,2,4,B|16:168,3,99.9999999999999
40,72,33299,5,8
40,72,33618,1,8
40,72,33937,1,8
176,72,34416,1,2
264,72,34735,2,0,B|520:72,1,250
488,160,35852,5,0
304,168,36490,1,0
120,168,36968,2,4,B|16:168,3,99.9999999999999
96,280,38404,5,2
280,280,39042,1,2
456,280,39680,2,0,B|456:56|288:56,1,300
216,56,40957,5,2
32,56,41595,1,2
32,232,42233,2,0,B|336:232,1,300,0|4
376,304,43509,5,2
480,160,44147,1,2
336,48,44785,2,0,B|24:48,1,300
0,128,46061,5,2
88,280,46700,1,2
264,280,47338,2,0,B|472:280,1,200,0|4
424,192,58824,5,2
120,184,59462,1,2
408,312,60100,2,0,B|96:312,1,300
88,192,61376,5,2
392,184,62014,1,2
104,312,62652,2,0,B|416:312,1,300
464,240,63929,5,2
464,64,64567,1,2
312,152,65205,2,0,B|8:152,1,300
40,64,66481,5,8
400,64,67757,1,8
256,288,68714,1,0
256,288,69033,1,4
