osu file format v13

[General]
AudioFilename: op.mp3
AudioLeadIn: 2000
PreviewTime: 55370
Countdown: 0
SampleSet: Soft
StackLeniency: 0.7
Mode: 0
LetterboxInBreaks: 0
WidescreenStoryboard: 0

[Editor]
Bookmarks: 31499
DistanceSpacing: 0.8
BeatDivisor: 4
GridSize: 4
TimelineZoom: 2.799999

[Metadata]
Title:Koukan Win-Win Mujouken
TitleUnicode:好感Win-Win無条件
Artist:Heart Invader
ArtistUnicode:ハート♡インベーダー
Creator:Fycho
Version:Normal
Source:六畳間の侵略者!?
Tags:rokujouma no shinryakusha opening
BeatmapID:460846
BeatmapSetID:193980

[Difficulty]
HPDrainRate:4
CircleSize:3
OverallDifficulty:4
ApproachRate:5
SliderMultiplier:1.1
SliderTickRate:1

[Events]
//Background and Video events
0,0,"bg1.jpg",0,0
Video,0,"video.avi"
//Break Periods
//Storyboard Layer 0 (Background)
//Storyboard Layer 1 (Fail)
//Storyboard Layer 2 (Pass)
//Storyboard Layer 3 (Foreground)
//Storyboard Sound Samples
//Background Colour Transformations
3,100,163,162,255

[TimingPoints]
371,322.58064516129,4,2,1,80,1,0
371,-100,4,2,1,80,0,0
4887,-100,4,2,1,60,0,0
5532,-100,4,2,1,60,0,0
5693,322.58064516129,4,2,1,60,1,0
10854,-100,4,2,1,70,0,0
20692,-100,4,2,1,40,0,0
21176,-100,4,2,1,60,0,0
31499,-100,4,2,1,70,0,0
41822,-100,4,2,1,60,0,0
45854,-100,4,2,1,65,0,0
46176,-100,4,2,1,70,0,0
46660,-100,4,2,1,50,0,0
46983,-100,4,2,1,70,0,0
55854,-100,4,2,1,80,0,1
76660,-100,4,2,1,70,0,0
85854,-100,4,2,1,60,0,0
86499,-100,4,2,1,50,0,0
86902,-100,4,2,1,40,0,0
88273,-100,4,2,1,5,0,0

[Colours]
Combo1 : 255,98,255
Combo2 : 134,134,196
Combo3 : 150,255,45
Combo4 : 64,255,255

[HitObjects]
52,316,371,6,0,L|187:306,1,110,4|0,0:0|0:0,0:0:0:0:
188,223,1016,2,0,L|298:215,1,110,0|0,0:0|0:0,0:0:0:0:
334,135,1661,2,0,L|443:127,2,110,4|0|0,0:0|0:0|0:0,0:0:0:0:
255,96,2629,1,0,0:0:0:0:
173,127,2951,6,0,P|148:188|162:238,1,110,4|0,0:0|0:0,0:0:0:0:
197,307,3596,2,0,P|258:332|308:318,1,110,0|0,0:0|0:0,0:0:0:0:
372,274,4241,1,4,0:0:0:0:
317,106,4887,1,4,0:0:0:0:
144,140,5532,6,0,L|139:320,1,165,12|8,0:0|0:0,0:0:0:0:
227,317,6338,2,0,P|320:337|338:334,1,110,8|8,0:0|0:0,0:0:0:0:
354,295,6822,6,0,P|430:265|512:256,1,165,12|8,0:0|0:0,0:0:0:0:
486,172,7628,2,0,L|491:56,1,110,8|8,0:0|0:0,0:0:0:0:
447,58,8112,6,0,P|357:80|279:76,1,165,12|8,0:0|0:0,0:0:0:0:
200,99,8918,2,0,P|174:153|183:268,1,165,8|4,0:0|0:0,0:0:0:0:
256,192,9563,12,4,10854,0:0:0:0:
82,230,11176,6,0,L|68:341,2,110,8|8|8,0:0|0:0|0:0,0:0:0:0:
90,186,11983,2,0,P|156:155|248:178,1,165,4|8,0:0|0:0,0:0:0:0:
320,217,12789,2,0,L|308:342,1,110,8|8,0:0|0:0,0:0:0:0:
338,360,13273,6,0,P|426:372|503:331,1,165,4|8,0:0|0:0,0:0:0:0:
462,257,14080,1,8,0:0:0:0:
471,169,14402,1,8,0:0:0:0:
428,156,14563,2,0,P|364:125|263:155,1,165,4|8,0:0|0:0,0:0:0:0:
262,187,15209,2,0,P|184:208|109:176,1,165,4|8,0:0|0:0,0:0:0:0:
65,175,15854,6,0,P|36:106|73:24,1,165,4|8,0:0|0:0,0:0:0:0:
155,50,16660,2,0,L|278:60,1,110,8|8,0:0|0:0,0:0:0:0:
290,94,17144,2,0,P|308:161|289:266,1,165,4|8,0:0|0:0,0:0:0:0:
238,323,17951,6,0,L|65:315,2,165,8|4|8,0:0|0:0|0:0,0:0:0:0:
313,277,19241,2,0,L|424:284,1,110,8|8,0:0|0:0,0:0:0:0:
443,245,19725,2,0,P|462:155|470:127,2,110,4|4|4,0:0|0:0|0:0,0:0:0:0:
303,76,21176,6,0,L|319:196,1,110,4|8,0:0|0:0,0:0:0:0:
257,248,21822,2,0,P|183:265|128:258,1,110,0|8,0:0|0:0,0:0:0:0:
84,204,22467,2,0,L|68:84,1,110,0|8,0:0|0:0,0:0:0:0:
124,25,23112,2,0,P|198:8|253:15,1,110,0|8,0:0|0:0,0:0:0:0:
258,45,23596,1,8,0:0:0:0:
282,82,23757,6,0,L|398:67,1,110,0|8,0:0|0:0,0:0:0:0:
453,129,24402,2,0,P|482:200|473:251,1,110,0|8,0:0|0:0,0:0:0:0:
423,300,25047,1,0,0:0:0:0:
336,284,25370,1,8,0:0:0:0:
249,282,25692,2,0,L|237:354,2,55,0|8|8,0:0|0:0|0:0,0:0:0:0:
165,251,26338,6,0,L|142:369,2,110,4|8|0,0:0|0:0|0:0,0:0:0:0:
155,164,27305,1,8,0:0:0:0:
157,75,27628,6,0,P|254:54|345:123,1,220,0|0,0:0|0:0,0:0:0:0:
420,169,28596,1,8,0:0:0:0:
371,242,28918,2,0,L|379:365,1,110,4|8,0:0|0:0,0:0:0:0:
335,343,29402,2,0,P|206:315|168:335,1,165,4|8,0:0|0:0,0:0:0:0:
108,276,30209,6,0,P|106:195|101:109,2,165,4|4|8,0:0|0:0|0:0,0:0:0:0:
173,334,31499,6,0,L|294:319,1,110,4|8,0:0|0:0,0:0:0:0:
370,308,32144,1,0,0:0:0:0:
443,258,32467,1,8,0:0:0:0:
443,258,32628,2,0,L|441:93,1,165,0|8,0:0|0:0,0:0:0:0:
358,61,33434,1,0,0:0:0:0:
274,89,33757,1,8,0:0:0:0:
223,160,34080,6,0,L|95:150,2,110,0|8|0,0:0|0:0|0:0,0:0:0:0:
303,196,35047,2,0,L|365:202,1,55,8|4,0:0|0:0,0:0:0:0:
394,331,35692,1,8,0:0:0:0:
394,331,35854,2,0,L|285:322,1,110,4|8,0:0|0:0,0:0:0:0:
240,326,36338,1,8,0:0:0:0:
163,282,36660,6,0,P|131:237|126:183,1,110,4|8,0:0|0:0,0:0:0:0:
206,147,37305,2,0,L|192:28,1,110,0|8,0:0|0:0,0:0:0:0:
233,20,37789,2,0,B|316:16|316:16|408:51,1,165,4|8,0:0|0:0,0:0:0:0:
416,84,38434,2,0,P|445:135|432:240,1,165,0|8,0:0|0:0,0:0:0:0:
349,213,39241,6,0,L|239:209,1,110,4|8,0:0|0:0,0:0:0:0:
219,294,39886,2,0,L|329:298,1,110,8|8,0:0|0:0,0:0:0:0:
369,318,40370,2,0,P|426:286|443:177,1,165,4|8,0:0|0:0,0:0:0:0:
456,150,41015,2,0,B|452:106|426:72|426:72|397:91|345:90,1,165,4|8,0:0|0:0,0:0:0:0:
262,74,41822,6,0,B|163:100|163:100|94:95,1,165,4|8,0:0|0:0,0:0:0:0:
86,182,42628,2,0,L|68:308,2,110,8|8|0,0:0|0:0|0:0,0:0:0:0:
171,203,43596,2,0,L|335:192,1,165,8|8,0:0|0:0,0:0:0:0:
402,250,44402,6,0,P|387:178|410:84,1,165,4|8,0:0|0:0,0:0:0:0:
320,75,45209,2,8,L|193:69,1,110,8|4,0:0|0:0,0:0:0:0:
148,132,45854,2,0,P|128:172|135:252,2,110,4|4|4,0:0|0:0|0:0,0:0:0:0:
267,195,46983,6,0,L|268:315,1,110,4|8,0:0|0:0,0:0:0:0:
350,334,47628,2,0,L|349:224,1,110,0|8,0:0|0:0,0:0:0:0:
390,206,48112,2,0,P|401:113|423:28,1,165,4|8,0:0|0:0,0:0:0:0:
335,14,48918,1,0,0:0:0:0:
265,67,49241,1,8,0:0:0:0:
196,122,49563,6,0,L|86:118,1,110,4|8,0:0|0:0,0:0:0:0:
118,200,50209,2,0,P|120:261|106:319,1,110,8|8,0:0|0:0,0:0:0:0:
133,346,50692,2,0,L|308:357,1,165,4|8,0:0|0:0,0:0:0:0:
345,281,51499,2,0,P|437:276|471:276,1,110,8|8,0:0|0:0,0:0:0:0:
476,191,52144,5,12,0:0:0:0:
452,108,52467,1,8,0:0:0:0:
372,76,52789,1,8,0:0:0:0:
292,116,53112,1,8,0:0:0:0:
256,192,53434,12,4,54725,0:0:0:0:
110,111,55854,6,0,P|87:157|84:224,1,110,4|0,0:0|0:0,0:0:0:0:
118,296,56499,2,0,L|228:289,1,110,4|0,0:0|0:0,0:0:0:0:
316,288,57144,2,0,B|416:302|416:302|491:294,1,165,4|8,0:0|0:0,0:0:0:0:
506,260,57789,2,0,P|515:166|504:140,1,110,0|8,0:0|0:0,0:0:0:0:
473,74,58434,6,0,P|419:75|364:72,1,110,4|0,0:0|0:0,0:0:0:0:
285,30,59080,2,0,L|174:47,1,110,4|0,0:0|0:0,0:0:0:0:
111,106,59725,2,0,L|98:278,1,165,4|8,0:0|0:0,0:0:0:0:
159,334,60531,1,8,0:0:0:0:
245,315,60854,1,8,0:0:0:0:
318,266,61176,6,0,P|390:249|437:265,2,110,4|8|0,0:0|0:0|0:0,0:0:0:0:
233,241,62144,1,8,0:0:0:0:
233,241,62305,2,0,B|216:111|216:111|237:62,1,165,4|8,0:0|0:0,0:0:0:0:
306,39,63112,2,0,L|414:65,1,110,8|8,0:0|0:0,0:0:0:0:
436,150,63757,6,0,P|417:289|419:317,1,165,4|4,0:0|0:0,0:0:0:0:
287,298,64725,2,0,L|225:309,1,55,8|4,0:0|0:0,0:0:0:0:
281,184,65370,2,0,L|335:175,1,55,8|4,0:0|0:0,0:0:0:0:
160,158,66176,6,0,P|123:111|126:57,1,110,4|0,0:0|0:0,0:0:0:0:
205,28,66822,2,0,L|315:21,1,110,4|0,0:0|0:0,0:0:0:0:
384,75,67467,2,0,B|369:175|369:175|378:249,1,165,4|8,0:0|0:0,0:0:0:0:
378,282,68112,2,0,P|284:273|258:284,1,110,0|8,0:0|0:0,0:0:0:0:
208,339,68757,6,0,P|154:334|98:337,1,110,4|0,0:0|0:0,0:0:0:0:
19,297,69402,2,0,L|32:172,1,110,4|0,0:0|0:0,0:0:0:0:
117,204,70047,2,0,L|129:40,1,165,4|8,0:0|0:0,0:0:0:0:
214,62,70854,1,8,0:0:0:0:
243,145,71176,1,8,0:0:0:0:
286,155,71338,6,0,P|358:138|445:167,1,165,4|8,0:0|0:0,0:0:0:0:
430,253,72144,1,8,0:0:0:0:
375,322,72467,1,8,0:0:0:0:
331,327,72628,2,0,B|225:345|225:345|172:326,1,165,4|8,0:0|0:0,0:0:0:0:
157,238,73434,2,0,L|276:216,1,110,8|8,0:0|0:0,0:0:0:0:
303,238,73918,6,0,P|304:156|321:75,1,165,4|8,0:0|0:0,0:0:0:0:
409,72,74725,1,8,0:0:0:0:
441,153,75047,1,8,0:0:0:0:
428,195,75209,2,0,B|438:309|438:309|419:382,1,165,4|0,0:0|0:0,0:0:0:0:
340,335,76015,2,0,L|217:325,1,110,8|8,0:0|0:0,0:0:0:0:
256,192,76660,12,4,79080,0:0:0:0:
285,313,79563,6,0,L|411:298,1,110,8|8,0:0|0:0,0:0:0:0:
443,227,80209,1,8,0:0:0:0:
443,227,80370,2,0,L|453:43,1,165,4|8,0:0|0:0,0:0:0:0:
410,45,81015,2,0,P|329:38|256:85,1,165,4|8,0:0|0:0,0:0:0:0:
244,120,81660,6,0,P|273:189|265:282,1,165,4|8,0:0|0:0,0:0:0:0:
189,321,82467,2,0,L|72:317,1,110,8|8,0:0|0:0,0:0:0:0:
52,282,82951,2,0,P|42:192|53:110,1,165,4|8,0:0|0:0,0:0:0:0:
126,71,83757,6,0,L|299:79,2,165,8|4|8,0:0|0:0|0:0,0:0:0:0:
157,154,85047,2,0,L|266:161,1,110,8|8,0:0|0:0,0:0:0:0:
280,203,85531,2,0,L|390:210,2,110,4|4|4,0:0|0:0|0:0,0:0:0:0:
256,192,86822,12,0,88273,0:0:0:0:
