osu file format v13

[General]
AudioFilename: op.mp3
AudioLeadIn: 2000
PreviewTime: 55370
Countdown: 0
SampleSet: Soft
StackLeniency: 0.7
Mode: 0
LetterboxInBreaks: 0
WidescreenStoryboard: 0

[Editor]
Bookmarks: 31499
DistanceSpacing: 0.8
BeatDivisor: 4
GridSize: 4
TimelineZoom: 2.899999

[Metadata]
Title:Koukan Win-Win Mujouken
TitleUnicode:好感Win-Win無条件
Artist:Heart Invader
ArtistUnicode:ハート♡インベーダー
Creator:Fycho
Version:Insane
Source:六畳間の侵略者!?
Tags:rokujouma no shinryakusha opening
BeatmapID:460761
BeatmapSetID:193980

[Difficulty]
HPDrainRate:7
CircleSize:4
OverallDifficulty:7
ApproachRate:9.2
SliderMultiplier:1.8
SliderTickRate:1

[Events]
//Background and Video events
0,0,"bg1.jpg",0,0
Video,0,"video.avi"
//Break Periods
//Storyboard Layer 0 (Background)
//Storyboard Layer 1 (Fail)
//Storyboard Layer 2 (Pass)
//Storyboard Layer 3 (Foreground)
//Storyboard Sound Samples
//Background Colour Transformations
3,100,163,162,255

[TimingPoints]
371,322.58064516129,4,2,1,70,1,0
371,-133.333333333333,4,2,1,70,0,0
4887,-133.333333333333,4,2,1,60,0,0
5532,-100,4,2,1,60,0,0
5693,322.58064516129,4,2,1,60,1,0
5773,-100,4,2,1,40,0,0
6015,-100,4,2,1,50,0,0
6660,-100,4,2,1,60,0,0
7063,-100,4,2,1,40,0,0
7305,-100,4,2,1,50,0,0
7951,-100,4,2,1,60,0,0
8354,-100,4,2,1,40,0,0
8596,-100,4,2,1,50,0,0
8918,-100,4,2,1,60,0,0
9402,-100,4,2,1,70,0,0
10209,-100,4,2,1,40,0,0
10531,-100,4,2,1,50,0,0
10854,-100,4,2,1,70,0,0
20692,-133.333333333333,4,2,1,50,0,0
21176,-133.333333333333,4,2,1,60,0,0
31499,-100,4,2,1,70,0,0
41822,-111.111111111111,4,2,1,60,0,0
45854,-100,4,2,1,65,0,0
46176,-90.9090909090909,4,2,1,70,0,0
46660,-90.9090909090909,4,2,1,50,0,0
46983,-100,4,2,1,70,0,0
55854,-100,4,2,1,80,0,1
75854,-100,4,2,1,50,0,1
76660,-100,4,2,1,70,0,0
85209,-100,4,2,1,50,0,0
85531,-100,4,2,1,70,0,0
85854,-100,4,2,1,60,0,0
86499,-100,4,2,1,40,0,0
86822,-100,4,2,1,50,0,0
86902,-100,4,2,1,40,0,0
88273,-100,4,2,1,5,0,0

[Colours]
Combo1 : 255,98,255
Combo2 : 134,134,196
Combo3 : 150,255,45
Combo4 : 64,255,255

[HitObjects]
273,87,371,5,4,0:0:0:0:
136,190,1661,5,4,0:0:0:0:
424,284,2951,5,4,0:0:0:0:
272,230,4241,5,4,0:0:0:0:
122,96,4887,2,0,L|117:164,1,67.5000025749208,4|0,0:0|0:0,0:0:0:0:
203,38,5209,1,8,0:0:0:0:
203,38,5290,1,8,0:0:0:0:
203,38,5370,1,8,0:0:0:0:
223,143,5532,6,0,P|291:107|357:111,1,135,12|0,0:0|0:0,0:0:0:0:
416,164,5854,1,8,0:0:0:0:
428,197,5934,1,8,0:0:0:0:
430,233,6015,2,8,L|447:297,1,45
380,352,6176,2,0,L|368:308,1,45,8|8,0:0|0:0,0:0:0:0:
320,228,6338,2,0,P|275:225|251:222,1,45,8|8,0:0|0:0,0:0:0:0:
165,294,6499,2,0,L|187:295|209:296,1,45,8|8,0:0|0:0,0:0:0:0:
288,340,6660,1,8,0:0:0:0:
157,370,6822,6,0,P|164:302|173:236,1,135,12|0,0:0|0:0,0:0:0:0:
267,200,7144,1,8,0:0:0:0:
267,200,7225,1,8,0:0:0:0:
267,200,7305,2,0,L|260:245,1,45,8|8,0:0|0:0,0:0:0:0:
234,93,7467,2,0,L|241:48,1,45,8|8,0:0|0:0,0:0:0:0:
376,151,7628,2,0,L|369:196,1,45,8|8,0:0|0:0,0:0:0:0:
343,44,7790,2,0,L|350:-1,1,45,8|8,0:0|0:0,0:0:0:0:
442,91,7951,1,8,0:0:0:0:
495,253,8112,6,0,P|442:212|375:209,1,135,12|0,0:0|0:0,0:0:0:0:
256,268,8434,1,8,0:0:0:0:
273,239,8515,1,8,0:0:0:0:
279,207,8596,2,0,L|271:157,1,45,8|8,0:0|0:0,0:0:0:0:
206,80,8757,2,8,L|200:125,1,45,8|8,0:0|0:0,0:0:0:0:
148,228,8918,2,0,L|140:178,1,45,8|8,0:0|0:0,0:0:0:0:
75,100,9079,2,0,L|68:144,1,45,8|8,0:0|0:0,0:0:0:0:
11,253,9241,1,8,0:0:0:0:
9,224,9321,1,8,0:0:0:0:
6,195,9402,5,4,0:0:0:0:
280,43,10209,6,0,L|313:82,1,45,4|4,0:3|0:3,0:0:0:0:
203,188,10370,2,0,L|170:142,1,45,4|0,0:3|0:0,0:0:0:0:
306,170,10531,2,0,P|301:214|301:259,1,90,12|0,0:0|0:0,0:0:0:0:
432,48,10854,5,4,0:0:0:0:
432,48,11176,1,8,0:0:0:0:
504,168,11338,1,0,0:0:0:0:
281,139,11499,2,0,L|376:136,1,90,8|0,0:0|0:0,0:0:0:0:
259,35,11822,1,8,0:0:0:0:
191,156,11983,6,0,B|136:152|99:187|99:187|75:164|75:164|26:162,1,180,4|0,0:0|0:0,0:0:0:0:
33,314,12467,2,0,L|129:289,1,90,8|0,0:0|0:0,0:0:0:0:
278,257,12789,2,0,L|274:346,1,90,8|8,0:0|0:0,0:0:0:0:
274,346,13031,1,8,0:0:0:0:
274,346,13112,1,8,0:0:0:0:
127,48,13273,5,4,0:0:0:0:
127,48,13596,1,0,0:0:0:0:
209,130,13757,2,0,P|264:118|302:108,1,90,8|0,0:0|0:0,0:0:0:0:
135,216,14080,2,0,P|84:228|39:242,1,90,8|0,0:0|0:0,0:0:0:0:
11,330,14402,1,8,0:0:0:0:
20,125,14563,6,0,P|135:99|210:76,1,180,4|0,0:0|0:0,0:0:0:0:
163,233,15047,1,8,0:0:0:0:
342,145,15209,1,8,0:0:0:0:
337,109,15289,1,8,0:0:0:0:
332,73,15370,1,8,0:0:0:0:
233,306,15531,1,0,0:0:0:0:
246,135,15692,1,8,0:0:0:0:
436,135,15854,6,0,P|423:275|421:316,1,180,4|0,0:0|0:0,0:0:0:0:
474,40,16338,1,8,0:0:0:0:
338,109,16499,1,0,0:0:0:0:
385,287,16660,2,0,P|399:237|395:184,1,90,8|0,0:0|0:0,0:0:0:0:
282,344,16983,1,8,0:0:0:0:
243,236,17144,6,0,P|178:252|111:242,1,135,4|0,0:0|0:0,0:0:0:0:
111,242,17467,1,0,0:0:0:0:
176,150,17628,1,8,0:0:0:0:
181,362,17789,1,0,0:0:0:0:
12,288,17951,2,0,P|8:237|9:196,1,90,8|8,0:0|0:0,0:0:0:0:
129,74,18273,1,8,0:0:0:0:
11,288,18434,5,4,0:0:0:0:
11,288,18757,1,0,0:0:0:0:
82,45,18918,2,0,P|86:96|85:137,1,90,8|0,0:0|0:0,0:0:0:0:
220,25,19241,1,8,0:0:0:0:
177,169,19402,1,8,0:0:0:0:
208,157,19483,1,8,0:0:0:0:
241,144,19563,1,8,0:0:0:0:
171,309,19725,1,4,0:0:0:0:
453,186,20047,5,4,0:0:0:0:
196,20,20370,1,4,0:0:0:0:
347,244,20692,2,0,L|344:277,2,33.7500012874604,8|8|8,0:0|0:0|0:0,0:0:0:0:
226,242,21015,1,0,0:0:0:0:
226,118,21176,6,0,P|155:113|83:122,1,135.000005149842,4|8,0:0|0:0,0:0:0:0:
145,274,21660,2,0,P|156:239|155:195,1,67.5000025749208
102,362,21983,2,0,L|170:356,1,67.5000025749208,0|8,0:0|0:0,0:0:0:0:
361,276,22305,6,0,B|322:302|322:302|232:309,1,135.000005149842
441,312,22789,2,0,P|446:271|439:240,1,67.5000025749208,8|0,0:0|0:0,0:0:0:0:
290,127,23112,1,0,0:0:0:0:
381,181,23273,1,0,0:0:0:0:
208,179,23434,1,8,0:0:0:0:
201,77,23596,1,8,0:0:0:0:
111,272,23757,6,0,P|112:199|115:126,1,135.000005149842,0|8,0:0|0:0,0:0:0:0:
201,77,24241,1,0,0:0:0:0:
69,194,24402,2,0,L|0:204,1,67.5000025749208
39,54,24725,2,0,L|105:44,1,67.5000025749208,8|0,0:0|0:0,0:0:0:0:
232,154,25047,5,0,0:0:0:0:
201,78,25209,1,0,0:0:0:0:
278,47,25370,1,8,0:0:0:0:
309,123,25531,1,0,0:0:0:0:
202,77,25692,5,0,0:0:0:0:
358,251,25853,1,8,0:0:0:0:
367,85,26014,1,8,0:0:0:0:
193,242,26176,1,0,0:0:0:0:
349,365,26338,6,0,P|417:350|460:285,1,135.000005149842,4|8,0:0|0:0,0:0:0:0:
286,295,26822,1,0,0:0:0:0:
203,359,26983,2,0,P|195:326|194:292,1,67.5000025749208
278,145,27305,2,0,P|285:177|286:211,1,67.5000025749208,8|0,0:0|0:0,0:0:0:0:
178,135,27628,6,0,L|102:135,1,67.5000025749208
44,290,27951,2,0,L|111:290,1,67.5000025749208,8|0,0:0|0:0,0:0:0:0:
67,56,28273,2,0,L|0:56,1,67.5000025749208
201,214,28596,2,0,L|268:214,1,67.5000025749208,8|0,0:0|0:0,0:0:0:0:
240,68,28918,5,4,0:0:0:0:
240,68,29241,1,8,0:0:0:0:
334,282,29402,2,0,P|353:211|335:152,1,135.000005149842,4|8,0:0|0:0,0:0:0:0:
174,372,29886,1,8,0:0:0:0:
261,212,30047,1,8,0:0:0:0:
446,273,30209,5,4,0:0:0:0:
474,245,30289,1,8,0:0:0:0:
482,205,30370,1,8,0:0:0:0:
473,168,30451,1,8,0:0:0:0:
446,139,30531,1,8,0:0:0:0:
261,212,30692,1,4,0:0:0:0:
261,212,31015,5,8,0:0:0:0:
228,236,31096,1,8,0:0:0:0:
189,245,31176,1,8,0:0:0:0:
150,233,31257,1,8,0:0:0:0:
120,205,31338,1,8,0:0:0:0:
53,49,31499,6,0,P|38:91|38:136,1,90,4|0,0:0|0:0,0:0:0:0:
243,65,31822,1,8,0:0:0:0:
183,156,31983,2,0,L|190:256,1,90
56,209,32305,1,0,0:0:0:0:
5,341,32467,1,8,0:0:0:0:
204,210,32628,6,0,B|337:185|337:185|386:192,1,180,0|0,0:0|0:0,0:0:0:0:
346,91,33112,2,0,L|440:112,1,90,8|0,0:0|0:0,0:0:0:0:
489,232,33434,1,0,0:0:0:0:
499,262,33515,1,0,0:0:0:0:
493,293,33596,1,0,0:0:0:0:
473,317,33676,1,0,0:0:0:0:
443,327,33757,2,0,L|352:327,1,90,8|0,0:0|0:0,0:0:0:0:
186,225,34080,6,0,P|121:249|79:353,1,180,0|8,0:0|0:0,0:0:0:0:
292,267,34563,2,0,P|302:211|299:173,1,90
209,126,34886,1,8,0:0:0:0:
147,297,35047,1,8,0:0:0:0:
383,182,35209,1,4,0:0:0:0:
383,182,35531,5,0,0:0:0:0:
188,192,35692,1,8,0:0:0:0:
254,73,35854,2,0,P|322:73|389:69,1,135,4|8,0:0|0:0,0:0:0:0:
389,69,36176,1,8,0:0:0:0:
502,6,36338,1,8,0:0:0:0:
499,170,36499,1,8,0:0:0:0:
499,170,36580,1,8,0:0:0:0:
499,170,36660,6,0,P|446:168|403:179,1,90,12|0,0:0|0:0,0:0:0:0:
345,271,36983,2,0,P|301:280|257:280,1,90,8|0,0:0|0:0,0:0:0:0:
68,210,37305,1,0,0:0:0:0:
157,338,37467,1,0,0:0:0:0:
15,359,37628,1,8,0:0:0:0:
183,213,37789,6,0,L|187:118,1,90,4|0,0:0|0:0,0:0:0:0:
156,339,38112,1,0,0:0:0:0:
288,366,38273,2,0,L|379:358,1,90,8|0,0:0|0:0,0:0:0:0:
397,214,38596,1,0,0:0:0:0:
397,214,38676,1,0,0:0:0:0:
397,214,38757,1,0,0:0:0:0:
321,293,38918,1,8,0:0:0:0:
470,250,39080,1,0,0:0:0:0:
389,56,39241,6,0,P|347:75|310:198,1,180,4|8,0:0|0:0,0:0:0:0:
460,118,39725,1,0,0:0:0:0:
264,16,39886,1,8,0:0:0:0:
156,148,40047,1,0,0:0:0:0:
164,48,40209,1,8,0:0:0:0:
245,239,40370,1,4,0:0:0:0:
245,239,40692,5,0,0:0:0:0:
331,347,40854,1,8,0:0:0:0:
122,347,41015,2,0,P|108:282|118:252,1,90,4|0,0:0|0:0,0:0:0:0:
187,191,41338,5,8,0:0:0:0:
224,319,41499,1,8,0:0:0:0:
188,190,41660,1,8,0:0:0:0:
225,318,41822,6,0,L|136:312,1,80.9999975280763,4|0,0:0|0:0,0:0:0:0:
58,250,42144,1,0,0:0:0:0:
138,50,42305,1,8,0:0:0:0:
68,151,42467,2,0,L|230:126,1,161.999995056153,8|8,0:0|0:0,0:0:0:0:
19,230,42951,6,0,P|-22:163|4:89,1,161.999995056153,8|0,0:0|0:0,0:0:0:0:
148,246,43434,2,0,L|129:333,1,80.9999975280763,8|8,0:0|0:0,0:0:0:0:
130,325,43676,1,8,0:0:0:0:
130,325,43757,1,8,0:0:0:0:
272,240,43918,1,0,0:0:0:0:
382,361,44080,1,8,0:0:0:0:
243,324,44241,1,0,0:0:0:0:
386,217,44402,6,0,P|414:249|406:368,1,161.999995056153,4|0,0:0|0:0,0:0:0:0:
294,146,44886,2,0,P|279:183|280:223,1,80.9999975280763,8|8,0:0|0:0,0:0:0:0:
341,302,45209,1,0,0:0:0:0:
200,182,45370,1,8,0:0:0:0:
488,200,45531,6,0,L|394:200,1,80.9999975280763,4|0,0:0|0:0,0:0:0:0:
293,146,45854,6,0,L|188:146,1,90,4|0,0:0|0:0,0:0:0:0:
98,82,46176,6,0,L|-3:81,1,99.0000030212403,4|0,0:0|0:0,0:0:0:0:
38,252,46499,5,4,0:0:0:0:
214,31,46660,1,8,0:0:0:0:
241,59,46741,1,8,0:0:0:0:
243,99,46822,1,8,0:0:0:0:
226,135,46902,1,8,0:0:0:0:
200,160,46983,6,0,L|190:258,1,90,4|0,0:0|0:0,0:0:0:0:
266,62,47305,1,8,0:0:0:0:
25,219,47467,2,0,P|69:226|111:212,1,90
376,229,47789,2,0,P|331:221|290:235,1,90,0|8,0:0|0:0,0:0:0:0:
356,4,48112,6,0,P|367:69|347:134,1,135,4|0,0:0|0:0,0:0:0:0:
348,133,48434,1,0,0:0:0:0:
464,66,48596,1,8,0:0:0:0:
412,218,48757,1,0,0:0:0:0:
412,218,48838,1,0,0:0:0:0:
412,218,48918,1,0,0:0:0:0:
467,114,49080,1,0,0:0:0:0:
472,324,49241,2,0,P|423:314|383:312,1,90,8|0,0:0|0:0,0:0:0:0:
107,224,49563,6,0,P|189:237|259:213,1,135,4|0,0:0|0:0,0:0:0:0:
238,224,49886,1,8,0:0:0:0:
266,336,50047,1,0,0:0:0:0:
318,148,50209,1,8,0:0:0:0:
347,262,50370,1,0,0:0:0:0:
209,119,50531,1,8,0:0:0:0:
163,315,50692,1,4,0:0:0:0:
163,315,51015,5,0,0:0:0:0:
134,201,51176,2,0,P|85:215|47:227,1,90,8|0,0:0|0:0,0:0:0:0:
78,19,51499,1,8,0:0:0:0:
30,126,51660,1,0,0:0:0:0:
207,78,51822,1,8,0:0:0:0:
249,179,51983,1,8,0:0:0:0:
365,133,52144,5,12,0:0:0:0:
162,159,52305,1,0,0:0:0:0:
148,192,52386,1,0,0:0:0:0:
146,228,52467,1,12,0:0:0:0:
153,263,52547,1,0,0:0:0:0:
167,296,52628,1,0,0:0:0:0:
196,317,52709,1,0,0:0:0:0:
232,323,52789,6,0,L|305:314,1,45,12|0,0:0|0:0,0:0:0:0:
445,260,52951,2,0,L|395:226,1,45,8|0,0:0|0:0,0:0:0:0:
308,152,53112,2,0,L|279:187,1,45,8|0,0:0|0:0,0:0:0:0:
421,91,53273,2,0,L|421:26,1,45,8|0,0:0|0:0,0:0:0:0:
257,64,53434,5,12,0:0:0:0:
411,184,53596,1,8,0:0:0:0:
351,16,53757,1,12,0:0:0:0:
244,172,53918,1,8,0:0:0:0:
422,92,54080,5,12,0:0:0:0:
307,247,54241,1,8,0:0:0:0:
498,158,54402,1,12,0:0:0:0:
330,139,54563,1,8,0:0:0:0:
432,78,54725,6,0,L|468:65,8,22.5,4|0|0|0|0|0|0|0|0,0:0|0:0|0:0|0:0|0:0|0:0|0:0|0:0|0:0,0:0:0:0:
219,163,55209,5,0,0:0:0:0:
219,163,55289,1,0,0:0:0:0:
219,163,55370,2,0,L|153:172,1,45,8|0,0:0|0:0,0:0:0:0:
131,94,55531,2,0,L|175:87,1,45,0|0,0:0|0:0,0:0:0:0:
138,241,55692,2,0,L|93:247,1,45,8|0,0:0|0:0,0:0:0:0:
218,163,55854,6,0,L|360:151,1,135,4|0,0:0|0:0,0:0:0:0:
352,151,56176,1,0,0:0:0:0:
270,52,56338,1,8,0:0:0:0:
446,101,56499,2,0,P|462:43|452:12,1,90,4|0,0:0|0:0,0:0:0:0:
380,248,56822,2,0,L|373:364,1,90,0|8,0:0|0:0,0:0:0:0:
512,85,57144,6,0,L|325:92,1,180,4|0,0:0|0:0,0:0:0:0:
234,126,57628,2,0,L|135:112,1,90,8|0,0:0|0:0,0:0:0:0:
146,296,57951,1,8,0:0:0:0:
234,205,58112,1,8,0:0:0:0:
234,205,58192,1,8,0:0:0:0:
234,205,58273,1,8,0:0:0:0:
62,80,58434,6,0,P|36:141|46:207,1,135,4|0,0:0|0:0,0:0:0:0:
46,207,58757,1,0,0:0:0:0:
231,63,58918,1,8,0:0:0:0:
177,206,59080,2,0,L|177:298,1,90,4|0,0:0|0:0,0:0:0:0:
382,252,59402,1,0,0:0:0:0:
303,135,59563,1,8,0:0:0:0:
210,366,59725,6,0,L|211:181,1,180,4|0,0:0|0:0,0:0:0:0:
438,105,60209,1,8,0:0:0:0:
305,258,60370,1,0,0:0:0:0:
355,149,60531,1,8,0:0:0:0:
474,277,60692,1,8,0:0:0:0:
477,241,60773,1,8,0:0:0:0:
466,207,60854,1,8,0:0:0:0:
362,358,61015,1,8,0:0:0:0:
327,368,61096,1,8,0:0:0:0:
291,366,61176,6,0,P|235:345|194:339,1,90,4|0,0:0|0:0,0:0:0:0:
52,378,61499,1,8,0:0:0:0:
142,219,61660,2,0,L|135:118,1,90
287,173,61983,1,0,0:0:0:0:
314,323,62144,1,8,0:0:0:0:
54,269,62305,6,0,L|237:255,1,180,4|0,0:0|0:0,0:0:0:0:
478,163,62789,2,0,L|380:171,1,90,8|0,0:0|0:0,0:0:0:0:
223,363,63112,1,8,0:0:0:0:
248,137,63273,1,8,0:0:0:0:
248,137,63354,1,8,0:0:0:0:
248,137,63434,2,0,L|246:185,1,45,8|8,0:0|0:0,0:0:0:0:
360,76,63596,2,0,L|361:31,1,45,8|8,0:0|0:0,0:0:0:0:
260,42,63757,5,4,0:0:0:0:
188,261,63918,1,0,0:0:0:0:
382,153,64080,1,8,0:0:0:0:
155,143,64241,2,0,L|61:137,1,90,4|0,0:0|0:0,0:0:0:0:
265,154,64563,5,0,0:0:0:0:
197,356,64725,1,8,0:0:0:0:
417,245,64886,1,4,0:0:0:0:
417,245,65209,5,0,0:0:0:0:
310,280,65370,1,8,0:0:0:0:
492,304,65531,1,4,0:0:0:0:
466,121,65692,1,8,0:0:0:0:
443,87,65773,1,8,0:0:0:0:
408,65,65854,1,8,0:0:0:0:
369,57,65934,1,8,0:0:0:0:
329,66,66015,1,8,0:0:0:0:
293,85,66096,1,8,0:0:0:0:
268,116,66176,6,0,P|201:110|134:101,1,135,4|0,0:0|0:0,0:0:0:0:
135,102,66499,1,0,0:0:0:0:
176,226,66660,1,8,0:0:0:0:
353,163,66822,2,0,P|370:119|373:77,1,90,4|0,0:0|0:0,0:0:0:0:
249,147,67144,1,0,0:0:0:0:
321,259,67305,1,8,0:0:0:0:
107,178,67467,6,0,P|63:220|55:339,1,180,4|0,0:0|0:0,0:0:0:0:
191,94,67951,2,0,P|196:138|203:183,1,90,8|0,0:0|0:0,0:0:0:0:
287,316,68273,2,0,P|297:250|303:214,1,90,8|8,0:0|0:0,0:0:0:0:
300,227,68515,1,8,0:0:0:0:
300,227,68596,1,8,0:0:0:0:
377,73,68757,6,0,P|420:103|430:195,1,135,4|0,0:0|0:0,0:0:0:0:
435,180,69080,1,0,0:0:0:0:
486,32,69241,1,8,0:0:0:0:
292,106,69402,2,0,P|243:104|197:102,1,90,4|0,0:0|0:0,0:0:0:0:
62,108,69725,1,0,0:0:0:0:
127,22,69886,1,8,0:0:0:0:
139,197,70047,6,0,P|111:257|115:324,1,135,4|0,0:0|0:0,0:0:0:0:
115,324,70370,1,0,0:0:0:0:
220,135,70531,1,8,0:0:0:0:
292,242,70692,1,0,0:0:0:0:
433,196,70854,2,0,P|452:243|445:289,1,90,8|8,0:0|0:0,0:0:0:0:
447,281,71096,1,8,0:0:0:0:
447,281,71176,1,8,0:0:0:0:
473,29,71338,1,4,0:0:0:0:
473,29,71660,5,0,0:0:0:0:
473,29,71822,2,0,L|373:30,1,90,8|0,0:0|0:0,0:0:0:0:
179,165,72144,2,0,L|268:164,1,90,0|0,0:0|0:0,0:0:0:0:
439,138,72467,1,8,0:0:0:0:
73,246,72628,1,4,0:0:0:0:
73,246,72951,5,2,0:0:0:0:
117,119,73112,1,8,0:0:0:0:
243,184,73273,1,2,0:0:0:0:
198,304,73434,1,8,0:0:0:0:
118,119,73596,1,8,0:0:0:0:
149,132,73676,1,8,0:0:0:0:
183,145,73757,1,8,0:0:0:0:
32,39,73918,1,4,0:0:0:0:
32,39,74241,5,0,0:0:0:0:
32,39,74402,2,0,L|28:132,1,90,8|0,0:0|0:0,0:0:0:0:
2,313,74725,1,8,0:0:0:0:
2,313,74805,1,8,0:0:0:0:
2,313,74886,1,8,0:0:0:0:
67,228,75047,1,8,0:0:0:0:
219,322,75209,1,4,0:0:0:0:
219,322,75854,5,8,0:0:0:0:
219,322,75934,1,8,0:0:0:0:
219,322,76015,2,0,L|267:313,1,45,8|8,0:0|0:0,0:0:0:0:
388,339,76176,2,0,L|343:347,1,45,8|8,0:0|0:0,0:0:0:0:
445,274,76338,2,0,L|498:261,1,45,8|8,0:0|0:0,0:0:0:0:
380,207,76499,2,0,L|335:215,1,45,8|8,0:0|0:0,0:0:0:0:
248,187,76660,6,0,P|233:233|244:290,1,90,4|0,0:0|0:0,0:0:0:0:
460,184,76983,1,8,0:0:0:0:
369,277,77144,1,0,0:0:0:0:
485,320,77305,1,8,0:0:0:0:
340,200,77467,1,0,0:0:0:0:
241,357,77628,1,8,0:0:0:0:
236,154,77789,1,4,0:0:0:0:
236,154,78112,5,0,0:0:0:0:
86,262,78273,2,0,P|131:260|174:247,1,90,8|0,0:0|0:0,0:0:0:0:
139,38,78596,2,0,P|123:97|125:135,1,90,8|8,0:0|0:0,0:0:0:0:
123,125,78838,1,8,0:0:0:0:
123,125,78918,1,8,0:0:0:0:
255,37,79080,6,0,P|319:55|358:109,1,135,4|0,0:0|0:0,0:0:0:0:
357,109,79402,1,0,0:0:0:0:
444,200,79563,2,0,P|453:155|466:113,1,90,8|0,0:0|0:0,0:0:0:0:
230,221,79886,2,0,L|319:208,1,90,8|0,0:0|0:0,0:0:0:0:
259,358,80209,1,8,0:0:0:0:
483,348,80370,6,0,B|486:286|468:239|468:239|434:261|395:255,1,180,4|0,0:0|0:0,0:0:0:0:
283,169,80854,1,8,0:0:0:0:
390,57,81015,1,8,0:0:0:0:
387,92,81096,1,8,0:0:0:0:
384,126,81176,2,0,L|389:179,1,45,8|0,0:0|0:0,0:0:0:0:
448,288,81338,1,8,0:0:0:0:
413,285,81419,1,8,0:0:0:0:
379,282,81499,2,0,L|322:291,1,45,8|0,0:0|0:0,0:0:0:0:
246,337,81660,6,0,P|181:321|115:303,1,135,4|0,0:0|0:0,0:0:0:0:
115,303,81983,1,0,0:0:0:0:
76,138,82144,2,0,P|150:164|180:174,1,90,8|0,0:0|0:0,0:0:0:0:
266,153,82467,1,8,0:0:0:0:
223,67,82628,1,0,0:0:0:0:
203,266,82789,1,8,0:0:0:0:
362,122,82951,6,0,P|384:196|370:250,1,135,4|0,0:0|0:0,0:0:0:0:
369,250,83273,1,0,0:0:0:0:
242,213,83434,1,8,0:0:0:0:
179,352,83596,1,0,0:0:0:0:
109,254,83757,2,0,P|101:178|101:147,1,90,8|8,0:0|0:0,0:0:0:0:
100,164,83999,1,8,0:0:0:0:
100,164,84080,1,8,0:0:0:0:
301,326,84241,1,4,0:0:0:0:
301,326,84563,5,0,0:0:0:0:
179,352,84725,2,0,L|79:338,1,90,8|0,0:0|0:0,0:0:0:0:
48,234,85047,1,8,0:0:0:0:
132,113,85209,1,8,0:0:0:0:
161,140,85289,1,8,0:0:0:0:
173,179,85370,1,8,0:0:0:0:
175,219,85451,1,8,0:0:0:0:
158,253,85531,5,4,0:0:0:0:
212,18,85854,1,4,0:0:0:0:
300,366,86176,1,4,0:0:0:0:
205,188,86499,5,8,0:0:0:0:
237,179,86580,1,8,0:0:0:0:
268,169,86660,1,8,0:0:0:0:
300,160,86741,1,8,0:0:0:0:
331,153,86822,1,4,0:0:0:0:
256,192,86902,12,0,88273,0:0:0:0:
