osu file format v13

[General]
AudioFilename: Barracuda Heart.mp3
AudioLeadIn: 0
PreviewTime: -1
Countdown: 1
SampleSet: None
StackLeniency: 0.7
Mode: 0
LetterboxInBreaks: 1
WidescreenStoryboard: 0

[Editor]
DistanceSpacing: 0.8
BeatDivisor: 1
GridSize: 32
TimelineZoom: 1

[Metadata]
Title:Barracuda
TitleUnicode:Barracuda
Artist:Heart
ArtistUnicode:Heart
Creator:MaRaDoXxX
Version:Normal
Source:
Tags:
BeatmapID:446358
BeatmapSetID:186956

[Difficulty]
HPDrainRate:5
CircleSize:5
OverallDifficulty:5
ApproachRate:5
SliderMultiplier:1.4
SliderTickRate:1

[Events]
//Background and Video events
0,0,"barracuda.jpg",0,0
//Break Periods
2,183913,188273
//Storyboard Layer 0 (Background)
//Storyboard Layer 1 (Fail)
//Storyboard Layer 2 (Pass)
//Storyboard Layer 3 (Foreground)
//Storyboard Sound Samples
//Background Colour Transformations
3,100,163,162,255

[TimingPoints]
353.904761904762,480,4,1,0,100,1,0

[HitObjects]
256,192,353,5,0,0:0:0:0:
256,192,833,1,0,0:0:0:0:
256,192,1313,1,0,0:0:0:0:
256,192,1793,1,0,0:0:0:0:
256,192,2273,1,0,0:0:0:0:
256,192,2753,1,0,0:0:0:0:
256,192,3233,1,0,0:0:0:0:
256,192,3713,1,0,0:0:0:0:
256,192,4193,1,0,0:0:0:0:
160,192,4673,2,0,L|480:192,1,280
256,192,6113,1,0,0:0:0:0:
192,192,6593,2,0,B|480:192|-64:384|192:288,1,280
256,192,8033,1,0,0:0:0:0:
256,192,8513,1,0,0:0:0:0:
256,192,8993,1,0,0:0:0:0:
256,192,9473,1,0,0:0:0:0:
256,192,9953,1,0,0:0:0:0:
256,192,10433,1,0,0:0:0:0:
256,192,10913,1,0,0:0:0:0:
256,192,11393,1,0,0:0:0:0:
192,192,11873,2,0,L|384:192,1,140
256,192,12833,1,0,0:0:0:0:
169,120,13313,2,0,P|329:120|137:248,1,560
256,192,15713,1,0,0:0:0:0:
256,192,16193,5,0,0:0:0:0:
256,192,16673,5,0,0:0:0:0:
256,192,17153,1,0,0:0:0:0:
256,192,17633,1,0,0:0:0:0:
256,192,18113,1,0,0:0:0:0:
256,192,18593,1,0,0:0:0:0:
160,192,19073,2,0,L|352:192,1,140
256,192,20033,1,0,0:0:0:0:
180,274,20513,2,0,P|180:114|468:274,1,560,0|0,0:0|0:0,0:0:0:0:
256,192,22433,1,0,0:0:0:0:
256,192,22913,1,0,0:0:0:0:
256,192,23393,1,0,0:0:0:0:
256,192,23873,1,0,0:0:0:0:
256,192,24353,1,0,0:0:0:0:
256,192,24833,1,0,0:0:0:0:
256,192,25313,1,0,0:0:0:0:
256,192,25793,1,0,0:0:0:0:
128,192,26273,2,0,L|352:192,1,140,0|0,0:0|0:0,0:0:0:0:
256,192,27233,1,0,0:0:0:0:
144,192,27713,6,6,P|272:128|496:320,1,420
256,192,29153,1,0,0:0:0:0:
256,192,29633,1,0,0:0:0:0:
256,192,30113,1,0,0:0:0:0:
256,192,30593,1,0,0:0:0:0:
256,192,31073,1,0,0:0:0:0:
256,192,31553,1,0,0:0:0:0:
256,192,32033,1,0,0:0:0:0:
256,192,32513,1,0,0:0:0:0:
256,192,32993,1,0,0:0:0:0:
192,192,33473,2,0,P|288:64|416:256,1,420
256,192,35393,1,0,0:0:0:0:
256,192,35873,1,0,0:0:0:0:
256,192,36353,1,0,0:0:0:0:
256,192,36833,1,0,0:0:0:0:
256,192,37313,1,0,0:0:0:0:
256,192,37793,1,0,0:0:0:0:
256,192,38273,1,0,0:0:0:0:
256,192,38753,1,0,0:0:0:0:
256,192,39233,1,0,0:0:0:0:
256,192,39713,1,0,0:0:0:0:
256,192,40193,1,0,0:0:0:0:
256,192,40673,37,0,0:0:0:0:
256,192,41153,1,0,0:0:0:0:
256,192,41633,1,0,0:0:0:0:
256,192,42113,1,0,0:0:0:0:
256,192,42593,1,0,0:0:0:0:
256,192,43073,1,0,0:0:0:0:
128,192,43553,2,0,P|192:64|448:256,1,560,0|0,0:0|0:0,0:0:0:0:
384,224,45953,1,0,0:0:0:0:
192,224,46433,2,0,L|416:128,5,140,0|0|0|0|0|0,0:0|0:0|0:0|0:0|0:0|0:0,0:0:0:0:
224,224,49313,1,0,0:0:0:0:
160,224,49793,1,0,0:0:0:0:
256,224,50273,1,0,0:0:0:0:
96,224,50753,1,0,0:0:0:0:
96,224,51233,2,0,L|256:224,1,140
288,288,51713,2,0,L|448:288,1,140
96,224,52193,2,0,L|256:224,1,140
192,192,52673,2,0,L|352:192,1,140,0|0,0:0|0:0,0:0:0:0:
64,128,54593,6,0,B|224:128|416:32|384:320|448:64|320:384|64:288,1,700,0|0,0:0|0:0,0:0:0:0:
64,96,57953,2,0,L|224:96,1,140
256,32,58433,2,0,L|416:32,1,140
320,64,59393,2,0,L|480:64,1,140
448,64,59873,2,0,L|256:64,1,140,0|0,0:0|0:0,0:0:0:0:
128,128,61313,2,0,L|288:128,1,140
224,192,62273,2,0,L|320:64,1,140
256,192,63233,12,0,64673,0:0:0:0:
192,192,65153,5,0,0:0:0:0:
192,192,65633,1,0,0:0:0:0:
192,192,66113,1,0,0:0:0:0:
192,192,66593,1,0,0:0:0:0:
192,192,67073,1,0,0:0:0:0:
192,192,67553,1,0,0:0:0:0:
192,192,68033,1,0,0:0:0:0:
192,192,68513,1,0,0:0:0:0:
192,192,69473,1,0,0:0:0:0:
192,192,70433,1,0,0:0:0:0:
80,192,70913,2,0,L|428:184,1,280
192,192,72353,1,0,0:0:0:0:
192,192,72833,1,0,0:0:0:0:
192,192,73313,1,0,0:0:0:0:
192,192,73793,1,0,0:0:0:0:
192,192,74273,1,0,0:0:0:0:
192,192,74753,1,0,0:0:0:0:
192,192,75233,1,0,0:0:0:0:
192,192,75713,1,0,0:0:0:0:
192,192,76673,1,0,0:0:0:0:
80,190,77153,2,0,L|517:186,1,420
192,192,79073,1,0,0:0:0:0:
192,192,79553,1,0,0:0:0:0:
192,192,80033,1,0,0:0:0:0:
192,192,80513,1,0,0:0:0:0:
192,192,80993,1,0,0:0:0:0:
192,192,81473,1,0,0:0:0:0:
192,192,81953,1,0,0:0:0:0:
192,192,82433,1,0,0:0:0:0:
192,192,82913,1,0,0:0:0:0:
192,192,83393,1,0,0:0:0:0:
80,178,83873,2,0,L|377:175,1,280
192,192,85313,1,0,0:0:0:0:
192,192,85793,1,0,0:0:0:0:
192,192,86273,1,0,0:0:0:0:
192,192,87233,1,0,0:0:0:0:
192,192,87713,1,0,0:0:0:0:
192,192,88193,1,0,0:0:0:0:
192,192,88673,1,0,0:0:0:0:
192,192,89153,1,0,0:0:0:0:
192,192,89633,1,0,0:0:0:0:
192,192,90113,1,0,0:0:0:0:
192,192,90593,1,0,0:0:0:0:
192,192,91073,1,0,0:0:0:0:
192,192,91553,1,0,0:0:0:0:
192,192,92033,1,0,0:0:0:0:
192,192,92513,1,0,0:0:0:0:
192,192,92993,1,0,0:0:0:0:
192,192,93473,1,0,0:0:0:0:
192,192,93953,1,0,0:0:0:0:
192,192,94433,1,0,0:0:0:0:
192,192,94913,2,0,L|492:191,1,280
192,192,96353,1,0,0:0:0:0:
192,192,96833,1,0,0:0:0:0:
192,192,97313,1,0,0:0:0:0:
192,192,98273,1,0,0:0:0:0:
192,192,98753,1,0,0:0:0:0:
192,192,99233,1,0,0:0:0:0:
192,192,99713,1,0,0:0:0:0:
192,192,100193,1,0,0:0:0:0:
192,192,100673,1,0,0:0:0:0:
192,192,101153,1,0,0:0:0:0:
192,192,102113,1,0,0:0:0:0:
192,192,103073,1,0,0:0:0:0:
192,192,103553,1,0,0:0:0:0:
192,192,104033,1,0,0:0:0:0:
96,224,104993,2,0,L|256:224,1,140
288,288,105473,2,0,L|448:288,1,140
96,224,105953,2,0,L|256:224,1,140
192,192,106433,2,0,L|352:192,1,140,0|0,0:0|0:0,0:0:0:0:
64,128,108353,2,0,B|224:128|416:32|384:320|448:64|320:384|64:288,1,700,0|0,0:0|0:0,0:0:0:0:
64,96,111713,2,0,L|224:96,1,140
256,32,112193,2,0,L|416:32,1,140
320,64,113153,2,0,L|480:64,1,140
448,64,113633,2,0,L|256:64,1,140,0|0,0:0|0:0,0:0:0:0:
192,192,115073,1,0,0:0:0:0:
192,192,115553,1,0,0:0:0:0:
192,192,116033,1,0,0:0:0:0:
192,192,116513,1,0,0:0:0:0:
192,192,116993,1,0,0:0:0:0:
192,192,117473,1,0,0:0:0:0:
192,192,117953,1,0,0:0:0:0:
192,192,118433,1,0,0:0:0:0:
192,192,118913,1,0,0:0:0:0:
192,192,119393,1,0,0:0:0:0:
192,192,119873,1,0,0:0:0:0:
192,192,120353,1,0,0:0:0:0:
192,192,120833,1,0,0:0:0:0:
192,192,121313,1,0,0:0:0:0:
192,192,121793,1,0,0:0:0:0:
192,192,122273,2,0,L|352:192,1,140
256,160,123233,2,0,L|416:160,1,140
320,160,124193,2,0,L|480:160,1,140
192,160,124673,2,0,L|352:160,1,140
288,128,125633,2,0,L|448:128,1,140
352,160,126593,2,0,L|64:192,1,280
96,160,127553,2,0,B|256:128|352:320|128:256,1,280,0|0,0:0|0:0,0:0:0:0:
195,268,128513,2,0,L|384:224,1,140,0|0,0:0|0:0,0:0:0:0:
288,192,129473,2,0,B|32:128|64:128,1,140
160,128,129953,2,0,L|320:128,1,140,0|0,0:0|0:0,0:0:0:0:
256,128,130433,2,0,L|96:128,1,140,0|0,0:0|0:0,0:0:0:0:
128,96,130913,2,0,L|320:96,1,140,0|0,0:0|0:0,0:0:0:0:
224,128,131393,2,0,L|352:320,1,140,0|0,0:0|0:0,0:0:0:0:
192,192,136673,2,0,L|352:192,1,140
256,160,137633,2,0,L|416:160,1,140
320,160,138593,2,0,L|480:160,1,140
192,160,139073,2,0,L|352:160,1,140
288,128,140033,2,0,L|448:128,1,140
352,160,140993,2,0,L|64:192,1,280
96,160,141953,2,0,B|256:128|352:320|128:256,1,280,0|0,0:0|0:0,0:0:0:0:
195,268,142913,2,0,L|384:224,1,140,0|0,0:0|0:0,0:0:0:0:
288,192,143873,2,0,B|32:128|64:128,1,140
160,128,144353,2,0,L|320:128,1,140,0|0,0:0|0:0,0:0:0:0:
256,128,144833,2,0,L|96:128,1,140,0|0,0:0|0:0,0:0:0:0:
128,96,145313,2,0,L|320:96,1,140,0|0,0:0|0:0,0:0:0:0:
224,128,145793,2,0,L|352:320,1,140,0|0,0:0|0:0,0:0:0:0:
59,181,149633,2,0,L|461:182,1,280,0|0,0:0|0:0,0:0:0:0:
350,117,150593,2,0,L|65:109,1,280,0|0,0:0|0:0,0:0:0:0:
74,93,151553,2,0,L|374:95,1,280,0|0,0:0|0:0,0:0:0:0:
287,133,152993,2,0,L|83:318,1,140
151,167,153473,2,0,L|379:168,1,140
290,167,153953,2,0,B|136:330|143:325,1,140,0|0,0:0|0:0,0:0:0:0:
161,250,154433,2,0,B|81:138|256:93|428:75|386:280|168:342,2,420,0|0|0,0:0|0:0|0:0,0:0:0:0:
116,196,159713,2,0,P|304:188|77:291,1,700,0|0,0:0|0:0,0:0:0:0:
89,219,162593,2,0,L|245:214,1,140,0|0,0:0|0:0,0:0:0:0:
231,191,163073,2,0,L|365:106,1,140,0|0,0:0|0:0,0:0:0:0:
343,111,163553,2,0,L|170:107,1,140,0|0,0:0|0:0,0:0:0:0:
190,107,164033,2,0,L|363:151,1,140,0|0,0:0|0:0,0:0:0:0:
325,141,164513,2,0,L|186:211,1,140
237,172,164993,2,0,L|92:134,1,140
158,104,165473,2,0,L|385:74,1,140
205,120,165953,2,0,L|306:253,1,140
174,192,171233,2,0,L|450:191,8,140,0|0|0|0|0|0|0|0|0,0:0|0:0|0:0|0:0|0:0|0:0|0:0|0:0|0:0,0:0:0:0:
40,186,176513,2,0,B|357:200|228:60|252:83,5,280,0|0|0|0|0|0,0:0|0:0|0:0|0:0|0:0|0:0,0:0:0:0:
341,258,181793,2,0,P|124:120|291:83,1,560,0|0,0:0|0:0,0:0:0:0:
257,189,189473,5,0,0:0:0:0:
257,189,189953,1,0,0:0:0:0:
257,189,190433,1,0,0:0:0:0:
257,189,190913,1,0,0:0:0:0:
257,189,191393,1,0,0:0:0:0:
257,189,192353,1,0,0:0:0:0:
257,189,192833,1,0,0:0:0:0:
257,189,193313,1,0,0:0:0:0:
257,189,193793,1,0,0:0:0:0:
257,189,194273,1,0,0:0:0:0:
257,189,194753,1,0,0:0:0:0:
257,189,195233,1,0,0:0:0:0:
257,189,195713,1,0,0:0:0:0:
8,190,196193,2,0,L|230:192,4,140,0|0|0|0|0,0:0|0:0|0:0|0:0|0:0,0:0:0:0:
0,196,200033,2,0,L|170:195,5,140,0|0|0|0|0|0,0:0|0:0|0:0|0:0|0:0|0:0,0:0:0:0:
1,192,202913,2,0,L|146:198,2,140,0|0|0,0:0|0:0|0:0,0:0:0:0:
1,190,206273,2,0,L|187:191,4,140,0|0|0|0|0,0:0|0:0|0:0|0:0|0:0,0:0:0:0:
6,193,209633,2,0,L|254:192,3,140,0|0|0|0,0:0|0:0|0:0|0:0,0:0:0:0:
5,192,212993,2,0,L|328:190,1,280,0|0,0:0|0:0,0:0:0:0:
3,191,216353,2,0,L|305:187,4,280,0|0|0|0|0,0:0|0:0|0:0|0:0|0:0,0:0:0:0:
43,160,220673,2,0,L|368:159,1,280,0|0,0:0|0:0,0:0:0:0:
11,191,223553,2,0,L|339:194,2,280,0|0|0,0:0|0:0|0:0,0:0:0:0:
6,195,226913,2,0,L|288:197,2,280,0|0|0,0:0|0:0|0:0,0:0:0:0:
3,192,230753,2,0,L|209:185,2,140,0|0|0,0:0|0:0|0:0,0:0:0:0:
148,136,232193,2,0,L|326:161,2,140,0|0|0,0:0|0:0|0:0,0:0:0:0:
190,90,234593,2,0,L|345:155,1,140,0|0,0:0|0:0,0:0:0:0:
127,109,238433,2,0,L|246:258,1,140,0|0,0:0|0:0,0:0:0:0:
255,95,239873,2,0,L|350:251,1,140,0|0,0:0|0:0,0:0:0:0:
70,143,241793,2,0,L|292:309,1,140,0|0,0:0|0:0,0:0:0:0:
214,69,243233,2,0,L|332:264,1,140,0|0,0:0|0:0,0:0:0:0:
115,122,245153,2,0,L|310:238,1,140,0|0,0:0|0:0,0:0:0:0:
221,104,246113,2,0,L|444:125,1,140,0|0,0:0|0:0,0:0:0:0:
166,173,247073,2,0,L|315:164,1,140,0|0,0:0|0:0,0:0:0:0:
131,160,248033,2,0,L|324:166,1,140,0|0,0:0|0:0,0:0:0:0:
66,180,248993,2,0,L|266:174,1,140,0|0,0:0|0:0,0:0:0:0:
110,146,249953,2,0,L|320:153,1,140,0|0,0:0|0:0,0:0:0:0:
129,138,250913,2,0,L|285:154,1,140,0|0,0:0|0:0,0:0:0:0:
145,146,251873,2,0,L|289:153,1,140,0|0,0:0|0:0,0:0:0:0:
161,150,253793,2,0,L|303:162,1,140,0|0,0:0|0:0,0:0:0:0:
110,149,254753,2,0,L|266:158,1,140,0|0,0:0|0:0,0:0:0:0:
125,161,255713,2,0,L|279:166,1,140,0|0,0:0|0:0,0:0:0:0:
121,165,256673,2,0,L|274:166,1,140,0|0,0:0|0:0,0:0:0:0:
163,168,258593,2,0,L|333:182,1,140,0|0,0:0|0:0,0:0:0:0:
162,173,259553,2,0,L|337:183,1,140,0|0,0:0|0:0,0:0:0:0:
