osu file format v14

[General]
AudioFilename: yena (dubstep remix).mp3
AudioLeadIn: 0
PreviewTime: 10503
Countdown: 0
SampleSet: Soft
StackLeniency: 0.7
Mode: 0
LetterboxInBreaks: 0
WidescreenStoryboard: 0

[Editor]
Bookmarks: 12111,13825,14682,20682,21539,27539,28396,34396,35253,41468
DistanceSpacing: 1.3
BeatDivisor: 4
GridSize: 4
TimelineZoom: 2

[Metadata]
Title:YENA (Dubstep Remix)
TitleUnicode:지딸도 아닌 예나 (Dubstep Remix)
Artist:HeHeJSM
ArtistUnicode:HeHeJSM
Creator:Euny
Version:Normal
Source:
Tags:[_Zzz_] alarido eINess 사랑했나봐 Kim Jo Han 김조한 You Are My Girl
BeatmapID:622985
BeatmapSetID:244936

[Difficulty]
HPDrainRate:4
CircleSize:3
OverallDifficulty:5
ApproachRate:5
SliderMultiplier:1.2
SliderTickRate:1

[Events]
//Background and Video events
0,0,"bg1.jpg",0,0
//Break Periods
//Storyboard Layer 0 (Background)
//Storyboard Layer 1 (Fail)
//Storyboard Layer 2 (Pass)
//Storyboard Layer 3 (Foreground)
//Storyboard Sound Samples

[TimingPoints]
111,428.571428571429,4,2,1,60,1,0
8253,-100,4,2,1,20,0,0
8682,-100,4,2,1,60,0,0
10396,-100,4,1,1,60,0,0
11253,-100,4,2,1,60,0,0
12111,-100,4,2,0,60,0,1
12539,-100,4,1,1,60,0,1
13825,-100,4,1,1,60,0,0
14682,-100,4,1,1,60,0,1
20682,-100,4,1,1,60,0,0
21539,-100,4,1,1,60,0,1
27539,-100,4,1,1,60,0,0
28396,-100,4,1,1,60,0,1
34396,-100,4,1,1,60,0,0
35253,-100,4,1,1,60,0,1
41468,526.315789473684,4,3,1,60,1,0
42520,526.315789473684,4,2,0,60,1,0
42783,-100,4,2,1,60,0,0
46730,-100,4,2,0,40,0,0
47256,-100,4,2,1,60,0,0
48835,-100,4,2,1,30,0,0
49362,-100,4,2,1,20,0,0

[Colours]
Combo1 : 91,92,106
Combo2 : 1,124,50
Combo3 : 37,254,135
Combo4 : 177,185,194

[HitObjects]
410,123,1825,5,4,0:0:0:0:
410,123,3539,6,0,B|409:189|365:205|365:205|364:225|364:225|342:230|342:230|301:270|312:321,1,240,4|8,0:0|0:0,0:0:0:0:
235,65,5253,6,0,B|270:103|317:59|317:59|334:72|334:72|352:56|352:56|384:32|414:29|455:43,2,240,4|8|4,0:0|0:0|0:0,0:0:0:0:
466,192,7825,6,0,B|424:197|400:168|400:168|410:118,2,120,8|0|4,0:0|0:0|0:0,0:0:0:0:
213,115,9539,2,0,L|235:56,1,60,8|0,0:0|0:0,0:0:0:0:
251,256,10396,5,0,0:0:0:0:
134,19,11253,2,0,L|113:75,1,60,8|0,0:0|0:0,0:0:0:0:
152,269,12111,6,0,L|103:139,2,120,4|0|8,0:0|0:0|0:0,0:0:0:0:
224,156,13396,2,0,L|264:104,2,60,0|0|0,0:0|0:0|0:0,0:0:0:0:
328,236,14253,1,0,0:0:0:0:
454,272,14682,6,0,P|424:326|374:360,1,120,4|0,0:0|0:0,0:0:0:0:
247,341,15539,2,0,L|207:289,2,60
329,237,16396,1,8,0:0:0:0:
362,109,16825,1,0,0:0:0:0:
248,42,17253,6,0,L|139:93,1,120
93,217,18111,2,0,P|40:190|16:137,1,120,8|0,0:0|0:0,0:0:0:0:
139,93,18968,6,0,P|192:118|217:171,1,120
349,174,19825,2,0,P|374:120|427:95,1,120,8|0,0:0|0:0,0:0:0:0:
432,227,20682,6,0,P|331:273|250:186,1,240,0|4,0:0|0:0,0:0:0:0:
363,121,21968,2,0,L|324:55,1,60
269,51,22396,5,0,0:0:0:0:
151,111,22825,1,0,0:0:0:0:
103,234,23253,2,0,P|49:208|26:147,1,120,8|0,0:0|0:0,0:0:0:0:
151,111,24111,6,0,B|211:121|258:181|247:258|247:258|302:247,1,240,0|8,0:0|0:0,0:0:0:0:
419,216,25396,1,0,0:0:0:0:
400,346,25825,6,0,L|335:312,1,60
283,337,26253,2,0,L|218:303,1,60,0|0,0:0|0:0,0:0:0:0:
168,334,26682,2,0,L|52:274,1,120,8|0,0:0|0:0,0:0:0:0:
60,146,27539,6,0,P|112:128|166:90,1,120
298,90,28396,2,0,P|348:128|404:146,1,120,4|0,0:0|0:0,0:0:0:0:
405,278,29253,6,0,L|336:315,1,60
286,315,29682,2,0,P|240:280|164:276,2,120
316,186,30968,1,0,0:0:0:0:
270,62,31396,2,0,P|217:88|191:141,2,120,0|8|0,0:0|0:0|0:0,0:0:0:0:
254,193,32682,6,0,B|223:227|181:232|135:205,1,120
123,79,33539,2,0,B|77:75|43:100|27:151,1,120,8|0,0:0|0:0,0:0:0:0:
41,272,34396,6,0,B|94:285|147:230|147:230|196:178|255:193,1,240,0|4,0:0|0:0,0:0:0:0:
354,280,35682,2,0,B|334:306|299:311,1,60
238,321,36111,5,0,0:0:0:0:
256,192,36539,1,0,0:0:0:0:
354,103,36968,2,0,P|303:68|244:58,1,120,8|0,0:0|0:0,0:0:0:0:
115,51,37825,6,0,B|105:109|127:151|170:174|170:174|163:222|132:243|94:237,1,240,0|8,0:0|0:0,0:0:0:0:
2,162,39111,1,0,0:0:0:0:
11,295,39539,6,0,P|68:279|113:236,1,120
243,243,40396,2,0,P|288:276|354:290,1,120,8|0,0:0|0:0,0:0:0:0:
356,132,41468,5,0,0:0:0:0:
245,59,41994,1,8,0:0:0:0:
113,48,42520,6,0,B|103:76|115:108|115:108|128:143|114:168,1,120,4|8,0:0|0:0,0:0:0:0:
108,230,43309,2,0,P|146:267|217:270,1,120
268,241,44098,1,8,0:0:0:0:
387,298,44625,6,0,P|398:245|383:179,1,120,0|8,0:0|0:0,0:0:0:0:
325,152,45414,1,0,0:0:0:0:
263,128,45677,2,0,L|192:142,1,60
159,188,46204,2,0,L|85:182,1,60,8|0,0:0|0:0,0:0:0:0:
33,183,46730,6,0,B|23:211|35:243|35:243|48:278|34:303,2,120,4|8|0,0:0|0:0|0:0,0:0:0:0:
65,125,48046,2,0,L|134:91,1,60,0|8,0:0|0:0,0:0:0:0:
185,109,48572,2,0,L|248:155,1,60
342,219,49362,1,8,0:0:0:0:
381,93,49888,1,0,0:0:0:0:
260,38,50414,1,2,0:0:0:0:
