osu file format v14

[General]
AudioFilename: yena (dubstep remix).mp3
AudioLeadIn: 0
PreviewTime: 10503
Countdown: 0
SampleSet: Normal
StackLeniency: 0.7
Mode: 0
LetterboxInBreaks: 0
WidescreenStoryboard: 1

[Editor]
Bookmarks: 12111,13825,14682,20682,21539,27539,28396,34396,35253,41468
DistanceSpacing: 1.5
BeatDivisor: 4
GridSize: 4
TimelineZoom: 2

[Metadata]
Title:YENA (Dubstep Remix)
TitleUnicode:지딸도 아닌 예나 (Dubstep Remix)
Artist:HeHeJSM
ArtistUnicode:HeHeJSM
Creator:Euny
Version:Insane
Source:
Tags:[_Zzz_] alarido eINess 사랑했나봐 Kim Jo Han 김조한 You Are My Girl
BeatmapID:675211
BeatmapSetID:244936

[Difficulty]
HPDrainRate:7
CircleSize:4
OverallDifficulty:7
ApproachRate:9
SliderMultiplier:1.98
SliderTickRate:1

[Events]
//Background and Video events
0,0,"bg1.jpg",0,0
//Break Periods
//Storyboard Layer 0 (Background)
//Storyboard Layer 1 (Fail)
//Storyboard Layer 2 (Pass)
//Storyboard Layer 3 (Foreground)
//Storyboard Sound Samples

[TimingPoints]
111,428.571428571429,4,2,1,50,1,0
12111,-133.333333333333,4,2,0,50,0,1
12968,-100,4,1,1,50,0,1
13396,-100,4,2,1,50,0,1
13503,-100,4,2,1,50,0,1
13611,-100,4,2,1,50,0,1
13718,-100,4,2,1,50,0,1
13825,-166.666666666667,4,1,1,50,0,0
14682,-100,4,1,1,50,0,1
19825,-83.3333333333333,4,1,1,50,0,1
19932,-83.3333333333333,4,2,1,50,0,1
20039,-83.3333333333333,4,1,1,50,0,1
20146,-83.3333333333333,4,2,1,50,0,1
20253,-83.3333333333333,4,1,1,50,0,1
20361,-83.3333333333333,4,2,1,50,0,1
20468,-83.3333333333333,4,1,1,50,0,1
20575,-83.3333333333333,4,2,1,50,0,1
20682,-166.666666666667,4,1,1,50,0,0
21539,-100,4,1,1,50,0,1
21968,-100,4,2,1,50,0,1
22075,-100,4,1,1,50,0,1
22182,-100,4,2,1,50,0,1
22289,-100,4,1,1,50,0,1
23253,-133.333333333333,4,1,1,50,0,1
24968,-100,4,1,1,50,0,1
27539,-166.666666666667,4,1,1,50,0,0
28396,-100,4,1,1,50,0,1
29253,-66.6666666666667,4,1,1,50,0,1
29682,-83.3333333333333,4,1,1,50,0,1
30968,-100,4,1,1,50,0,1
33539,-83.3333333333333,4,1,1,50,0,1
33646,-83.3333333333333,4,2,1,50,0,1
33753,-83.3333333333333,4,1,1,50,0,1
33861,-83.3333333333333,4,2,1,50,0,1
33968,-83.3333333333333,4,1,1,50,0,1
34075,-83.3333333333333,4,2,1,50,0,1
34182,-83.3333333333333,4,1,1,50,0,1
34289,-83.3333333333333,4,2,1,50,0,1
34396,-166.666666666667,4,1,1,50,0,0
35253,-100,4,1,1,50,0,1
35789,-100,4,2,1,50,0,1
35896,-100,4,1,1,50,0,1
36003,-100,4,2,1,50,0,1
36111,-100,4,1,1,50,0,1
36968,-133.333333333333,4,1,1,50,0,1
38682,-100,4,1,1,50,0,1
41468,526.315789473684,4,3,1,50,1,0
42520,526.315789473684,4,2,0,50,1,0
42914,-100,4,2,1,50,0,0
46730,-100,4,2,0,40,0,0
47256,-100,4,2,1,40,0,0
48572,-100,4,2,1,30,0,0
49362,-100,4,2,1,25,0,0
49625,-100,4,2,1,15,0,0
50941,-100,4,2,0,15,0,0

[Colours]
Combo1 : 91,92,106
Combo2 : 1,124,50
Combo3 : 37,254,135
Combo4 : 177,185,194

[HitObjects]
384,248,1825,5,4,0:0:0:0:
380,244,3539,5,4,0:0:0:0:
376,236,4396,2,0,P|355:107|228:144,1,297,8|0,0:0|0:0,0:0:0:0:
373,231,5253,5,4,0:0:0:0:
368,224,6111,2,0,P|347:95|220:132,1,297,8|0,0:0|0:0,0:0:0:0:
363,219,6968,5,4,0:0:0:0:
301,169,7825,2,0,B|469:33|469:33|465:133,1,297,8|0,0:0|0:0,0:0:0:0:
432,340,8682,5,4,0:0:0:0:
16,240,9539,2,0,B|28:163|28:163|50:174,1,99,8|0,0:0|0:0,0:0:0:0:
256,336,10396,5,4,0:0:0:0:
20,236,11253,1,8,0:0:0:0:
213,57,11468,1,0,0:0:0:0:
136,292,11682,1,0,0:0:0:0:
108,125,11896,1,0,0:0:0:0:
360,90,12111,6,0,B|351:139|390:186|390:186|394:214|378:250|378:250|398:270|420:301|413:333,1,259.875009913445,4|0,0:0|0:0,0:0:0:0:
257,336,12968,6,0,L|380:250,1,148.5,8|0,0:0|0:0,0:0:0:0:
463,158,13396,2,0,P|450:129|431:108,1,49.5,2|0,0:0|0:0,0:0:0:0:
360,90,13611,2,0,P|335:94|313:106,1,49.5,2|0,0:0|0:0,0:0:0:0:
211,206,13825,6,0,P|167:122|243:62,1,207.899993655396
240,137,14682,6,0,B|162:133|162:133|121:209,1,148.5,4|0,0:0|0:0,0:0:0:0:
66,239,15111,2,0,L|117:142,1,99
175,17,15539,5,0,0:0:0:0:
175,17,15646,1,0,0:0:0:0:
175,17,15753,1,0,0:0:0:0:
201,246,15968,5,0,0:0:0:0:
351,206,16182,1,0,0:0:0:0:
215,335,16396,6,0,P|258:314|286:268,1,99,8|0,0:0|0:0,0:0:0:0:
333,118,16825,2,0,P|290:141|264:182,1,99
450,307,17253,6,0,P|477:251|442:153,1,148.5
418,20,17682,2,0,L|406:126,1,99
375,345,18111,6,0,B|328:327|279:342|279:342|233:292,1,148.5,8|0,0:0|0:0,0:0:0:0:
228,227,18539,2,0,P|204:236|187:253,2,49.5
346,207,18968,5,0,0:0:0:0:
146,113,19182,1,0,0:0:0:0:
140,251,19396,1,0,0:0:0:0:
288,85,19611,1,0,0:0:0:0:
398,335,19825,6,0,P|426:334|455:328,1,59.3999981872559,8|0,0:0|0:0,0:0:0:0:
411,257,20039,2,0,P|440:256|469:250,1,59.3999981872559,8|0,0:0|0:0,0:0:0:0:
424,180,20253,2,0,P|453:178|482:171,1,59.3999981872559,8|0,0:0|0:0,0:0:0:0:
437,103,20468,2,0,P|465:99|494:90,1,59.3999981872559,8|0,0:0|0:0,0:0:0:0:
352,138,20682,6,0,B|338:157|335:181|346:208|346:208|330:227|323:256|332:281|332:281|315:305|316:336,1,207.899993655396
248,357,21539,6,0,P|203:299|134:272,1,148.5,4|0,0:0|0:0,0:0:0:0:
172,172,21968,2,0,L|130:197,1,49.5,2|0,0:0|0:0,0:0:0:0:
228,70,22182,2,0,L|185:93,1,49.5,2|0,0:0|0:0,0:0:0:0:
305,82,22396,6,0,P|317:116|346:138,2,74.25
380,70,22825,2,0,B|360:100|322:109|322:109|283:117|261:152,1,148.5
256,272,23253,6,0,B|271:252|246:243|246:243|203:237|173:204|171:158,1,148.500005664826,8|0,0:0|0:0,0:0:0:0:
224,59,23896,1,0,0:0:0:0:
346,146,24111,6,0,P|417:144|461:80,2,148.500005664826,0|0|8,0:0|0:0|0:0,0:0:0:0:
224,59,25182,1,0,0:0:0:0:
210,269,25396,2,0,B|159:258|145:204|145:204|125:184|96:184,1,148.5
48,125,25825,6,0,L|35:69,2,49.5
75,270,26253,1,0,0:0:0:0:
188,173,26468,1,0,0:0:0:0:
41,135,26682,6,0,L|23:80,2,49.5
81,277,27110,1,0,0:0:0:0:
186,170,27325,1,0,0:0:0:0:
190,249,27539,6,0,P|262:193|212:96,1,207.899993655396
186,170,28396,6,0,P|258:171|300:95,1,148.5,4|0,0:0|0:0,0:0:0:0:
340,44,28825,2,0,L|363:159,1,99
420,351,29253,5,0,0:0:0:0:
420,351,29361,1,0,0:0:0:0:
420,351,29468,1,0,0:0:0:0:
425,172,29682,5,0,0:0:0:0:
284,281,29896,1,0,0:0:0:0:
247,15,30111,6,0,L|233:136,1,118.799996374512,8|0,0:0|0:0,0:0:0:0:
142,286,30539,2,0,L|160:166,1,118.799996374512
56,105,30968,6,0,B|94:115|94:115|119:87|158:85|158:85|163:48,1,148.5
247,15,31396,2,0,L|235:121,1,99
208,338,31825,2,0,P|143:369|77:339,1,148.5,8|0,0:0|0:0,0:0:0:0:
37,272,32253,2,0,P|30:240|15:218,2,49.5
56,104,32682,5,0,0:0:0:0:
199,192,32896,1,0,0:0:0:0:
130,26,33111,1,0,0:0:0:0:
143,286,33325,1,0,0:0:0:0:
267,157,33539,6,0,P|292:141|313:119,1,59.3999981872559,8|0,0:0|0:0,0:0:0:0:
327,208,33753,2,0,P|351:192|372:170,1,59.3999981872559,8|0,0:0|0:0,0:0:0:0:
383,260,33968,2,0,P|407:244|428:222,1,59.3999981872559,8|0,0:0|0:0,0:0:0:0:
442,311,34182,2,0,P|466:295|487:273,1,59.3999981872559,8|0,0:0|0:0,0:0:0:0:
344,328,34396,6,0,B|319:313|308:285|308:285|282:279|262:258|255:234|255:234|226:229|208:213|198:191,1,207.899993655396
141,137,35253,6,0,P|211:116|268:157,1,148.5,4|0,0:0|0:0,0:0:0:0:
327,208,35682,2,0,L|366:158,1,49.5
418,211,35897,2,0,L|455:156,1,49.5
509,125,36111,6,0,P|481:99|442:92,2,74.25
512,210,36539,2,0,L|422:335,1,148.5
351,352,36968,6,0,P|305:297|229:283,1,148.500005664826,8|0,0:0|0:0,0:0:0:0:
152,361,37611,1,0,0:0:0:0:
111,254,37825,6,0,P|56:208|24:136,2,148.500005664826,0|0|8,0:0|0:0|0:0,0:0:0:0:
176,112,38896,1,0,0:0:0:0:
232,256,39111,2,0,P|296:208|328:136,1,148.5
332,72,39539,6,0,L|320:16,2,49.5
388,206,39967,1,0,0:0:0:0:
477,87,40182,1,0,0:0:0:0:
324,72,40396,6,0,L|307:18,2,49.5
392,201,40824,1,0,0:0:0:0:
471,74,41039,1,0,0:0:0:0:
251,322,41468,6,0,P|213:261|245:143,1,198,0|8,0:0|0:0,0:0:0:0:
266,119,42125,1,0,0:0:0:0:
266,119,42257,1,4,0:0:0:0:
405,88,42520,6,0,L|463:225,1,148.5,4|0,0:0|0:0,0:0:0:0:
429,291,43046,2,0,P|350:269|248:330,1,198,8|0,0:0|0:0,0:0:0:0:
240,354,43704,1,0,0:0:0:0:
240,354,43835,1,0,0:0:0:0:
124,236,44098,6,0,L|152:278,1,49.5,8|0,0:0|0:0,0:0:0:0:
176,173,44362,2,0,L|204:215,1,49.5
238,121,44625,2,0,P|194:95|131:105,1,99
356,88,45151,5,8,0:0:0:0:
357,313,45414,2,0,P|392:277|401:224,1,99
283,145,45941,1,0,0:0:0:0:
433,145,46204,1,8,0:0:0:0:
357,313,46467,1,0,0:0:0:0:
186,193,46730,6,0,L|210:290,1,99,4|0,0:0|0:0,0:0:0:0:
218,322,47125,1,0,0:0:0:0:
218,322,47256,1,8,0:0:0:0:
59,113,47520,2,0,L|83:210,1,99
93,242,47915,1,0,0:0:0:0:
93,242,48046,1,0,0:0:0:0:
67,357,48309,5,8,0:0:0:0:
210,290,48572,2,0,L|282:150,1,148.5
269,78,49098,2,0,P|224:98|199:140,1,99,0|8,0:0|0:0,0:0:0:0:
128,278,49625,2,0,P|128:306|140:338,2,49.5
57,148,50151,1,0,0:0:0:0:
200,143,50414,2,0,P|243:171|305:169,1,99,8|0,0:0|0:0,0:0:0:0:
435,117,50941,5,2,0:0:0:0:
