osu file format v14

[General]
AudioFilename: Hazuki.mp3
AudioLeadIn: 0
PreviewTime: 45573
Countdown: 0
SampleSet: Soft
StackLeniency: 0.7
Mode: 3
LetterboxInBreaks: 0
SpecialStyle: 0
WidescreenStoryboard: 1

[Editor]
DistanceSpacing: 1
BeatDivisor: 4
GridSize: 4
TimelineZoom: 1

[Metadata]
Title:Uso to Shinjitsu
TitleUnicode:嘘と真実
Artist:Hazuki
ArtistUnicode:葉月
Creator:- [ S o r a ] -
Version:4K NM
Source:幻のディストピア
Tags:eroge op vocaloid1anime2
BeatmapID:814275
BeatmapSetID:369586

[Difficulty]
HPDrainRate:7
CircleSize:4
OverallDifficulty:7
ApproachRate:5
SliderMultiplier:1.4
SliderTickRate:1

[Events]
//Background and Video events
0,0,"BG232.jpg",0,0
//Break Periods
//Storyboard Layer 0 (Background)
//Storyboard Layer 1 (Fail)
//Storyboard Layer 2 (Pass)
//Storyboard Layer 3 (Foreground)
//Storyboard Sound Samples

[TimingPoints]
810,315.789473684211,4,2,0,30,1,0
46283,-100,4,2,0,30,0,1
46362,-100,4,2,0,30,0,1
66494,-100,4,2,0,30,0,0

[HitObjects]
448,192,810,5,0,0:0:0:0:
64,192,810,1,0,0:0:0:0:
448,192,967,128,0,1441:0:0:0:0:
448,192,1757,1,0,0:0:0:0:
320,192,1757,1,0,0:0:0:0:
320,192,1915,1,0,0:0:0:0:
448,192,1915,128,0,3020:0:0:0:0:
320,192,3336,1,0,0:0:0:0:
448,192,3336,1,0,0:0:0:0:
320,192,3494,1,0,0:0:0:0:
448,192,3494,128,0,3967:0:0:0:0:
448,192,4283,1,0,0:0:0:0:
320,192,4283,1,0,0:0:0:0:
320,192,4441,1,0,0:0:0:0:
448,192,4441,128,0,5231:0:0:0:0:
64,192,5231,128,0,5862:0:0:0:0:
192,192,5231,1,0,0:0:0:0:
320,192,5546,128,0,5862:0:0:0:0:
448,192,5862,1,0,0:0:0:0:
192,192,5862,1,0,0:0:0:0:
64,192,6178,1,0,0:0:0:0:
320,192,6573,1,0,0:0:0:0:
64,192,6810,1,0,0:0:0:0:
448,192,7125,1,0,0:0:0:0:
64,192,7441,1,0,0:0:0:0:
320,192,7757,1,0,0:0:0:0:
64,192,8073,1,0,0:0:0:0:
448,192,8388,128,0,8704:0:0:0:0:
320,192,8388,1,0,0:0:0:0:
64,192,8704,1,0,0:0:0:0:
448,192,9020,1,0,0:0:0:0:
192,192,9336,1,0,0:0:0:0:
64,192,9652,1,0,0:0:0:0:
448,192,9967,1,0,0:0:0:0:
192,192,10283,1,0,0:0:0:0:
448,192,10599,1,0,0:0:0:0:
64,192,10915,128,0,11231:0:0:0:0:
192,192,10915,1,0,0:0:0:0:
448,192,11231,1,0,0:0:0:0:
64,192,11546,1,0,0:0:0:0:
320,192,11862,1,0,0:0:0:0:
448,192,12178,1,0,0:0:0:0:
64,192,12494,1,0,0:0:0:0:
320,192,12810,1,0,0:0:0:0:
64,192,13125,1,0,0:0:0:0:
448,192,13441,128,0,15967:0:0:0:0:
320,192,13441,1,0,0:0:0:0:
64,192,13757,1,0,0:0:0:0:
320,192,14073,1,0,0:0:0:0:
64,192,14388,1,0,0:0:0:0:
192,192,14704,1,0,0:0:0:0:
320,192,15020,1,0,0:0:0:0:
64,192,15336,1,0,0:0:0:0:
320,192,15652,128,0,15967:0:0:0:0:
64,192,15967,1,0,0:0:0:0:
192,192,15967,1,0,0:0:0:0:
64,192,16125,1,0,0:0:0:0:
448,192,16599,1,0,0:0:0:0:
64,192,16915,1,0,0:0:0:0:
64,192,17073,1,0,0:0:0:0:
448,192,17862,1,0,0:0:0:0:
320,192,17862,128,0,18494:0:0:0:0:
64,192,18494,1,0,0:0:0:0:
64,192,18652,1,0,0:0:0:0:
448,192,19125,1,0,0:0:0:0:
64,192,19441,1,0,0:0:0:0:
64,192,19599,1,0,0:0:0:0:
448,192,20388,1,0,0:0:0:0:
320,192,21020,1,0,0:0:0:0:
320,192,21178,1,0,0:0:0:0:
192,192,21652,1,0,0:0:0:0:
320,192,21967,1,0,0:0:0:0:
320,192,22125,1,0,0:0:0:0:
448,192,22599,128,0,22915:0:0:0:0:
192,192,22915,1,0,0:0:0:0:
64,192,22915,128,0,23546:0:0:0:0:
320,192,23546,1,0,0:0:0:0:
320,192,23704,1,0,0:0:0:0:
192,192,24178,1,0,0:0:0:0:
320,192,24494,1,0,0:0:0:0:
320,192,24652,1,0,0:0:0:0:
448,192,24967,1,0,0:0:0:0:
192,192,25125,1,0,0:0:0:0:
64,192,25283,1,0,0:0:0:0:
448,192,25441,1,0,0:0:0:0:
320,192,25599,1,0,0:0:0:0:
64,192,25757,1,0,0:0:0:0:
320,192,25915,1,0,0:0:0:0:
64,192,26073,1,0,0:0:0:0:
448,192,26073,1,0,0:0:0:0:
192,192,26388,1,0,0:0:0:0:
448,192,26704,1,0,0:0:0:0:
64,192,27020,1,0,0:0:0:0:
320,192,27336,1,0,0:0:0:0:
192,192,27652,1,0,0:0:0:0:
448,192,27967,1,0,0:0:0:0:
64,192,28283,1,0,0:0:0:0:
192,192,28283,128,0,28599:0:0:0:0:
448,192,28599,1,0,0:0:0:0:
192,192,28915,1,0,0:0:0:0:
320,192,29231,1,0,0:0:0:0:
64,192,29546,1,0,0:0:0:0:
448,192,29862,1,0,0:0:0:0:
192,192,30178,1,0,0:0:0:0:
320,192,30494,1,0,0:0:0:0:
64,192,30810,1,0,0:0:0:0:
448,192,30810,128,0,31125:0:0:0:0:
192,192,31125,1,0,0:0:0:0:
320,192,31441,1,0,0:0:0:0:
64,192,31757,1,0,0:0:0:0:
448,192,32073,1,0,0:0:0:0:
192,192,32388,1,0,0:0:0:0:
320,192,32704,1,0,0:0:0:0:
64,192,33020,1,0,0:0:0:0:
192,192,33178,128,0,33652:0:0:0:0:
448,192,33336,1,0,0:0:0:0:
320,192,33652,1,0,0:0:0:0:
64,192,33967,1,0,0:0:0:0:
448,192,34283,1,0,0:0:0:0:
192,192,34599,1,0,0:0:0:0:
64,192,34915,128,0,35231:0:0:0:0:
448,192,34915,1,0,0:0:0:0:
320,192,35231,128,0,35546:0:0:0:0:
192,192,35231,1,0,0:0:0:0:
64,192,35546,1,0,0:0:0:0:
448,192,35862,1,0,0:0:0:0:
192,192,36020,1,0,0:0:0:0:
320,192,36178,1,0,0:0:0:0:
64,192,36178,1,0,0:0:0:0:
320,192,36336,1,0,0:0:0:0:
64,192,36810,1,0,0:0:0:0:
320,192,37125,1,0,0:0:0:0:
320,192,37283,1,0,0:0:0:0:
320,192,37599,1,0,0:0:0:0:
320,192,37757,1,0,0:0:0:0:
64,192,38073,1,0,0:0:0:0:
192,192,38388,1,0,0:0:0:0:
448,192,38704,1,0,0:0:0:0:
448,192,38862,1,0,0:0:0:0:
320,192,39020,128,0,39336:0:0:0:0:
64,192,39336,1,0,0:0:0:0:
448,192,39652,1,0,0:0:0:0:
448,192,39810,1,0,0:0:0:0:
448,192,40125,1,0,0:0:0:0:
448,192,40283,1,0,0:0:0:0:
64,192,40599,1,0,0:0:0:0:
192,192,40915,128,0,41231:0:0:0:0:
64,192,41231,1,0,0:0:0:0:
448,192,41231,1,0,0:0:0:0:
448,192,41388,1,0,0:0:0:0:
192,192,41862,1,0,0:0:0:0:
448,192,42178,1,0,0:0:0:0:
448,192,42336,1,0,0:0:0:0:
448,192,42652,1,0,0:0:0:0:
448,192,42810,1,0,0:0:0:0:
192,192,43125,1,0,0:0:0:0:
448,192,43283,1,0,0:0:0:0:
64,192,43441,128,0,43757:0:0:0:0:
448,192,43757,1,0,0:0:0:0:
192,192,43757,1,0,0:0:0:0:
448,192,43915,1,0,0:0:0:0:
192,192,43915,1,0,0:0:0:0:
320,192,44231,1,0,0:0:0:0:
192,192,44231,1,0,0:0:0:0:
320,192,44388,1,0,0:0:0:0:
192,192,44388,1,0,0:0:0:0:
64,192,44704,1,0,0:0:0:0:
320,192,44704,1,0,0:0:0:0:
64,192,44862,1,0,0:0:0:0:
320,192,44862,1,0,0:0:0:0:
320,192,45336,128,0,46283:0:0:0:0:
64,192,45652,128,0,45967:0:0:0:0:
192,192,45967,128,0,46283:0:0:0:0:
64,192,46283,1,0,0:0:0:0:
448,192,46283,1,0,0:0:0:0:
192,192,46599,1,0,0:0:0:0:
448,192,47073,1,0,0:0:0:0:
64,192,47231,1,0,0:0:0:0:
448,192,47388,1,0,0:0:0:0:
448,192,47704,1,0,0:0:0:0:
64,192,47862,1,0,0:0:0:0:
448,192,48178,1,0,0:0:0:0:
448,192,48336,1,0,0:0:0:0:
64,192,48494,1,0,0:0:0:0:
64,192,48810,1,0,0:0:0:0:
192,192,48810,1,0,0:0:0:0:
448,192,49125,1,0,0:0:0:0:
64,192,49599,1,0,0:0:0:0:
448,192,49757,1,0,0:0:0:0:
64,192,49915,1,0,0:0:0:0:
64,192,50231,1,0,0:0:0:0:
448,192,50388,1,0,0:0:0:0:
64,192,50704,1,0,0:0:0:0:
64,192,50862,1,0,0:0:0:0:
448,192,51020,1,0,0:0:0:0:
320,192,51336,1,0,0:0:0:0:
64,192,51336,1,0,0:0:0:0:
192,192,51652,1,0,0:0:0:0:
320,192,52125,1,0,0:0:0:0:
192,192,52283,1,0,0:0:0:0:
320,192,52441,1,0,0:0:0:0:
320,192,52757,1,0,0:0:0:0:
192,192,52915,1,0,0:0:0:0:
64,192,53231,128,0,53862:0:0:0:0:
320,192,53231,1,0,0:0:0:0:
320,192,53388,1,0,0:0:0:0:
192,192,53546,1,0,0:0:0:0:
192,192,53862,1,0,0:0:0:0:
320,192,54178,1,0,0:0:0:0:
192,192,54652,1,0,0:0:0:0:
320,192,54810,1,0,0:0:0:0:
192,192,54967,1,0,0:0:0:0:
448,192,54967,128,0,55283:0:0:0:0:
64,192,55283,1,0,0:0:0:0:
192,192,55441,1,0,0:0:0:0:
320,192,55599,1,0,0:0:0:0:
64,192,55757,1,0,0:0:0:0:
320,192,55915,1,0,0:0:0:0:
448,192,56073,1,0,0:0:0:0:
320,192,56310,1,0,0:0:0:0:
448,192,56388,1,0,0:0:0:0:
64,192,56388,1,0,0:0:0:0:
192,192,56704,1,0,0:0:0:0:
448,192,57178,1,0,0:0:0:0:
192,192,57336,1,0,0:0:0:0:
448,192,57494,1,0,0:0:0:0:
448,192,57810,1,0,0:0:0:0:
192,192,57967,1,0,0:0:0:0:
448,192,58283,1,0,0:0:0:0:
448,192,58441,1,0,0:0:0:0:
192,192,58599,1,0,0:0:0:0:
64,192,58915,1,0,0:0:0:0:
448,192,58915,1,0,0:0:0:0:
320,192,59231,1,0,0:0:0:0:
64,192,59704,1,0,0:0:0:0:
320,192,59862,1,0,0:0:0:0:
64,192,60020,1,0,0:0:0:0:
64,192,60336,1,0,0:0:0:0:
320,192,60494,1,0,0:0:0:0:
64,192,60810,1,0,0:0:0:0:
64,192,60967,1,0,0:0:0:0:
320,192,61125,1,0,0:0:0:0:
64,192,61441,1,0,0:0:0:0:
320,192,61441,1,0,0:0:0:0:
64,192,61757,1,0,0:0:0:0:
320,192,62231,1,0,0:0:0:0:
64,192,62388,1,0,0:0:0:0:
320,192,62546,1,0,0:0:0:0:
320,192,62862,1,0,0:0:0:0:
64,192,63020,1,0,0:0:0:0:
320,192,63336,1,0,0:0:0:0:
320,192,63494,1,0,0:0:0:0:
64,192,63652,1,0,0:0:0:0:
192,192,63967,1,0,0:0:0:0:
448,192,64283,1,0,0:0:0:0:
192,192,64757,1,0,0:0:0:0:
448,192,64915,1,0,0:0:0:0:
192,192,65073,1,0,0:0:0:0:
64,192,65073,128,0,65388:0:0:0:0:
448,192,65388,1,0,0:0:0:0:
320,192,65546,1,0,0:0:0:0:
64,192,65704,1,0,0:0:0:0:
448,192,65862,1,0,0:0:0:0:
192,192,66020,1,0,0:0:0:0:
64,192,66178,128,0,66494:0:0:0:0:
448,192,66494,1,0,0:0:0:0:
192,192,66494,1,0,0:0:0:0:
448,192,66652,1,0,0:0:0:0:
448,192,66967,1,0,0:0:0:0:
64,192,67125,1,0,0:0:0:0:
448,192,67441,1,0,0:0:0:0:
448,192,67599,1,0,0:0:0:0:
448,192,67994,1,0,0:0:0:0:
448,192,68231,1,0,0:0:0:0:
64,192,68388,1,0,0:0:0:0:
192,192,68862,1,0,0:0:0:0:
64,192,69020,1,0,0:0:0:0:
448,192,69020,1,0,0:0:0:0:
64,192,69178,1,0,0:0:0:0:
64,192,69494,1,0,0:0:0:0:
448,192,69652,1,0,0:0:0:0:
64,192,69967,1,0,0:0:0:0:
64,192,70125,1,0,0:0:0:0:
64,192,70441,1,0,0:0:0:0:
64,192,70757,1,0,0:0:0:0:
448,192,70915,1,0,0:0:0:0:
64,192,71073,1,0,0:0:0:0:
192,192,71231,128,0,71546:0:0:0:0:
448,192,71546,1,0,0:0:0:0:
64,192,71546,1,0,0:0:0:0:
192,192,71862,1,0,0:0:0:0:
448,192,72178,1,0,0:0:0:0:
64,192,72494,1,0,0:0:0:0:
320,192,72810,1,0,0:0:0:0:
64,192,73125,1,0,0:0:0:0:
448,192,73441,1,0,0:0:0:0:
192,192,73757,1,0,0:0:0:0:
64,192,74073,128,0,74388:0:0:0:0:
320,192,74073,1,0,0:0:0:0:
192,192,74388,1,0,0:0:0:0:
448,192,74704,1,0,0:0:0:0:
64,192,75020,1,0,0:0:0:0:
320,192,75336,1,0,0:0:0:0:
192,192,75652,1,0,0:0:0:0:
448,192,75967,1,0,0:0:0:0:
64,192,76283,1,0,0:0:0:0:
448,192,76599,128,0,76915:0:0:0:0:
192,192,76599,1,0,0:0:0:0:
320,192,76915,1,0,0:0:0:0:
64,192,77231,1,0,0:0:0:0:
448,192,77546,1,0,0:0:0:0:
192,192,77862,1,0,0:0:0:0:
320,192,78178,1,0,0:0:0:0:
192,192,78494,1,0,0:0:0:0:
448,192,78810,1,0,0:0:0:0:
64,192,79125,1,0,0:0:0:0:
192,192,79125,128,0,79441:0:0:0:0:
320,192,79441,1,0,0:0:0:0:
64,192,79757,1,0,0:0:0:0:
448,192,80073,1,0,0:0:0:0:
192,192,80388,1,0,0:0:0:0:
320,192,80704,1,0,0:0:0:0:
64,192,81020,1,0,0:0:0:0:
192,192,81020,128,0,81336:0:0:0:0:
448,192,81336,1,0,0:0:0:0:
320,192,81336,128,0,81652:0:0:0:0:
448,192,81652,1,0,0:0:0:0:
64,192,81652,1,0,0:0:0:0:
64,192,81810,1,0,0:0:0:0:
448,192,81810,1,0,0:0:0:0:
448,192,82125,1,0,0:0:0:0:
64,192,82125,1,0,0:0:0:0:
448,192,82283,1,0,0:0:0:0:
64,192,82283,1,0,0:0:0:0:
192,192,82599,1,0,0:0:0:0:
320,192,82599,1,0,0:0:0:0:
192,192,82757,1,0,0:0:0:0:
320,192,82757,1,0,0:0:0:0:
192,192,83073,1,0,0:0:0:0:
320,192,83073,1,0,0:0:0:0:
320,192,83231,1,0,0:0:0:0:
192,192,83231,1,0,0:0:0:0:
448,192,83388,1,0,0:0:0:0:
64,192,83546,1,0,0:0:0:0:
192,192,83704,1,0,0:0:0:0:
448,192,83862,1,0,0:0:0:0:
64,192,84020,128,0,88915:0:0:0:0:
320,192,84020,1,0,0:0:0:0:
