osu file format v10

[General]
AudioFilename: 114 - Ping-Pong Dash! - sm1658216.mp3
AudioLeadIn: 0
PreviewTime: 38358
Countdown: 0
SampleSet: Soft
StackLeniency: 0.7
Mode: 0
LetterboxInBreaks: 0

[Editor]
Bookmarks: 16206,66439
DistanceSpacing: 1
BeatDivisor: 4
GridSize: 8

[Metadata]
Title:Ping-Pong Dash!
TitleUnicode:Ping-Pong Dash!
Artist:Hayaya-P
ArtistUnicode:Hayaya-P
Creator:Shiro
Version:Hard
Source:Vocaloid
Tags:Odaril ping pong dash Hatsune Miku PPD
BeatmapID:174826
BeatmapSetID:58051

[Difficulty]
HPDrainRate:5
CircleSize:4
OverallDifficulty:6
ApproachRate:7
SliderMultiplier:1.76
SliderTickRate:2

[Events]
//Background and Video events
0,0,"pingpongdash.jpg"
//Break Periods
//Storyboard Layer 0 (Background)
//Storyboard Layer 1 (Fail)
//Storyboard Layer 2 (Pass)
//Storyboard Layer 3 (Foreground)
//Storyboard Sound Samples
//Background Colour Transformations
3,100,163,162,255

[TimingPoints]
2079,348.837209302326,4,2,1,70,1,0
16119,-100,4,2,2,70,0,0
27151,-100,4,2,1,70,0,0
27238,-100,4,2,2,70,0,0
32689,-100,4,1,1,40,0,0
37747,-100,4,1,1,50,0,0
37922,-100,4,1,1,60,0,0
38096,-100,4,1,1,70,0,0
38358,-100,4,2,1,70,0,1
38445,-100,4,2,2,70,0,1
43852,-100,4,2,1,70,0,1
44026,-100,4,2,2,70,0,1
49520,-100,4,2,2,30,0,0
55102,-100,4,2,1,70,0,0
66352,-100,4,2,2,70,0,0
77384,-100,4,2,1,70,0,0
77471,-100,4,2,2,70,0,0
82965,-100,4,1,1,40,0,0
87980,-100,4,1,1,50,0,0
88154,-100,4,1,1,60,0,0
88329,-100,4,1,1,70,0,0
88590,-100,4,2,1,70,0,1
88677,-100,4,2,2,70,0,1
94084,-100,4,2,1,70,0,1
94259,-100,4,2,2,70,0,1
99404,-100,4,2,2,70,0,0
99753,-100,4,2,1,70,0,1
99840,-100,4,2,2,70,0,1
105247,-100,4,2,1,70,0,1
105422,-100,4,2,2,70,0,1
110916,-100,4,2,1,70,0,0

[Colours]
Combo1 : 128,160,200
Combo2 : 197,154,120

[HitObjects]
372,84,2079,2,0,B|324:128|251:127,1,132
207,115,2427,2,0,B|164:97|109:111|86:159|90:203,1,176,8|0,0:0|0:0,0:0:0
130,280,2951,1,0,0:0:0
213,307,3125,1,8,0:0:0
296,280,3299,5,0,0:0:0
288,192,3474,1,0,0:0:0
296,104,3648,2,0,B|305:78|347:67|372:84,1,88,0|8,0:0|0:0,0:0:0
454,113,3997,2,0,B|487:144|499:192|487:240|454:271,1,176
372,300,4520,2,0,B|347:317|305:306|296:280,1,88,8|0,0:0|0:0,0:0:0
288,192,4869,5,0,0:0:0
215,141,5044,1,0,0:0:0
128,124,5218,2,0,B|56:123|34:216|91:250,1,176,8|0,0:0|0:0,0:0:0
172,278,5741,2,0,B|220:278|249:314,1,88,0|8,0:0|0:0,0:0:0
178,366,6090,6,0,P|96:327|96:327|60:290|92:245,1,176
160,198,6613,2,0,B|170:147|128:124,1,88,8|0,0:0|0:0,0:0:0
42,100,6962,2,0,B|-3:82,2,44,8|8|0,0:0|0:0|0:0,0:0:0
65,185,7311,1,8,0:0:0
223,55,7660,6,0,B|273:17|348:28,1,132
390,42,8009,2,0,P|434:120|409:220,1,176
380,280,8532,1,0,0:0:0
300,317,8706,1,8,0:0:0
212,317,8881,5,0,0:0:0
127,293,9055,1,0,0:0:0
60,235,9230,2,0,B|26:197|46:153,1,88,0|8,0:0|0:0,0:0:0
121,108,9579,2,0,B|205:152|289:108,1,176
364,154,10102,2,0,B|384:198|350:236,1,88,8|0,0:0|0:0,0:0:0
264,255,10451,6,0,B|214:262|180:238,1,88
131,311,10799,2,0,B|165:341|212:341,1,88,8|0,0:0|0:0,0:0:0
300,341,11148,2,0,B|347:341|381:311,1,88
438,244,11497,1,8,0:0:0
350,235,11672,5,0,0:0:0
256,87,12020,2,0,B|207:163,1,88,0|8,0:0|0:0,0:0:0
161,235,12369,2,0,B|228:290,1,88,0|8,0:0|0:0,0:0:0
301,340,12718,1,0,0:0:0
385,360,12892,2,0,B|386:312,3,44,8|8|0|0,0:0|0:0|0:0|0:0,0:0:0
386,316,13241,6,0,B|439:244,1,88,0|2,0:0|0:0,0:0:0
350,236,13590,2,0,B|403:164,1,88,0|2,0:0|0:0,0:0:0
315,150,13939,1,0,0:0:0
256,215,14113,1,2,0:0:0
210,290,14288,1,0,0:0:0
126,316,14462,6,0,B|73:244,1,88,2|0,0:0|0:0,0:0:0
162,236,14811,2,0,B|109:164,1,88,2|0,0:0|0:0,0:0:0
197,150,15160,1,2,0:0:0
256,215,15334,1,2,0:0:0
256,38,15683,1,2,0:0:0
256,215,16032,1,4,0:0:0
315,150,16206,6,0,B|348:180|343:231,1,88,8|0,0:0|0:0,0:0:0
342,318,16555,2,0,B|392:314|418:276,1,88,8|0,0:0|0:0,0:0:0
441,192,16904,1,8,0:0:0
416,106,17079,1,0,0:0:0
339,65,17253,2,0,B|256:117|173:65,1,176,8|8,0:0|0:0,0:0:0
95,106,17776,1,0,0:0:0
171,151,17951,2,0,B|256:189|341:151,1,176,8|8,0:0|0:0,0:0:0
416,106,18474,1,0,0:0:0
472,225,18648,1,8,0:0:0
323,323,18997,6,0,B|286:346|240:346,1,88,8|0,0:0|0:0,0:0:0
150,346,19346,1,8,0:0:0
131,260,19520,2,0,B|172:274|217:263,1,88,0|8,0:0|0:0,0:0:0
305,244,19869,1,0,0:0:0
277,160,20044,2,0,B|187:192|104:159,1,176,8|8,0:0|0:0,0:0:0
145,80,20567,1,0,0:0:0
232,83,20741,1,8,0:0:0
320,86,20916,1,0,0:0:0
375,153,21090,5,4,0:0:0
403,237,21265,1,4,0:0:0
366,316,21439,6,0,B|326:334|279:333,2,88,8|0|8,0:0|0:0|0:0,0:0:0
403,237,21962,2,0,B|443:219|490:220,2,88,0|8|0,0:0|0:0|0:0,0:0:0
314,243,22485,1,8,0:0:0
225,240,22660,2,0,B|185:222|138:223,2,88,0|8|0,0:0|0:0|0:0,0:0:0
314,243,23183,1,8,0:0:0
162,332,23532,1,8,0:0:0
160,155,23881,2,0,B|208:154|247:174,2,88,8|0|8,0:0|0:0|0:0,0:0:0
71,148,24404,5,8,0:0:0
83,235,24578,1,8,0:0:0
256,245,24927,1,8,0:0:0
256,333,25102,1,8,0:0:0
429,235,25451,1,8,0:0:0
441,148,25625,1,0,0:0:0
359,179,25799,5,8,0:0:0
343,92,25974,1,8,0:0:0
256,245,26323,1,8,0:0:0
256,333,26497,1,8,0:0:0
179,289,26672,5,4,0:0:0
333,289,26846,1,4,0:0:0
256,130,27195,5,4,0:0:0
194,192,27369,6,0,B|146:195|119:232,2,88,8|0|8,0:0|0:0|0:0,0:0:0
256,245,27892,1,0,0:0:0
318,192,28067,2,0,B|366:195|393:232,1,88,8|0,0:0|0:0,0:0:0
455,294,28416,2,0,B|512:225|512:130,1,176,8|8,0:0|0:0,0:0:0
463,58,28939,2,0,B|427:85|381:88,1,88,0|8,0:0|0:0,0:0:0
293,81,29288,1,0,0:0:0
208,58,29462,1,8,0:0:0
120,49,29637,2,0,B|89:84|94:132,1,88,0|8,0:0|0:0,0:0:0
123,212,29985,6,0,B|148:249|194:261,1,88,0|8,0:0|0:0,0:0:0
202,173,30334,2,0,B|248:185|273:222,1,88,0|8,0:0|0:0,0:0:0
284,309,30683,1,0,0:0:0
370,327,30858,1,8,0:0:0
475,186,31206,2,0,P|470:91|427:21,1,176,8|8,0:0|0:0,0:0:0
360,76,31730,2,0,B|396:105|393:154,2,88,0|8|0,0:0|0:0|0:0,0:0:0
305,145,32253,5,4,0:0:0
249,213,32427,2,0,B|218:246|173:254,1,88,4|0,0:0|0:0,0:0:0
84,259,32776,1,6,0:0:0
150,39,33125,5,0,0:0:0
256,81,33299,1,0,0:0:0
362,39,33474,1,6,0:0:0
342,267,33823,5,0,0:0:0
256,192,33997,1,0,0:0:0
170,267,34172,1,6,0:0:0
193,39,34520,5,0,0:0:0
256,136,34695,1,0,0:0:0
319,39,34869,1,6,0:0:0
488,192,35218,1,2,0:0:0
319,345,35567,6,0,B|230:345,1,88,2|2,0:0|0:0,0:0:0
60,192,36090,2,0,B|149:192,1,88,2|2,0:0|0:0,0:0:0
362,268,36613,2,0,B|273:268,2,88,2|2|6,0:0|0:0|0:0,0:0:0
192,34,37660,6,0,B|212:120,1,88
301,119,38009,2,0,B|281:205,1,88
256,289,38358,6,0,B|173:332|85:299,2,176,6|0|2,0:0|0:0|0:0,0:0:0
326,236,39230,1,0,0:0:0
326,148,39404,1,0,0:0:0
256,95,39578,6,0,B|216:74|172:71,1,88,2|0,0:0|0:0,0:0:0
48,117,39927,2,0,B|92:120|132:141,1,88
209,248,40276,2,0,B|169:227|125:224,1,88,2|0,0:0|0:0,0:0:0
2,274,40625,2,0,B|46:277|86:298,1,88
206,353,40974,5,0,0:0:0
278,303,41148,1,2,0:0:0
415,192,41497,1,2,0:0:0
278,81,41846,2,0,B|196:24,2,88,2|0|0,0:0|0:0|0:0,0:0:0
345,138,42369,1,0,0:0:0
345,246,42544,5,2,0:0:0
259,224,42718,2,0,B|168:195|88:232,1,176,2|2,0:0|0:0,0:0:0
245,310,43416,1,2,0:0:0
329,332,43590,1,2,0:0:0
345,246,43765,1,2,0:0:0
414,192,43939,6,0,B|493:142|497:45,2,176,6|0|2,0:0|0:0|0:0,0:0:0
335,152,44811,1,0,0:0:0
256,192,44985,1,0,0:0:0
177,232,45160,6,0,B|134:248|89:244,1,88,2|0,0:0|0:0,0:0:0
8,140,45509,2,0,B|51:150|96:141,1,88
174,36,45858,2,0,B|131:52|86:48,1,88,2|0,0:0|0:0,0:0:0
188,132,46206,2,0,B|232:124|270:99,1,88
386,37,46555,5,0,0:0:0
467,71,46730,1,2,0:0:0
339,192,47078,1,2,0:0:0
467,313,47427,1,2,0:0:0
385,347,47602,1,0,0:0:0
297,347,47776,2,0,B|200:347,1,88,0|2,0:0|0:0,0:0:0
124,192,48299,5,2,0:0:0
207,163,48474,1,0,0:0:0
260,232,48648,1,0,0:0:0
339,192,48823,1,2,0:0:0
231,52,49172,1,0,0:0:0
124,192,49520,6,0,B|56:236|32:337,2,176
296,152,50567,1,0,0:0:0
260,232,50741,1,0,0:0:0
182,274,50916,6,0,B|118:223|105:120,2,176
353,232,51962,1,0,0:0:0
389,152,52137,1,0,0:0:0
343,76,52311,6,0,B|256:54|169:76,1,176
265,224,53009,2,0,B|351:242|438:217,1,176
256,192,53706,12,0,54753,0:0:0
205,230,55102,6,0,B|133:240|84:191,1,132
54,158,55451,2,0,B|27:120|50:59|120:49|150:92,1,176,8|0,0:0|0:0,0:0:0
211,143,55974,2,0,B|253:160|299:154,1,88,0|8,0:0|0:0,0:0:0
381,126,56323,5,0,0:0:0
457,169,56497,1,0,0:0:0
464,256,56672,2,0,B|461:304|423:333,1,88,0|8,0:0|0:0,0:0:0
375,258,57020,2,0,B|288:229|202:256,1,176
152,329,57544,2,0,B|115:301|112:253,1,88,8|0,0:0|0:0,0:0:0
115,165,57892,6,0,B|131:109|171:101|211:93|227:37,1,176,0|8,0:0|0:0,0:0:0
290,99,58416,2,0,B|273:155|233:163|193:171|177:227,1,176,0|0,0:0|0:0,0:0:0
240,289,58939,2,0,B|254:244|299:225,1,88,8|0,0:0|0:0,0:0:0
365,169,59288,6,0,B|393:131|389:86,1,88
477,89,59637,2,0,B|480:134|460:177,1,88,8|0,0:0|0:0,0:0:0
409,245,59985,2,0,B|409:299,2,44,8|8|0,0:0|0:0|0:0,0:0:0
365,169,60334,1,8,0:0:0
242,42,60683,6,0,B|166:37|121:85,1,132
105,126,61032,2,0,B|132:210|234:232,1,176,8|0,0:0|0:0,0:0:0
321,246,61555,1,0,0:0:0
409,245,61730,1,8,0:0:0
366,321,61904,5,0,0:0:0
277,323,62078,2,0,B|233:324|191:312,1,88
105,287,62427,1,8,0:0:0
70,205,62602,2,0,B|76:157|110:121,1,88
170,66,62951,5,0,0:0:0
220,138,63125,1,8,0:0:0
239,223,63299,2,0,B|253:270|295:286,1,88
326,207,63648,2,0,B|373:192|389:150,1,88,0|8,0:0|0:0,0:0:0
305,119,63997,2,0,B|290:71|248:55,1,88
220,138,64346,2,0,B|172:152|156:194,1,88,0|8,0:0|0:0,0:0:0
138,280,64695,6,0,B|200:346|298:340,1,176
384,328,65218,1,8,0:0:0
452,272,65392,1,0,0:0:0
490,192,65567,2,0,B|501:145|482:107,1,88,8|0,0:0|0:0,0:0:0
410,159,65916,2,0,B|404:111|372:82,1,88,8|0,0:0|0:0,0:0:0
321,154,66265,1,4,0:0:0
238,184,66439,6,0,B|196:199|169:236,2,88,8|0|8,0:0|0:0|0:0,0:0:0
258,269,66962,2,0,B|221:294|206:338,2,88,0|8|0,0:0|0:0|0:0,0:0:0
341,240,67485,2,0,B|387:242|424:217,1,88,8|0,0:0|0:0,0:0:0
488,157,67834,2,0,B|476:112|440:84,1,88,8|0,0:0|0:0,0:0:0
365,130,68183,2,0,B|328:155|282:153|282:153|236:155|199:130,1,176,8|8,0:0|0:0,0:0:0
128,75,68706,1,0,0:0:0
24,157,68881,1,8,0:0:0
183,240,69230,5,8,0:0:0
256,289,69404,2,0,B|256:381,2,88,0|8|0,0:0|0:0|0:0,0:0:0
329,240,69927,1,8,0:0:0
403,287,70102,1,0,0:0:0
478,242,70276,1,8,0:0:0
324,155,70625,2,0,B|277:156|254:200,1,88,8|0,0:0|0:0,0:0:0
329,240,70974,2,0,B|376:239|399:195,1,88,8|0,0:0|0:0,0:0:0
398,106,71323,5,4,0:0:0
267,88,71497,1,4,0:0:0
71,259,71846,6,0,B|79:306|124:324,1,88,0|8,0:0|0:0,0:0:0
195,272,72195,1,0,0:0:0
276,305,72369,2,0,B|321:287|329:240,1,88,8|0,0:0|0:0,0:0:0
325,155,72718,1,8,0:0:0
237,181,72892,2,0,B|190:167|177:121,1,88,0|8,0:0|0:0,0:0:0
210,40,73241,1,0,0:0:0
298,33,73416,2,0,B|397:33|451:108,2,176,8|8|8,0:0|0:0|0:0,0:0:0
210,40,74288,1,0,0:0:0
143,97,74462,1,8,0:0:0
79,158,74637,5,8,0:0:0
129,229,74811,1,8,0:0:0
256,107,75160,1,8,0:0:0
256,194,75334,1,8,0:0:0
433,158,75683,1,8,0:0:0
383,229,75858,1,0,0:0:0
335,154,76032,5,8,0:0:0
362,70,76206,1,8,0:0:0
311,238,76555,1,8,0:0:0
222,238,76730,1,8,0:0:0
266,162,76904,5,4,0:0:0
267,313,77079,1,4,0:0:0
134,238,77253,2,0,B|91:238,2,44,8|8|4,0:0|0:0|0:0,0:0:0
183,165,77602,6,0,B|176:126|208:72|270:65|303:86,1,176,8|8,0:0|0:0,0:0:0
370,144,78125,2,0,B|427:216,1,88,0|8,0:0|0:0,0:0:0
382,289,78474,2,0,B|311:238,1,88,0|8,0:0|0:0,0:0:0
134,238,78997,2,0,B|84:232|56:268,1,88,8|0,0:0|0:0,0:0:0
123,325,79346,1,8,0:0:0
210,325,79520,2,0,B|260:325|284:287,1,88,0|8,0:0|0:0,0:0:0
213,234,79869,2,0,B|237:195|287:196,1,88,0|8,0:0|0:0,0:0:0
375,201,80218,6,0,B|382:293,2,88,0|8|0,0:0|0:0|0:0,0:0:0
369,112,80741,1,8,0:0:0
297,60,80916,1,0,0:0:0
220,102,81090,2,0,B|138:134|47:115,2,176,8|8|8,0:0|0:0|0:0,0:0:0
379,26,82137,1,8,0:0:0
376,201,82485,5,4,0:0:0
304,149,82660,2,0,B|261:164|219:170,1,88,4|0,0:0|0:0,0:0:0
136,201,83009,6,0,B|51:222,1,88,6|0,0:0|0:0,0:0:0
110,286,83358,2,0,B|195:265,1,88
376,201,83706,6,0,B|461:222,1,88,6|0,0:0|0:0,0:0:0
375,284,84055,2,0,B|290:263,1,88,0|0,0:0|0:0,0:0:0
111,126,84404,6,0,B|26:147,1,88,6|0,0:0|0:0,0:0:0
136,201,84753,2,0,B|221:180,1,88
425,135,85102,6,0,B|510:156,1,88,6|0,0:0|0:0,0:0:0
376,201,85451,2,0,B|291:180,1,88,2|0,0:0|0:0,0:0:0
256,272,85799,6,0,B|256:360,1,88,2|2,0:0|0:0,0:0:0
186,152,86323,2,0,B|110:108,1,88,2|2,0:0|0:0,0:0:0
325,152,86846,2,0,B|401:108,2,88,2|2|6,0:0|0:0|0:0,0:0:0
80,308,87892,6,0,B|168:317,1,88
130,236,88241,2,0,B|218:234,1,88
186,151,88590,6,0,B|256:139|256:139|263:105|295:77|335:84,1,176,6|0,0:0|0:0,0:0:0
501,138,89288,1,2,0:0:0
414,155,89462,1,0,0:0:0
325,152,89637,1,0,0:0:0
281,228,89811,6,0,B|239:244|193:244,1,88,2|0,0:0|0:0,0:0:0
314,300,90160,2,0,B|272:316|227:320,1,88
101,282,90509,2,0,B|106:235|134:199,1,88,2|0,0:0|0:0,0:0:0
22,276,90858,2,0,B|27:229|49:191,1,88
102,72,91206,5,0,0:0:0
187,50,91381,1,2,0:0:0
256,211,91730,1,2,0:0:0
325,50,92079,1,2,0:0:0
410,72,92253,1,0,0:0:0
452,148,92427,2,0,B|452:236,1,88
343,311,92776,5,2,0:0:0
256,329,92951,2,0,B|160:329|100:258,2,176,2|2|2,0:0|0:0|0:0,0:0:0
343,311,93823,1,2,0:0:0
371,227,93997,1,2,0:0:0
387,140,94172,6,0,B|380:99|380:99|373:56|404:21|459:34|465:70,1,176,6|0,0:0|0:0,0:0:0
458,240,94869,1,2,0:0:0
371,227,95044,1,0,0:0:0
284,211,95218,1,0,0:0:0
199,185,95392,6,0,B|155:185|115:212,1,88,2|0,0:0|0:0,0:0:0
178,328,95741,2,0,B|221:327|261:300,1,88
371,227,96090,2,0,B|374:183|352:140,1,88,2|0,0:0|0:0,0:0:0
247,62,96439,2,0,B|243:105|265:148,1,88
353,142,96788,5,0,0:0:0
439,124,96962,2,0,B|472:210|445:297,2,176,2|2|2,0:0|0:0|0:0,0:0:0
380,57,97834,1,0,0:0:0
353,142,98009,1,0,0:0:0
293,77,98183,1,2,0:0:0
159,192,98532,5,0,0:0:0
195,271,98706,1,2,0:0:0
272,229,98881,1,0,0:0:0
337,287,99055,1,2,0:0:0
341,291,99404,1,0,0:0:0
345,295,99753,6,0,B|377:322|377:322|380:301|403:282|434:286|447:303|447:303|460:261,1,176,6|0,0:0|0:0,0:0:0
428,86,100451,1,2,0:0:0
365,23,100625,1,0,0:0:0
302,85,100799,1,0,0:0:0
364,147,100974,6,0,B|401:179|394:230,1,88,2|0,0:0|0:0,0:0:0
278,288,101323,2,0,B|241:256|248:205,1,88
139,133,101672,2,0,B|176:165|169:216,1,88,2|0,0:0|0:0,0:0:0
53,274,102020,2,0,B|16:242|23:191,1,88
53,113,102369,5,0,0:0:0
93,191,102544,1,2,0:0:0
256,125,102892,1,2,0:0:0
419,191,103241,1,2,0:0:0
459,113,103416,1,0,0:0:0
314,213,103765,1,0,0:0:0
256,279,103939,5,2,0:0:0
198,213,104113,2,0,B|164:119|212:42,1,176
299,43,104637,2,0,B|347:119|314:213,1,176,0|2,0:0|0:0,0:0:0
342,295,105160,1,2,0:0:0
429,295,105334,6,0,B|482:289|482:289|511:229|474:169,1,176,6|0,0:0|0:0,0:0:0
341,57,106032,2,0,B|292:46|256:68,1,88,2|0,0:0|0:0,0:0:0
189,126,106381,1,0,0:0:0
115,78,106555,6,0,B|36:34,1,88,2|0,0:0|0:0,0:0:0
64,165,106904,2,0,B|143:209,1,88
266,169,107253,2,0,B|187:125,1,88,2|0,0:0|0:0,0:0:0
221,254,107602,2,0,B|300:298,1,88
424,256,107951,5,0,0:0:0
452,172,108125,2,0,B|477:86,2,88,2|0|2,0:0|0:0|0:0,0:0:0
364,184,108648,2,0,B|293:117,2,88,0|2|0,0:0|0:0|0:0,0:0:0
333,267,109172,2,0,B|242:275,1,88,2|2,0:0|0:0,0:0:0
256,192,109520,12,4,110916,0:0:0
