osu file format v5

[General]
AudioFilename: 01-Over_Soul_(TV_Version).mp3
AudioLeadIn: 0
PreviewTime: -1
Countdown: 1
SampleSet: Normal
StackLeniency: 0.7
Mode: 0
LetterboxInBreaks: 1
EditorBookmarks: 1279,2383,3265,5087,11929,13696,15627,18496,18938,20704,22690,25891,27767,29091,40128,41894,48737,62643,64188,65071,66285,67720,68603,69707,71252,72135,73459,74783,75666,77211

[Metadata]
Title:Over Soul (TV Version)
Artist:Hayashibara Megumi
Creator:Inozuma
Version:Oversoul!
Source:
Tags:

[Difficulty]
HPDrainRate:6
CircleSize:5
OverallDifficulty:8
SliderMultiplier:1.8
SliderTickRate:2

[Events]
//Background and Video events
0,0,"bg.jpg"
//Break Periods
2,5230,11030
2,40217,40694
//Storyboard Layer 0 (Background)
//Storyboard Layer 1 (Failing)
//Storyboard Layer 2 (Passing)
//Storyboard Layer 3 (Foreground)
//Storyboard Sound Samples
//Background Colour Transformations
3,100,163,162,255

[TimingPoints]
3262,441.468618939004,4,1,0,80,1
77316,441.468618939004,4,2,0,100,1
82466,441.468618939004,4,1,0,100,1
84376,441.468618939004,4,2,0,100,1
86136,441.468618939004,4,1,0,100,1

[Colours]
Combo1 : 255,209,51
Combo2 : 4,236,63
Combo3 : 74,156,247
Combo4 : 222,84,84

[HitObjects]
184,192,1275,1,0
256,192,1385,1,0
328,192,1496,1,0
256,56,1937,5,4
256,336,2379,5,0
456,192,2820,5,4
256,192,3262,6,0,B|96:192|96:192|96:80|256:80|416:80|416:192|416:288|256:288|256:288|192:288,1,742.5,4|0
464,256,11925,5,0
424,192,12036,1,0
352,192,12146,1,0
208,191,12367,1,0
67,191,12588,1,0
208,191,12808,1,0
137,191,12919,1,0
256,192,13195,5,0
256,192,13415,1,6
256,192,13526,1,0
464,128,13691,5,0
424,192,13802,1,0
352,192,13912,1,0
208,193,14133,1,0
67,193,14353,1,0
208,193,14574,1,0
137,193,14685,1,0
256,192,14850,5,0
256,192,15071,1,0
256,192,15181,1,2
256,192,15402,1,4
467,52,15623,5,0
467,192,15843,1,0
467,332,16064,1,0
326,332,16285,1,0
256,332,16395,1,0
256,122,16781,1,0
157,222,17002,1,0
256,122,17223,1,0
353,221,17444,1,4
256,122,17664,1,4
256,262,17885,1,4
134,192,18106,1,4
208,192,18216,2,4,B|273:192|273:192|273:152|305:152|337:152,1,135,4|4
336,160,18934,5,0
399,192,19044,1,0
336,224,19154,1,0
195,192,19375,1,0
339,192,19596,1,0
194,192,19817,1,0
265,192,19927,1,0
256,192,20148,5,0
256,192,20368,1,2
256,192,20479,1,0
256,40,20700,6,0,B|256:88,1,45
256,85,20920,1,0
256,229,21141,2,0,B|256:320,1,90
256,174,21582,1,0
256,101,21693,1,0
256,192,21914,5,0
256,192,22134,1,2
256,192,22355,5,0
184,192,22465,1,2
120,224,22576,1,0
56,192,22686,5,0
56,47,22907,1,0
200,48,23128,1,0
200,192,23348,1,0
272,192,23459,1,0
448,64,23790,1,0
448,208,24011,1,0
304,208,24231,1,0
304,64,24452,1,4
160,64,24673,1,4
88,192,24893,1,4
160,312,25114,1,4
304,312,25335,2,4,B|304:264|304:264|256:264|256:232|256:200|304:200|304:200|360:200,1,202.5
256,192,25997,1,0
256,192,26218,1,0
256,192,26328,1,0
256,192,26549,1,0
256,192,26659,6,2,B|256:144|256:144|208:144|208:192|160:192,1,135
183,187,27322,2,2,B|183:123|183:123|124:123|124:69|124:69|182:69,1,180
368,72,28094,5,4
376,216,28315,1,0
376,288,28425,2,4,B|312:288|288:224,1,112.5
56,336,29087,2,2,B|56:288|56:288|104:280|104:240,1,90
240,272,29529,1,2
376,216,29750,1,4
200,88,30081,1,0
256,40,30191,5,6
216,176,30412,1,2
272,224,30522,1,2
384,40,30853,1,2
456,160,31074,1,2
392,288,31295,1,2
248,288,31515,5,2
104,288,31736,5,0
176,280,31847,1,0
248,272,31957,1,2
104,272,32178,5,0
176,264,32288,1,0
248,248,32398,1,2
104,248,32619,5,0
176,240,32730,1,0
248,232,32840,1,2
144,136,33061,1,0
40,40,33281,5,4
256,56,33612,1,4
472,40,33944,1,4
472,184,34164,5,4
256,200,34495,1,4
40,184,34827,1,4
40,328,35047,5,4
256,344,35378,1,4
472,328,35709,1,4
424,192,35930,5,4
256,56,36261,1,4
88,192,36592,1,4
256,288,36813,6,6,B|256:240|256:240|216:240|216:200|256:200|256:200|296:200|296:160|256:160|256:160|216:160|216:120|256:120|256:120|296:120|296:80|256:80|256:80|216:80,1,360
245,80,37917,1,0
245,80,38138,1,2
352,168,38358,1,0
416,208,38469,1,0
480,256,38579,2,6,B|480:64|256:64|32:64|32:272,1,630
189,309,41890,5,0
256,336,42000,1,0
323,309,42111,1,0
320,165,42331,1,0
192,165,42552,1,0
192,20,42773,1,0
320,20,42994,1,0
256,148,43214,1,2
256,220,43325,1,2
40,192,43656,5,0
40,120,43766,1,0
40,47,43877,1,0
183,48,44097,1,0
184,192,44318,1,0
184,336,44539,1,0
328,336,44760,1,0
328,192,44980,1,4
400,192,45091,1,4
256,192,45311,5,0
256,192,45422,1,0
40,336,45642,5,2
112,336,45753,1,4
184,336,45863,1,2
328,336,46084,5,2
400,336,46194,1,4
472,336,46305,1,2
472,192,46525,5,2
400,192,46636,1,4
328,192,46746,1,2
184,192,46967,5,2
112,192,47077,1,4
40,192,47188,1,2
40,48,47408,5,2
112,48,47519,1,4
184,48,47629,1,2
328,48,47850,5,2
400,48,47960,1,4
472,48,48071,2,4,B|472:144|472:144|408:144|408:96|408:48|408:48|352:48|352:96|352:88,1,270,6|4
256,48,48954,6,0,B|256:96,2,45
400,48,49395,1,0
400,192,49616,1,0
256,192,49836,1,0
112,192,50057,1,0
112,48,50278,1,2
184,48,50388,1,2
400,48,50719,5,0
400,120,50830,1,0
400,192,50940,1,0
400,336,51161,1,0
256,336,51382,1,0
112,336,51602,1,0
112,192,51823,1,0
112,48,52044,1,4
184,48,52154,1,4
256,192,52375,5,0
256,192,52485,1,0
400,336,52706,5,0
256,320,52927,1,0
112,336,53147,1,0
184,208,53368,1,0
328,208,53589,1,0
112,48,54030,5,4
112,192,54251,1,0
112,264,54361,1,0
112,336,54472,1,4
256,336,54693,1,0
328,336,54803,1,0
400,336,54913,1,4
400,192,55134,1,0
400,120,55244,1,0
400,48,55355,1,4
256,192,55686,5,4
464,128,56017,5,0
488,192,56127,1,0
464,256,56238,1,0
336,192,56458,1,0
192,192,56679,1,0
256,320,56900,1,0
400,320,57121,1,0
280,248,57341,1,2
216,208,57452,1,2
56,56,57783,5,0
128,56,57893,1,0
184,104,58004,1,0
184,248,58224,1,0
320,192,58445,1,0
448,256,58666,1,0
320,328,58887,1,0
176,328,59107,1,4
104,328,59218,1,4
256,192,59549,5,4
112,48,59769,5,0
256,48,59990,1,0
400,48,60211,1,0
376,192,60432,1,0
400,336,60652,1,0
256,336,60873,1,0
112,336,61094,1,0
144,192,61315,2,4,B|144:96|144:96|224:96|224:192|224:192|400:192|400:80|400:80|480:80,1,540
473,80,63080,6,0,B|424:80,1,45
352,80,63301,2,0,B|208:80|208:80|208:192|360:192,1,315,4|0
384,192,64184,2,0,B|384:288|200:288|200:288|104:288,1,315,4|0
112,216,65067,2,0,B|112:72|112:72|256:72|256:216|256:216|416:216|416:208,1,495,4|0
200,336,66612,5,0
272,336,66723,1,0
344,336,66833,2,0,B|344:256|256:256|256:256|168:256|168:192|168:192|168:128,1,315,4|0
168,56,67716,2,0,B|96:56|96:136|96:136|96:248|96:248|96:320|176:320,1,315,4|0
208,312,68599,2,0,B|320:312|320:240|320:240|320:104|320:104|320:56|368:56|368:56|464:56,1,450,4|0
256,224,70144,5,0
256,152,70254,1,0
256,80,70365,2,0,B|320:80|320:144|320:144|320:224|320:224|320:296|256:296|256:296|224:296,1,315,4|0
160,296,71248,2,0,B|160:232|232:232|232:232|264:232|264:176|264:176|264:128|232:128|232:128|160:128|160:56,1,315,4|0
96,96,72131,2,0,B|96:192|96:192|56:192|56:192|56:256|96:256|96:256|96:312|96:312|96:360|144:360|144:360|192:360|192:312|192:312|192:192,1,540,4|0
416,192,73676,5,0
416,48,73896,2,0,B|256:48|256:192|256:192|256:272,1,315,4|0
256,336,74779,2,0,B|56:336|56:192|56:192|56:120,1,315,4|0
56,80,75662,2,4,B|120:80|120:144|120:144|120:304|328:272|328:272|384:264|384:264|384:192|296:192|200:192|248:120,1,630
256,200,77426,5,0
256,344,77647,1,0
400,344,77867,1,0
400,200,78088,1,0
400,56,78309,1,0
256,56,78530,1,2
184,56,78640,1,2
112,344,78971,5,0
112,264,79081,1,0
112,192,79192,1,0
256,192,79412,1,0
400,192,79633,1,0
400,344,79854,1,0
256,344,80075,1,0
256,192,80295,1,4
256,128,80406,1,4
64,64,80958,5,0
448,64,81399,5,0
448,320,81841,5,0
64,320,82282,5,0
256,192,82741,5,0
256,336,82962,1,0
256,192,83183,1,0
256,336,83404,1,0
256,264,83514,1,0
256,264,83735,5,0
256,120,83955,1,0
400,120,84176,1,0
256,264,84596,5,2
256,120,84817,1,2
112,120,85038,1,2
256,264,85479,5,4
256,120,85700,1,4
400,120,85921,1,4
328,264,86356,5,0
184,264,86577,1,0
184,120,86798,1,0
328,120,87018,1,0
256,192,87570,5,4
