osu file format v5

[General]
AudioFilename: 01-Over_Soul_(TV_Version).mp3
AudioLeadIn: 0
PreviewTime: -1
Countdown: 1
SampleSet: Normal
StackLeniency: 0.7
Mode: 0
LetterboxInBreaks: 1
EditorBookmarks: 1279,2383,5087,11930,13696,15683,18551,18994,22690,25891,27877,29091,29312,40128,48737,62643,64188,65071,66285,67720,68603,69707,71252,72135,73459,74783,75666,77211

[Metadata]
Title:Over Soul (TV Version)
Artist:Hayashibara Megumi
Creator:Inozuma
Version:Normal
Source:
Tags:

[Difficulty]
HPDrainRate:3
CircleSize:4
OverallDifficulty:3
SliderMultiplier:1.2
SliderTickRate:1

[Events]
//Background and Video events
0,0,"bg.jpg"
//Break Periods
2,3465,11030
2,40328,40694
//Storyboard Layer 0 (Background)
//Storyboard Layer 1 (Failing)
//Storyboard Layer 2 (Passing)
//Storyboard Layer 3 (Foreground)
//Storyboard Sound Samples
//Background Colour Transformations
3,100,163,162,255

[TimingPoints]
3262,441.468618939004,4,1,0,100,1
77316,441.468618939004,4,2,0,100,1
82466,441.468618939004,4,1,0,100,1
84376,441.468618939004,4,2,0,100,1
86136,441.468618939004,4,1,0,100,1

[Colours]
Combo1 : 255,209,51
Combo2 : 4,236,63
Combo3 : 74,156,247
Combo4 : 222,84,84

[HitObjects]
256,216,1275,2,0,B|256:184,2,30
256,192,2379,5,0
256,192,3262,5,0
72,64,11925,5,0
128,64,12146,1,0
184,64,12367,1,0
240,64,12588,1,0
328,64,12919,1,0
440,192,13636,5,0
376,192,13857,1,0
312,192,14077,1,0
248,192,14298,1,0
160,192,14629,1,0
56,56,15623,5,0
112,56,15843,1,0
168,56,16064,1,0
224,56,16285,1,0
224,56,16395,1,0
312,56,16726,1,0
368,56,16947,1,0
392,112,17168,1,0
368,168,17388,1,0
304,168,17609,1,0
240,168,17830,1,0
176,168,18051,1,0
176,168,18161,1,0
176,272,18547,1,0
256,320,18934,6,0,B|256:280,2,30
320,320,19430,1,0
320,256,19651,1,0
320,192,19872,1,0
320,192,19982,1,0
256,64,20700,6,0,B|256:104,2,30
192,64,21141,1,0
192,120,21362,1,0
192,176,21582,1,0
192,176,21693,1,0
56,328,22686,5,0
120,328,22907,1,0
184,328,23128,1,0
248,328,23348,1,0
248,296,23459,1,0
248,208,23790,1,0
312,208,24011,1,0
376,208,24231,1,0
440,208,24452,1,4
440,144,24673,1,4
376,144,24893,1,4
312,144,25114,1,4
248,144,25335,1,4
112,144,25832,1,4
56,56,26659,6,2,B|152:56,1,90
232,56,27322,2,2,B|368:56,1,120
384,288,28425,6,2,B|288:288,1,90
200,288,29087,2,2,B|200:208,2,60
160,192,30191,5,2
224,192,30412,1,2
224,192,30522,1,2
312,192,30853,1,2
376,192,31074,1,2
440,192,31295,1,2
424,256,31515,2,2,B|352:256|352:256|352:216|296:216,3,120
56,192,33281,6,4,B|56:296,2,90
136,192,34164,6,4,B|136:96,2,90
216,192,35047,6,4,B|216:288,2,90
296,192,35930,6,4,B|296:96,2,90
376,192,36813,6,2,B|128:192,1,240
136,192,38138,1,0
256,192,38579,2,6,B|256:120|256:120|320:120|320:192|320:192|384:192|384:120|384:120|440:120|440:192|440:192|440:232|424:240,1,420
56,56,41890,5,0
120,56,42111,1,0
184,56,42331,1,0
248,56,42552,1,0
312,56,42773,1,0
376,56,42994,1,0
376,56,43325,1,2
448,192,43656,5,0
384,192,43877,1,0
320,192,44097,1,0
256,192,44318,1,0
192,192,44539,1,0
128,192,44760,1,0
128,192,45091,1,4
256,336,45642,5,0
224,280,45863,1,0
256,224,46084,1,0
224,168,46305,1,0
256,112,46525,1,0
296,64,46746,1,0
232,64,46967,1,0
168,64,47188,1,0
152,128,47408,1,0
88,128,47629,1,0
120,184,47850,1,0
184,184,48071,2,4,B|256:184|256:184|256:240|312:240|312:168|320:176,1,180
432,64,48954,6,0,B|392:64|376:64,2,30
432,128,49395,1,0
432,192,49616,1,0
432,256,49836,1,0
432,320,50057,1,0
368,320,50278,1,2
368,320,50388,1,2
272,320,50719,5,0
272,320,50830,1,0
272,320,50940,1,0
272,256,51161,1,0
272,192,51382,1,0
272,128,51602,1,0
272,64,51823,1,0
208,64,52044,1,4
208,64,52154,1,4
56,192,52706,5,0
120,192,52927,1,0
184,192,53147,1,0
248,192,53368,1,0
312,192,53589,1,0
432,192,54030,5,4
432,72,54472,1,4
312,72,54913,1,4
192,72,55355,1,4
104,192,56017,5,0
104,192,56127,1,0
104,192,56238,1,0
168,192,56458,1,0
232,192,56679,1,0
296,192,56900,1,0
360,192,57121,1,0
424,192,57341,1,2
424,192,57452,1,2
408,312,57783,5,0
408,312,57893,1,0
408,312,58004,1,0
344,312,58224,1,0
280,312,58445,1,0
216,312,58666,1,0
152,312,58887,1,0
88,312,59107,1,4
88,280,59218,1,4
48,64,59769,5,0
112,64,59990,1,0
176,64,60211,1,0
240,64,60432,1,0
304,64,60652,1,0
368,64,60873,1,0
432,64,61094,1,0
400,120,61315,2,4,B|256:120|256:120|256:192|400:192|400:192|400:256|400:256,1,360
424,56,63080,6,0,B|384:56,1,30,0|0
392,56,63301,2,0,B|392:136|392:136|320:136|320:48|320:48|296:48,1,210,4|0
320,48,64184,2,0,B|320:128|320:128|248:128|248:40|248:40|224:40,1,210,4|0
248,40,65067,2,0,B|200:112|200:112|248:144|248:216|248:216|328:216|328:296,1,330,4|0
328,344,66612,5,0
328,344,66723,1,0
328,344,66833,2,0,B|440:344|440:344|440:280|352:280,1,210,4|0
376,280,67716,2,0,B|439:279|439:343|439:343|327:343,1,210,4|0
328,343,68599,2,0,B|256:192|256:192|152:248|136:192,1,300,4|0
48,192,70144,5,0
48,192,70254,1,0
48,192,70365,2,0,B|48:96|208:96|208:192|208:192|200:192,1,210,4|0
202,172,71248,2,0,B|202:265|322:265|320:267|320:183|320:183|328:168,1,210,4|0
319,186,72131,2,0,B|319:51|80:50|79:190|79:190|79:218,1,360,4|0
144,208,73676,5,0
144,208,73896,2,0,B|280:208|296:128|296:128|256:112,1,210,4|0
271,119,74779,2,0,B|107:119|107:215|107:215|115:215,1,210,4|0
108,216,75662,2,0,B|108:288|164:288|164:352|220:352|220:288|220:288|276:288|276:288|276:240|276:240|244:224|244:224|308:192|308:192|332:224,1,420,4|0
256,192,77426,5,0
256,256,77647,1,0
256,320,77867,1,0
320,320,78088,1,0
384,320,78309,1,0
448,320,78530,1,2
448,288,78640,1,2
424,192,78971,5,0
392,192,79081,1,0
408,168,79192,1,0
352,192,79412,1,0
288,192,79633,1,0
224,192,79854,1,0
160,192,80075,1,0
96,192,80295,1,4
96,160,80406,1,4
152,72,80958,5,0
152,200,81399,1,0
256,280,81841,1,0
368,216,82282,1,0
256,248,82741,5,0
256,312,82962,1,0
256,248,83183,1,0
256,312,83404,1,0
256,280,83514,1,0
256,280,83735,5,0
256,216,83955,1,0
256,152,84176,1,0
256,280,84596,5,2
256,216,84817,1,2
256,152,85038,1,2
256,280,85479,5,4
256,216,85700,1,4
256,152,85921,1,4
256,280,86356,5,0
256,216,86577,1,0
256,152,86798,1,0
256,88,87018,1,0
256,192,87570,5,4
